  0
SECTION
  2
HEADER
  9
$ACADVER
  1
AC1018
  9
$ACADMAINTVER
 70
     0
  9
$DWGCODEPAGE
  3
ANSI_1252
  9
$INSBASE
 10
0.0
 20
0.0
 30
0.0
  9
$EXTMIN
 10
109.2088172223674
 20
-201.7846730797349
 30
0.0
  9
$EXTMAX
 10
430.4845664528832
 20
448.6350234163578
 30
0.0
  9
$LIMMIN
 10
0.0
 20
0.0
  9
$LIMMAX
 10
420.0
 20
297.0
  9
$ORTHOMODE
 70
     1
  9
$REGENMODE
 70
     1
  9
$FILLMODE
 70
     1
  9
$QTEXTMODE
 70
     0
  9
$MIRRTEXT
 70
     1
  9
$LTSCALE
 40
0.3
  9
$ATTMODE
 70
     1
  9
$TEXTSIZE
 40
3.5
  9
$TRACEWID
 40
1.0
  9
$TEXTSTYLE
  7
STANDARD
  9
$CLAYER
  8
OBJEKT
  9
$CELTYPE
  6
BYLAYER
  9
$CECOLOR
 62
   256
  9
$CELTSCALE
 40
1.0
  9
$DISPSILH
 70
     0
  9
$DIMSCALE
 40
1.0
  9
$DIMASZ
 40
3.5
  9
$DIMEXO
 40
0.1
  9
$DIMDLI
 40
7.0
  9
$DIMRND
 40
0.0
  9
$DIMDLE
 40
0.0
  9
$DIMEXE
 40
1.8
  9
$DIMTP
 40
0.0
  9
$DIMTM
 40
0.0
  9
$DIMTXT
 40
3.5
  9
$DIMCEN
 40
1.5
  9
$DIMTSZ
 40
0.0
  9
$DIMTOL
 70
     0
  9
$DIMLIM
 70
     0
  9
$DIMTIH
 70
     0
  9
$DIMTOH
 70
     1
  9
$DIMSE1
 70
     0
  9
$DIMSE2
 70
     0
  9
$DIMTAD
 70
     0
  9
$DIMZIN
 70
     8
  9
$DIMBLK
  1

  9
$DIMASO
 70
     1
  9
$DIMSHO
 70
     1
  9
$DIMPOST
  1

  9
$DIMAPOST
  1

  9
$DIMALT
 70
     0
  9
$DIMALTD
 70
     2
  9
$DIMALTF
 40
25.4
  9
$DIMLFAC
 40
1.0
  9
$DIMTOFL
 70
     1
  9
$DIMTVP
 40
1.0
  9
$DIMTIX
 70
     0
  9
$DIMSOXD
 70
     0
  9
$DIMSAH
 70
     0
  9
$DIMBLK1
  1

  9
$DIMBLK2
  1

  9
$DIMSTYLE
  2
ISOCP-2000-1-1
  9
$DIMCLRD
 70
   256
  9
$DIMCLRE
 70
   256
  9
$DIMCLRT
 70
     6
  9
$DIMTFAC
 40
1.0
  9
$DIMGAP
 40
0.5
  9
$DIMJUST
 70
     0
  9
$DIMSD1
 70
     0
  9
$DIMSD2
 70
     0
  9
$DIMTOLJ
 70
     1
  9
$DIMTZIN
 70
     0
  9
$DIMALTZ
 70
     0
  9
$DIMALTTZ
 70
     0
  9
$DIMUPT
 70
     0
  9
$DIMDEC
 70
     2
  9
$DIMTDEC
 70
     2
  9
$DIMALTU
 70
     8
  9
$DIMALTTD
 70
     2
  9
$DIMTXSTY
  7
ISOCP
  9
$DIMAUNIT
 70
     0
  9
$DIMADEC
 70
     2
  9
$DIMALTRND
 40
0.0
  9
$DIMAZIN
 70
     2
  9
$DIMDSEP
 70
    44
  9
$DIMATFIT
 70
     3
  9
$DIMFRAC
 70
     0
  9
$DIMLDRBLK
  1

  9
$DIMLUNIT
 70
     2
  9
$DIMLWD
 70
    13
  9
$DIMLWE
 70
    13
  9
$DIMTMOVE
 70
     2
  9
$LUNITS
 70
     2
  9
$LUPREC
 70
     4
  9
$SKETCHINC
 40
1.0
  9
$FILLETRAD
 40
0.0
  9
$AUNITS
 70
     0
  9
$AUPREC
 70
     0
  9
$MENU
  1
acad
  9
$ELEVATION
 40
0.0
  9
$PELEVATION
 40
0.0
  9
$THICKNESS
 40
0.0
  9
$LIMCHECK
 70
     0
  9
$CHAMFERA
 40
10.0
  9
$CHAMFERB
 40
10.0
  9
$CHAMFERC
 40
20.0
  9
$CHAMFERD
 40
0.0
  9
$SKPOLY
 70
     0
  9
$TDCREATE
 40
2452583.490317465
  9
$TDUCREATE
 40
2452583.406984132
  9
$TDUPDATE
 40
2453847.451276563
  9
$TDUUPDATE
 40
2453847.367943229
  9
$TDINDWG
 40
0.0310593403
  9
$TDUSRTIMER
 40
0.0310586111
  9
$USRTIMER
 70
     1
  9
$ANGBASE
 50
0.0
  9
$ANGDIR
 70
     0
  9
$PDMODE
 70
     0
  9
$PDSIZE
 40
0.0
  9
$PLINEWID
 40
0.0
  9
$SPLFRAME
 70
     0
  9
$SPLINETYPE
 70
     6
  9
$SPLINESEGS
 70
     8
  9
$HANDSEED
  5
81A0
  9
$SURFTAB1
 70
     6
  9
$SURFTAB2
 70
     6
  9
$SURFTYPE
 70
     6
  9
$SURFU
 70
     6
  9
$SURFV
 70
     6
  9
$UCSBASE
  2

  9
$UCSNAME
  2

  9
$UCSORG
 10
0.0
 20
0.0
 30
0.0
  9
$UCSXDIR
 10
1.0
 20
0.0
 30
0.0
  9
$UCSYDIR
 10
0.0
 20
1.0
 30
0.0
  9
$UCSORTHOREF
  2

  9
$UCSORTHOVIEW
 70
     0
  9
$UCSORGTOP
 10
0.0
 20
0.0
 30
0.0
  9
$UCSORGBOTTOM
 10
0.0
 20
0.0
 30
0.0
  9
$UCSORGLEFT
 10
0.0
 20
0.0
 30
0.0
  9
$UCSORGRIGHT
 10
0.0
 20
0.0
 30
0.0
  9
$UCSORGFRONT
 10
0.0
 20
0.0
 30
0.0
  9
$UCSORGBACK
 10
0.0
 20
0.0
 30
0.0
  9
$PUCSBASE
  2

  9
$PUCSNAME
  2

  9
$PUCSORG
 10
0.0
 20
0.0
 30
0.0
  9
$PUCSXDIR
 10
1.0
 20
0.0
 30
0.0
  9
$PUCSYDIR
 10
0.0
 20
1.0
 30
0.0
  9
$PUCSORTHOREF
  2

  9
$PUCSORTHOVIEW
 70
     0
  9
$PUCSORGTOP
 10
0.0
 20
0.0
 30
0.0
  9
$PUCSORGBOTTOM
 10
0.0
 20
0.0
 30
0.0
  9
$PUCSORGLEFT
 10
0.0
 20
0.0
 30
0.0
  9
$PUCSORGRIGHT
 10
0.0
 20
0.0
 30
0.0
  9
$PUCSORGFRONT
 10
0.0
 20
0.0
 30
0.0
  9
$PUCSORGBACK
 10
0.0
 20
0.0
 30
0.0
  9
$USERI1
 70
     0
  9
$USERI2
 70
     0
  9
$USERI3
 70
     0
  9
$USERI4
 70
     0
  9
$USERI5
 70
     0
  9
$USERR1
 40
0.0
  9
$USERR2
 40
0.0
  9
$USERR3
 40
0.0
  9
$USERR4
 40
0.0
  9
$USERR5
 40
0.0
  9
$WORLDVIEW
 70
     1
  9
$SHADEDGE
 70
     3
  9
$SHADEDIF
 70
    70
  9
$TILEMODE
 70
     1
  9
$MAXACTVP
 70
    48
  9
$PINSBASE
 10
0.0
 20
0.0
 30
0.0
  9
$PLIMCHECK
 70
     0
  9
$PEXTMIN
 10
7.517505788460598
 20
6.000216251557955
 30
0.0
  9
$PEXTMAX
 10
194.7175057884606
 20
276.000216251558
 30
0.0
  9
$PLIMMIN
 10
-5.873749732971191
 20
-5.408092021942136
  9
$PLIMMAX
 10
204.0995779037475
 20
291.5602307319641
  9
$UNITMODE
 70
     0
  9
$VISRETAIN
 70
     1
  9
$PLINEGEN
 70
     0
  9
$PSLTSCALE
 70
     1
  9
$TREEDEPTH
 70
  3020
  9
$CMLSTYLE
  2
STANDARD
  9
$CMLJUST
 70
     0
  9
$CMLSCALE
 40
20.0
  9
$PROXYGRAPHICS
 70
     1
  9
$MEASUREMENT
 70
     1
  9
$CELWEIGHT
370
    -1
  9
$ENDCAPS
280
     0
  9
$JOINSTYLE
280
     0
  9
$LWDISPLAY
290
     0
  9
$INSUNITS
 70
     0
  9
$HYPERLINKBASE
  1

  9
$STYLESHEET
  1
MONOCHROME.CTB
  9
$XEDIT
290
     1
  9
$CEPSNTYPE
380
     0
  9
$PSTYLEMODE
290
     1
  9
$FINGERPRINTGUID
  2
{807DCE7E-07C7-11D5-AD80-00105AD93755}
  9
$VERSIONGUID
  2
{1EADE9E8-B530-4A51-B910-85CD763FE956}
  9
$EXTNAMES
290
     1
  9
$PSVPSCALE
 40
0.0
  9
$OLESTARTUP
290
     0
  9
$SORTENTS
280
    96
  9
$INDEXCTL
280
     0
  9
$HIDETEXT
280
     0
  9
$XCLIPFRAME
290
     0
  9
$HALOGAP
280
     0
  9
$OBSCOLOR
 70
   257
  9
$OBSLTYPE
280
     0
  9
$INTERSECTIONDISPLAY
280
     0
  9
$INTERSECTIONCOLOR
 70
   257
  9
$DIMASSOC
280
     1
  9
$PROJECTNAME
  1

  0
ENDSEC
  0
SECTION
  2
CLASSES
  0
CLASS
  1
DICTIONARYVAR
  2
AcDbDictionaryVar
  3
ObjectDBX Classes
 90
        0
 91
        4
280
     0
281
     0
  0
CLASS
  1
ACDBDICTIONARYWDFLT
  2
AcDbDictionaryWithDefault
  3
ObjectDBX Classes
 90
        0
 91
        1
280
     0
281
     0
  0
ENDSEC
  0
SECTION
  2
TABLES
  0
TABLE
  2
VPORT
  5
8
330
0
100
AcDbSymbolTable
 70
     2
  0
VPORT
  5
819F
330
8
100
AcDbSymbolTableRecord
100
AcDbViewportTableRecord
  2
*Active
 70
     0
 10
0.0
 20
0.0
 11
1.0
 21
1.0
 12
351.6865255954815
 22
116.1677541705424
 13
0.0
 23
0.0
 14
10.0
 24
10.0
 15
10.0
 25
10.0
 16
0.0
 26
0.0
 36
1.0
 17
0.0
 27
0.0
 37
0.0
 40
764.1071645540392
 41
1.566186107470511
 42
50.0
 43
0.0
 44
0.0
 50
0.0
 51
0.0
 71
     0
 72
   100
 73
     1
 74
     1
 75
     0
 76
     0
 77
     0
 78
     0
281
     0
 65
     1
110
0.0
120
0.0
130
0.0
111
1.0
121
0.0
131
0.0
112
0.0
122
1.0
132
0.0
 79
     0
146
0.0
  0
ENDTAB
  0
TABLE
  2
LTYPE
  5
5
330
0
100
AcDbSymbolTable
 70
     4
  0
LTYPE
  5
12
330
5
100
AcDbSymbolTableRecord
100
AcDbLinetypeTableRecord
  2
BYBLOCK
 70
     0
  3

 72
    65
 73
     0
 40
0.0
  0
LTYPE
  5
13
330
5
100
AcDbSymbolTableRecord
100
AcDbLinetypeTableRecord
  2
BYLAYER
 70
     0
  3

 72
    65
 73
     0
 40
0.0
  0
LTYPE
  5
14
330
5
100
AcDbSymbolTableRecord
100
AcDbLinetypeTableRecord
  2
CONTINUOUS
 70
     0
  3
Solid line
 72
    65
 73
     0
 40
0.0
  0
LTYPE
  5
26
330
5
100
AcDbSymbolTableRecord
100
AcDbLinetypeTableRecord
  2
MITTE
 70
     0
  3
Mitte ____ _ ____ _ ____ _ ____ _ ____ _ ____
 72
    65
 73
     4
 40
50.8
 49
31.75
 74
     0
 49
-6.349999999999997
 74
     0
 49
6.349999999999997
 74
     0
 49
-6.349999999999997
 74
     0
  0
LTYPE
  5
1BFE
330
5
100
AcDbSymbolTableRecord
100
AcDbLinetypeTableRecord
  2
STRICHPUNKT
 70
     0
  3
__ . __ . __ . __ . __ . __ . __ . __ . __ . __
 72
    65
 73
     4
 40
1.0
 49
0.5
 74
     0
 49
-0.25
 74
     0
 49
0.0
 74
     0
 49
-0.25
 74
     0
  0
LTYPE
  5
1E27
330
5
100
AcDbSymbolTableRecord
100
AcDbLinetypeTableRecord
  2
MITTE2
 70
     0
  3
Mitte (.5x) ___ _ ___ _ ___ _ ___ _ ___ _ ___
 72
    65
 73
     4
 40
28.575
 49
19.05
 74
     0
 49
-3.174999999999998
 74
     0
 49
3.174999999999998
 74
     0
 49
-3.174999999999998
 74
     0
  0
ENDTAB
  0
TABLE
  2
LAYER
  5
2
330
0
100
AcDbSymbolTable
 70
    15
  0
LAYER
  5
E
330
2
100
AcDbSymbolTableRecord
100
AcDbLayerTableRecord
  2
0
 70
     0
 62
     7
  6
CONTINUOUS
370
    -3
390
1449
  0
LAYER
  5
23
330
2
100
AcDbSymbolTableRecord
100
AcDbLayerTableRecord
  2
OBJEKT
 70
     0
 62
     7
  6
CONTINUOUS
370
    50
390
1449
  0
LAYER
  5
2A
330
2
100
AcDbSymbolTableRecord
100
AcDbLayerTableRecord
  2
MITTELLINIE
 70
     0
 62
     1
  6
MITTE
370
    -3
390
1449
  0
LAYER
  5
2C
330
2
100
AcDbSymbolTableRecord
100
AcDbLayerTableRecord
  2
SCHRAFFUR
 70
     0
 62
     9
  6
CONTINUOUS
370
    -3
390
1449
  0
LAYER
  5
FC
330
2
100
AcDbSymbolTableRecord
100
AcDbLayerTableRecord
  2
1
 70
     0
 62
     7
  6
CONTINUOUS
370
    50
390
1449
  0
LAYER
  5
100
330
2
100
AcDbSymbolTableRecord
100
AcDbLayerTableRecord
  2
5
 70
     0
 62
     4
  6
CONTINUOUS
370
    -3
390
1449
  0
LAYER
  5
101
330
2
100
AcDbSymbolTableRecord
100
AcDbLayerTableRecord
  2
4
 70
     0
 62
     2
  6
CONTINUOUS
370
    -3
390
1449
  0
LAYER
  5
13F5
330
2
100
AcDbSymbolTableRecord
100
AcDbLayerTableRecord
  2
DEFPOINTS
 70
     0
 62
     7
  6
CONTINUOUS
290
     0
370
    -3
390
1449
  0
LAYER
  5
15D3
330
2
100
AcDbSymbolTableRecord
100
AcDbLayerTableRecord
  2
WERKSKANTEN
 70
     0
 62
     7
  6
CONTINUOUS
370
    -3
390
1449
  0
LAYER
  5
1BFF
330
2
100
AcDbSymbolTableRecord
100
AcDbLayerTableRecord
  2
2
 70
     0
 62
     1
  6
STRICHPUNKT
370
    -3
390
1449
  0
LAYER
  5
1E2A
330
2
100
AcDbSymbolTableRecord
100
AcDbLayerTableRecord
  2
SCHRAFUR
 70
     0
 62
     9
  6
CONTINUOUS
370
    -3
390
1449
  0
LAYER
  5
1E2B
330
2
100
AcDbSymbolTableRecord
100
AcDbLayerTableRecord
  2
TEXTE
 70
     0
 62
     2
  6
CONTINUOUS
370
    -3
390
1449
  0
LAYER
  5
2318
330
2
100
AcDbSymbolTableRecord
100
AcDbLayerTableRecord
  2
4-TEXT
 70
     0
 62
     2
  6
CONTINUOUS
370
    13
390
1449
  0
LAYER
  5
2499
330
2
100
AcDbSymbolTableRecord
100
AcDbLayerTableRecord
  2
Ansichtsfenster
 70
     0
 62
     5
  6
CONTINUOUS
370
    -3
390
1449
  0
LAYER
  5
24A5
330
2
100
AcDbSymbolTableRecord
100
AcDbLayerTableRecord
  2
5-BEM
 70
     0
 62
     4
  6
CONTINUOUS
370
    30
390
1449
  0
ENDTAB
  0
TABLE
  2
STYLE
  5
3
330
0
100
AcDbSymbolTable
 70
     3
  0
STYLE
  5
F
330
3
100
AcDbSymbolTableRecord
100
AcDbTextStyleTableRecord
  2
STANDARD
 70
     0
 40
0.0
 41
1.0
 50
0.0
 71
     0
 42
3.5
  3
isocp.shx
  4

  0
STYLE
  5
102
330
3
100
AcDbSymbolTableRecord
100
AcDbTextStyleTableRecord
  2
ROMANS
 70
     0
 40
0.0
 41
1.0
 50
0.0
 71
     0
 42
3.5
  3
romans
  4

  0
STYLE
  5
1128
330
3
100
AcDbSymbolTableRecord
100
AcDbTextStyleTableRecord
  2
ISOCP
 70
     0
 40
0.0
 41
1.0
 50
0.0
 71
     0
 42
3.5
  3
isocp.shx
  4

  0
ENDTAB
  0
TABLE
  2
VIEW
  5
6
330
0
100
AcDbSymbolTable
 70
     0
  0
ENDTAB
  0
TABLE
  2
UCS
  5
7
330
0
100
AcDbSymbolTable
 70
     0
  0
ENDTAB
  0
TABLE
  2
APPID
  5
9
330
0
100
AcDbSymbolTable
 70
     4
  0
APPID
  5
10
330
9
100
AcDbSymbolTableRecord
100
AcDbRegAppTableRecord
  2
ACAD
 70
     0
  0
APPID
  5
112B
330
9
100
AcDbSymbolTableRecord
100
AcDbRegAppTableRecord
  2
CONTENTTABDATA
 70
     0
  0
APPID
  5
112C
330
9
100
AcDbSymbolTableRecord
100
AcDbRegAppTableRecord
  2
CONTENTCURRENTTAB
 70
     0
  0
APPID
  5
13A0
330
9
100
AcDbSymbolTableRecord
100
AcDbRegAppTableRecord
  2
CONTENTBLOCKICON
 70
     0
  0
ENDTAB
  0
TABLE
  2
DIMSTYLE
  5
A
330
0
100
AcDbSymbolTable
 70
     2
100
AcDbDimStyleTable
 71
     2
340
24A6
340
1C00
  0
DIMSTYLE
105
1C00
330
A
100
AcDbSymbolTableRecord
100
AcDbDimStyleTableRecord
  2
STANDARD
 70
     0
340
F
  0
DIMSTYLE
105
24A6
102
{ACAD_REACTORS
330
3035
330
3036
330
303E
330
7DDD
102
}
330
A
100
AcDbSymbolTableRecord
100
AcDbDimStyleTableRecord
  2
ISOCP-2000-1-1
 70
     0
 41
3.5
 42
0.1
 43
7.0
 44
1.8
 73
     0
 78
     8
 79
     2
140
3.5
141
1.5
145
1.0
147
0.5
172
     1
176
   256
177
   256
178
     6
179
     2
271
     2
272
     2
273
     8
278
    44
279
     2
340
1128
371
    13
372
    13
  0
ENDTAB
  0
TABLE
  2
BLOCK_RECORD
  5
1
330
0
100
AcDbSymbolTable
 70
    16
  0
BLOCK_RECORD
  5
18
330
1
100
AcDbSymbolTableRecord
100
AcDbBlockTableRecord
  2
*MODEL_SPACE
340
144C
  0
BLOCK_RECORD
  5
2588
330
1
100
AcDbSymbolTableRecord
100
AcDbBlockTableRecord
  2
*Paper_Space
340
2589
  0
BLOCK_RECORD
  5
103
330
1
100
AcDbSymbolTableRecord
100
AcDbBlockTableRecord
  2
PROTO
340
0
310
280000002000000020000000010004000000000000020000000000000000000000000000000000000000000000008000008000000080800080000000800080008080000080808000C0C0C0000000FF0000FF000000FFFF00FF000000FF00FF00FFFF0000FFFFFF00FFFFFFFFFFFFFFFFFFFFFFFFFFFFFFFFFFFFFFFFFFFFFF
310
FFFFFFFFFFFFFFFFFFFFFFFFFFFFFFFFFFFFFFFFFFFFFFFFFFFFFFFFFFFFFFFFFFFFFFFFFFFFFFFFFFFFFFFFFFFFFFFFFFFFFFFFFFFFFFFFFFFFFFFFFFFFFFFFFFFFFFFFFFFFFFFFFFFFFFFFFFFFFFFFFFFFFFFFFFFFFFFFFFFFFFFFFFFFFFFFFFFFFFFFFFFFFFFFFFFFFFFFFFFFFFFFFFFFFFFFFFFFFFFFFFFFFFFFFFFFFF
310
FFFFFFFFFFFFFFFFFFFFFFFFFFFFFFFFFFFFFFFFFFFFFFFFFFFFFFFFFFFFFFFFFFFFFFFFFFFFFFFFFFFFFFFFFFFFFFFFFFFFFFFFFFFFFFFFFFFFFFFFFFFFFFFFFFFFFFFFFFFFFFFFFFFFFFFFFFFFFFFFFFFFFFFFFFFFFFFFFFFFFFFFFFFFFFFFFFFFFFFFFFFFFFFFFFFFFFFFFFFFFFFFFFFFFFFFFFFFFFFFFFFFFFFFFFFFFF
310
FFFFFFFFFFFFFFFFFFFFFFFFFFFFFFFFFFFFFFFFFFFFFFFFFFFFFFFFFFFFFFFFFFFFFFFFFFFFFFFFFFFFFFFFFFFFFFFFFFFFFFFFFFFFFFFFFFFFFFFFFFFFFFFFFFFFFFFFFFFFFFFFFFFFFFFFFFFFFFFFFFFFFFFFFFFFFFFFFFFFFFFFFFFFFFFFFFFFFFFFFFFFFFFFFFFFFFFFFFFFFFFFFFFFFFFFFFFFFFFFFFFFFFFFFFFFFF
310
FFFFFFFFFFFFFFFFFFFFFFFFFFFFFFFFFFFFFFFFFFFFFFFFFFFFFFFFFFFFFFFFFFFFFFFFFFFFFFFFFFFFFFFFFFFFFFFFFFFFFFFFFFFFFFFFFFFFFFFFFFFFFFFFFFFFFFFFFFFFFFFFFFFFFFFFFFFFFFFFFFFFFFFFFFFFFFFFFFFFFFFFFFFFFFFFFFFFFFFFFFFFFFFFFFFFFFFF
102
{BLKREFS
331
107
102
}
  0
BLOCK_RECORD
  5
1EC7
330
1
100
AcDbSymbolTableRecord
100
AcDbBlockTableRecord
  2
schriftfeld-31.01.02
340
0
102
{BLKREFS
331
244F
331
253E
331
261D
331
26F8
102
}
  0
BLOCK_RECORD
  5
2319
330
1
100
AcDbSymbolTableRecord
100
AcDbBlockTableRecord
  2
Toleranz1000
340
0
102
{BLKREFS
331
261C
331
273C
102
}
  0
BLOCK_RECORD
  5
232F
330
1
100
AcDbSymbolTableRecord
100
AcDbBlockTableRecord
  2
Datenblatt 13.02.02
340
0
102
{BLKREFS
331
25FF
331
26D6
102
}
  0
BLOCK_RECORD
  5
258C
330
1
100
AcDbSymbolTableRecord
100
AcDbBlockTableRecord
  2
*Paper_Space4
340
258D
  0
BLOCK_RECORD
  5
24A7
330
1
100
AcDbSymbolTableRecord
100
AcDbBlockTableRecord
  2
oberfläche_nach_1302
340
0
102
{BLKREFS
331
24AD
331
2585
102
}
1001
ACAD
1000
DesignCenter Data
1002
{
1070
     1
1070
     4
1002
}
  0
BLOCK_RECORD
  5
24AE
330
1
100
AcDbSymbolTableRecord
100
AcDbBlockTableRecord
  2
Allgemeintoleranzen1
340
0
102
{BLKREFS
331
24B4
331
2582
102
}
  0
BLOCK_RECORD
  5
24DA
330
1
100
AcDbSymbolTableRecord
100
AcDbBlockTableRecord
  2
A3ra
340
0
102
{BLKREFS
331
24E3
102
}
  0
BLOCK_RECORD
  5
23BE
330
1
100
AcDbSymbolTableRecord
100
AcDbBlockTableRecord
  2
*Paper_Space8
340
23BF
  0
BLOCK_RECORD
  5
23BA
330
1
100
AcDbSymbolTableRecord
100
AcDbBlockTableRecord
  2
*Paper_Space9
340
23BB
  0
BLOCK_RECORD
  5
28F8
330
1
100
AcDbSymbolTableRecord
100
AcDbBlockTableRecord
  2
Werkstückkanten
340
0
102
{BLKREFS
331
290E
331
2922
102
}
  0
BLOCK_RECORD
  5
3184
330
1
100
AcDbSymbolTableRecord
100
AcDbBlockTableRecord
  2
*D11
340
0
  0
BLOCK_RECORD
  5
3190
330
1
100
AcDbSymbolTableRecord
100
AcDbBlockTableRecord
  2
*D12
340
0
  0
BLOCK_RECORD
  5
31A8
330
1
100
AcDbSymbolTableRecord
100
AcDbBlockTableRecord
  2
*D13
340
0
  0
BLOCK_RECORD
  5
7DDE
330
1
100
AcDbSymbolTableRecord
100
AcDbBlockTableRecord
  2
*D14
340
0
  0
BLOCK_RECORD
  5
7F3F
330
1
100
AcDbSymbolTableRecord
100
AcDbBlockTableRecord
  2
*X15
340
0
102
{BLKREFS
331
7FD2
331
7FF8
102
}
  0
ENDTAB
  0
ENDSEC
  0
SECTION
  2
BLOCKS
  0
BLOCK
  5
19
330
18
100
AcDbEntity
  8
0
100
AcDbBlockBegin
  2
*MODEL_SPACE
 70
     0
 10
0.0
 20
0.0
 30
0.0
  3
*MODEL_SPACE
  1

  0
ENDBLK
  5
1A
330
18
100
AcDbEntity
  8
0
100
AcDbBlockEnd
  0
BLOCK
  5
258A
330
2588
100
AcDbEntity
 67
     1
  8
0
100
AcDbBlockBegin
  2
*Paper_Space
 70
     0
 10
0.0
 20
0.0
 30
0.0
  3
*Paper_Space
  1

  0
ENDBLK
  5
258B
330
2588
100
AcDbEntity
 67
     1
  8
0
100
AcDbBlockEnd
  0
BLOCK
  5
104
330
103
100
AcDbEntity
  8
0
100
AcDbBlockBegin
  2
PROTO
 70
     0
 10
0.0
 20
0.0
 30
0.0
  3
PROTO
  1

  0
ENDBLK
  5
105
330
103
100
AcDbEntity
  8
0
100
AcDbBlockEnd
  0
BLOCK
  5
1F5E
330
1EC7
100
AcDbEntity
  8
0
100
AcDbBlockBegin
  2
schriftfeld-31.01.02
 70
     2
 10
0.0
 20
0.0
 30
0.0
  3
schriftfeld-31.01.02
  1

  0
ATTDEF
  5
1EC8
330
1EC7
100
AcDbEntity
  8
TEXTE
 62
     6
370
    35
100
AcDbText
 10
-42.57902579965853
 20
27.41847158242493
 30
0.0
 40
3.5
  1

  7
ISOCP
 72
     1
 11
-42.57902579965853
 21
27.41847158242493
 31
0.0
100
AcDbAttributeDefinition
  3
Benennung
  2
BENENNUNG
 70
     0
  0
ATTDEF
  5
1EC9
330
1EC7
100
AcDbEntity
  8
TEXTE
100
AcDbText
 10
-81.88793327393478
 20
16.52537108464139
 30
0.0
 40
3.5
  1

  7
ISOCP
100
AcDbAttributeDefinition
  3
A?
  2
A?
 70
     0
  0
ATTDEF
  5
1ECA
330
1EC7
100
AcDbEntity
  8
TEXTE
 62
     6
370
    35
100
AcDbText
 10
-44.16891796252076
 20
16.6131201199115
 30
0.0
 40
3.5
  1

  7
ISOCP
 72
     1
 11
-44.16891796252076
 21
16.6131201199115
 31
0.0
100
AcDbAttributeDefinition
  3
Zeichnungsnummer
  2
ZNR
 70
     0
  0
ATTDEF
  5
1ECB
330
1EC7
100
AcDbEntity
  8
TEXTE
100
AcDbText
 10
-85.71224364036311
 20
9.136808296300372
 30
0.0
 40
3.5
  1

 41
6.888667361090062
  7
ISOCP
 72
     5
 11
0.0
 21
9.136808296300367
 31
0.0
100
AcDbAttributeDefinition
  3
Klassifizierungsnr.
  2
KL.NR.
 70
     0
  0
TEXT
  5
1ECC
330
1EC7
100
AcDbEntity
  8
TEXTE
100
AcDbText
 10
-140.6
 20
18.0000000000001
 30
0.0
 40
2.5
  1
CAD
  7
ISOCP
100
AcDbText
  0
ATTDEF
  5
1ECD
330
1EC7
100
AcDbEntity
  8
TEXTE
100
AcDbText
 10
-130.0425163509875
 20
18.06867633133571
 30
0.0
 40
2.5
  1

  7
ISOCP
100
AcDbAttributeDefinition
  3
CAD Datum
  2
CADDAT
 70
     0
  0
ATTDEF
  5
1ECE
330
1EC7
100
AcDbEntity
  8
TEXTE
100
AcDbText
 10
-114.491998736572
 20
18.06867633133571
 30
0.0
 40
2.5
  1

  7
ISOCP
100
AcDbAttributeDefinition
  3
Bearb. Name
  2
BEARBNAME
 70
     0
  0
TEXT
  5
1ECF
330
1EC7
100
AcDbEntity
  8
TEXTE
100
AcDbText
 10
-140.6
 20
30.75000000000005
 30
0.0
 40
2.5
  1
Bearb.
  7
ISOCP
100
AcDbText
  0
ATTDEF
  5
1ED0
330
1EC7
100
AcDbEntity
  8
TEXTE
100
AcDbText
 10
-130.0425163509874
 20
30.81867633133571
 30
0.0
 40
2.5
  1

  7
ISOCP
100
AcDbAttributeDefinition
  3
Bearb. Datum
  2
BEARBDAT
 70
     0
  0
ATTDEF
  5
1ED1
330
1EC7
100
AcDbEntity
  8
TEXTE
100
AcDbText
 10
-114.491998736572
 20
30.81867633133571
 30
0.0
 40
2.5
  1

  7
ISOCP
100
AcDbAttributeDefinition
  3
Bearb. Name
  2
BEARBNAME
 70
     0
  0
TEXT
  5
1ED2
330
1EC7
100
AcDbEntity
  8
TEXTE
100
AcDbText
 10
-140.6
 20
26.5000000000001
 30
0.0
 40
2.5
  1
Gepr.
  7
ISOCP
100
AcDbText
  0
ATTDEF
  5
1ED3
330
1EC7
100
AcDbEntity
  8
TEXTE
100
AcDbText
 10
-130.0425163509874
 20
26.56867633133571
 30
0.0
 40
2.5
  1

  7
ISOCP
100
AcDbAttributeDefinition
  3
Geprüftes Datum
  2
GEPR-DAT
 70
     0
  0
ATTDEF
  5
1ED4
330
1EC7
100
AcDbEntity
  8
TEXTE
100
AcDbText
 10
-114.491998736572
 20
26.56867633133571
 30
0.0
 40
2.5
  1

  7
ISOCP
100
AcDbAttributeDefinition
  3
Geprüft Name
  2
GEPÜNAME
 70
     0
  0
TEXT
  5
1ED5
330
1EC7
100
AcDbEntity
  8
TEXTE
100
AcDbText
 10
-140.6
 20
22.25000000000004
 30
0.0
 40
2.5
  1
Norm
  7
ISOCP
100
AcDbText
  0
ATTDEF
  5
1ED6
330
1EC7
100
AcDbEntity
  8
TEXTE
100
AcDbText
 10
-130.0425163509875
 20
22.31867633133571
 30
0.0
 40
2.5
  1

  7
ISOCP
100
AcDbAttributeDefinition
  3
NORM Datum
  2
NORMBDAT
 70
     0
  0
ATTDEF
  5
1ED7
330
1EC7
100
AcDbEntity
  8
TEXTE
100
AcDbText
 10
-114.491998736572
 20
22.31867633133571
 30
0.0
 40
2.5
  1

  7
ISOCP
100
AcDbAttributeDefinition
  3
Bearb. Name
  2
BEARBNAME
 70
     0
  0
ATTDEF
  5
1ED8
330
1EC7
100
AcDbEntity
  8
TEXTE
100
AcDbText
 10
-106.4604474064139
 20
64.81867633133567
 30
0.0
 40
2.5
  1

  7
ISOCP
 72
     1
 11
-106.4604474064139
 21
64.81867633133567
 31
0.0
100
AcDbAttributeDefinition
  3
Maßstab1
  2
MAßSTAB1
 70
     0
  0
ATTDEF
  5
1ED9
330
1EC7
100
AcDbEntity
  8
TEXTE
100
AcDbText
 10
-106.1200117540381
 20
60.56867633133567
 30
0.0
 40
2.5
  1

  7
ISOCP
 72
     1
 11
-106.1200117540381
 21
60.56867633133567
 31
0.0
100
AcDbAttributeDefinition
  3
Maßstab2
  2
MAßSTAB2
 70
     0
  0
ATTDEF
  5
1EDA
330
1EC7
100
AcDbEntity
  8
TEXTE
100
AcDbText
 10
-106.1200117540381
 20
56.31867633133566
 30
0.0
 40
2.5
  1

  7
ISOCP
 72
     1
 11
-106.1200117540381
 21
56.31867633133566
 31
0.0
100
AcDbAttributeDefinition
  3
maßstab3
  2
MAßSTAB3
 70
     0
  0
ATTDEF
  5
1EDB
330
1EC7
100
AcDbEntity
  8
TEXTE
100
AcDbText
 10
-130.0425163509874
 20
1.068676331335709
 30
0.0
 40
2.5
  1

  7
ISOCP
100
AcDbAttributeDefinition
  3
URSPRUNG
  2
URSPRUNG
 70
     0
  0
ATTDEF
  5
1EDC
330
1EC7
100
AcDbEntity
  8
TEXTE
100
AcDbText
 10
-85.84251635098741
 20
1.068676331335693
 30
0.0
 40
2.5
  1

  7
ISOCP
100
AcDbAttributeDefinition
  3
Esetztfuer
  2
ERSETZTFÜR
 70
     0
  0
ATTDEF
  5
1EDD
330
1EC7
100
AcDbEntity
  8
TEXTE
100
AcDbText
 10
-37.14251635098742
 20
1.068676331335679
 30
0.0
 40
2.5
  1

  7
ISOCP
100
AcDbAttributeDefinition
  3
Erstelltfür
  2
ERSTELLTFÜR
 70
     0
  0
TEXT
  5
1EDE
330
1EC7
100
AcDbEntity
  8
TEXTE
100
AcDbText
 10
-186.2
 20
1.000000000000055
 30
0.0
 40
2.5
  1
Zust.
  7
ISOCP
100
AcDbText
  0
TEXT
  5
1EDF
330
1EC7
100
AcDbEntity
  8
TEXTE
100
AcDbText
 10
-177.9345499795853
 20
1.000000000000055
 30
0.0
 40
2.5
  1
Änd.
  7
ISOCP
100
AcDbText
  0
TEXT
  5
1EE0
330
1EC7
100
AcDbEntity
  8
TEXTE
100
AcDbText
 10
-164.900279456747
 20
0.909003677139907
 30
0.0
 40
2.5
  1
Datum
  7
ISOCP
100
AcDbText
  0
TEXT
  5
1EE1
330
1EC7
100
AcDbEntity
  8
TEXTE
100
AcDbText
 10
-152.0797376658415
 20
0.909003677139907
 30
0.0
 40
2.5
  1
Name
  7
ISOCP
100
AcDbText
  0
ATTDEF
  5
1EE2
330
1EC7
100
AcDbEntity
  8
TEXTE
100
AcDbText
 10
-186.0425163509874
 20
5.318676331335709
 30
0.0
 40
2.5
  1

  7
ISOCP
100
AcDbAttributeDefinition
  3
Zustand
  2
ZUST.
 70
     0
  0
ATTDEF
  5
1EE3
330
1EC7
100
AcDbEntity
  8
TEXTE
100
AcDbText
 10
-177.8982217996796
 20
5.318676331335709
 30
0.0
 40
2.5
  1

  7
ISOCP
100
AcDbAttributeDefinition
  3
Änderung
  2
ÄND.
 70
     0
  0
ATTDEF
  5
1EE4
330
1EC7
100
AcDbEntity
  8
TEXTE
100
AcDbText
 10
-164.7427958077344
 20
5.227680008475558
 30
0.0
 40
2.5
  1

  7
ISOCP
 72
     5
 11
-158.8677958077344
 21
5.227680008475558
 31
0.0
100
AcDbAttributeDefinition
  3
Bearb. Datum
  2
DAT
 70
     0
  0
ATTDEF
  5
1EE5
330
1EC7
100
AcDbEntity
  8
TEXTE
100
AcDbText
 10
-152.1611017383567
 20
5.227680008475558
 30
0.0
 40
2.5
  1

  7
ISOCP
100
AcDbAttributeDefinition
  3
Bearb. NAME
  2
NAME
 70
     0
  0
ATTDEF
  5
1EE6
330
1EC7
100
AcDbEntity
  8
TEXTE
100
AcDbText
 10
-186.0425163509874
 20
9.568676331335707
 30
0.0
 40
2.5
  1

  7
ISOCP
100
AcDbAttributeDefinition
  3
Zustand
  2
ZUST.
 70
     0
  0
ATTDEF
  5
1EE7
330
1EC7
100
AcDbEntity
  8
TEXTE
100
AcDbText
 10
-177.8982217996796
 20
9.568676331335707
 30
0.0
 40
2.5
  1

  7
ISOCP
100
AcDbAttributeDefinition
  3
Änderung
  2
ÄND.
 70
     0
  0
ATTDEF
  5
1EE8
330
1EC7
100
AcDbEntity
  8
TEXTE
100
AcDbText
 10
-164.7427958077344
 20
9.477680008475543
 30
0.0
 40
2.5
  1

  7
ISOCP
 72
     5
 11
-158.8677958077344
 21
9.477680008475543
 31
0.0
100
AcDbAttributeDefinition
  3
Bearb. Datum
  2
DAT
 70
     0
  0
ATTDEF
  5
1EE9
330
1EC7
100
AcDbEntity
  8
TEXTE
100
AcDbText
 10
-152.1611017383567
 20
9.477680008475561
 30
0.0
 40
2.5
  1

  7
ISOCP
100
AcDbAttributeDefinition
  3
Bearb. NAME
  2
NAME
 70
     0
  0
ATTDEF
  5
1EEA
330
1EC7
100
AcDbEntity
  8
TEXTE
100
AcDbText
 10
-186.0425163509874
 20
13.81867633133571
 30
0.0
 40
2.5
  1

  7
ISOCP
100
AcDbAttributeDefinition
  3
Zustand
  2
ZUST.
 70
     0
  0
ATTDEF
  5
1EEB
330
1EC7
100
AcDbEntity
  8
TEXTE
100
AcDbText
 10
-177.8982217996796
 20
13.81867633133571
 30
0.0
 40
2.5
  1

  7
ISOCP
100
AcDbAttributeDefinition
  3
Änderung
  2
ÄND.
 70
     0
  0
ATTDEF
  5
1EEC
330
1EC7
100
AcDbEntity
  8
TEXTE
100
AcDbText
 10
-164.7427958077344
 20
13.72768000847554
 30
0.0
 40
2.5
  1

  7
ISOCP
 72
     5
 11
-158.8677958077344
 21
13.72768000847554
 31
0.0
100
AcDbAttributeDefinition
  3
Bearb. Datum
  2
DAT
 70
     0
  0
ATTDEF
  5
1EED
330
1EC7
100
AcDbEntity
  8
TEXTE
100
AcDbText
 10
-152.1611017383567
 20
13.72768000847556
 30
0.0
 40
2.5
  1

  7
ISOCP
100
AcDbAttributeDefinition
  3
Bearb. NAME
  2
NAME
 70
     0
  0
ATTDEF
  5
1EEE
330
1EC7
100
AcDbEntity
  8
TEXTE
100
AcDbText
 10
-186.0425163509874
 20
18.06867633133571
 30
0.0
 40
2.5
  1

  7
ISOCP
100
AcDbAttributeDefinition
  3
Zustand
  2
ZUST.
 70
     0
  0
ATTDEF
  5
1EEF
330
1EC7
100
AcDbEntity
  8
TEXTE
100
AcDbText
 10
-177.8982217996796
 20
18.06867633133571
 30
0.0
 40
2.5
  1

  7
ISOCP
100
AcDbAttributeDefinition
  3
Änderung
  2
ÄND.
 70
     0
  0
ATTDEF
  5
1EF0
330
1EC7
100
AcDbEntity
  8
TEXTE
100
AcDbText
 10
-164.7427958077344
 20
17.97768000847554
 30
0.0
 40
2.5
  1

  7
ISOCP
 72
     5
 11
-158.8677958077344
 21
17.97768000847554
 31
0.0
100
AcDbAttributeDefinition
  3
Bearb. Datum
  2
DAT
 70
     0
  0
ATTDEF
  5
1EF1
330
1EC7
100
AcDbEntity
  8
TEXTE
100
AcDbText
 10
-152.1611017383567
 20
17.97768000847556
 30
0.0
 40
2.5
  1

  7
ISOCP
100
AcDbAttributeDefinition
  3
Bearb. NAME
  2
NAME
 70
     0
  0
ATTDEF
  5
1EF2
330
1EC7
100
AcDbEntity
  8
TEXTE
100
AcDbText
 10
-186.0425163509874
 20
22.31867633133571
 30
0.0
 40
2.5
  1

  7
ISOCP
100
AcDbAttributeDefinition
  3
Zustand
  2
ZUST.
 70
     0
  0
ATTDEF
  5
1EF3
330
1EC7
100
AcDbEntity
  8
TEXTE
100
AcDbText
 10
-177.8982217996796
 20
22.31867633133571
 30
0.0
 40
2.5
  1

  7
ISOCP
100
AcDbAttributeDefinition
  3
Änderung
  2
ÄND.
 70
     0
  0
ATTDEF
  5
1EF4
330
1EC7
100
AcDbEntity
  8
TEXTE
100
AcDbText
 10
-164.7427958077344
 20
22.22768000847555
 30
0.0
 40
2.5
  1

  7
ISOCP
 72
     5
 11
-158.8677958077344
 21
22.22768000847555
 31
0.0
100
AcDbAttributeDefinition
  3
Bearb. Datum
  2
DAT
 70
     0
  0
ATTDEF
  5
1EF5
330
1EC7
100
AcDbEntity
  8
TEXTE
100
AcDbText
 10
-152.1611017383567
 20
22.22768000847556
 30
0.0
 40
2.5
  1

  7
ISOCP
100
AcDbAttributeDefinition
  3
Bearb. NAME
  2
NAME
 70
     0
  0
ATTDEF
  5
1EF6
330
1EC7
100
AcDbEntity
  8
TEXTE
100
AcDbText
 10
-186.0425163509874
 20
26.56867633133571
 30
0.0
 40
2.5
  1

  7
ISOCP
100
AcDbAttributeDefinition
  3
Zustand
  2
ZUST.
 70
     0
  0
ATTDEF
  5
1EF7
330
1EC7
100
AcDbEntity
  8
TEXTE
100
AcDbText
 10
-177.8982217996796
 20
26.56867633133571
 30
0.0
 40
2.5
  1

  7
ISOCP
100
AcDbAttributeDefinition
  3
Änderung
  2
ÄND.
 70
     0
  0
ATTDEF
  5
1EF8
330
1EC7
100
AcDbEntity
  8
TEXTE
100
AcDbText
 10
-164.7427958077344
 20
26.47768000847555
 30
0.0
 40
2.5
  1

  7
ISOCP
 72
     5
 11
-158.8677958077344
 21
26.47768000847555
 31
0.0
100
AcDbAttributeDefinition
  3
Bearb. Datum
  2
DAT
 70
     0
  0
ATTDEF
  5
1EF9
330
1EC7
100
AcDbEntity
  8
TEXTE
100
AcDbText
 10
-152.1611017383567
 20
26.47768000847556
 30
0.0
 40
2.5
  1

  7
ISOCP
100
AcDbAttributeDefinition
  3
Bearb. NAME
  2
NAME
 70
     0
  0
ATTDEF
  5
1EFA
330
1EC7
100
AcDbEntity
  8
TEXTE
100
AcDbText
 10
-186.0425163509874
 20
30.81867633133571
 30
0.0
 40
2.5
  1

  7
ISOCP
100
AcDbAttributeDefinition
  3
Zustand
  2
ZUST.
 70
     0
  0
ATTDEF
  5
1EFB
330
1EC7
100
AcDbEntity
  8
TEXTE
100
AcDbText
 10
-177.8982217996796
 20
30.81867633133571
 30
0.0
 40
2.5
  1

  7
ISOCP
100
AcDbAttributeDefinition
  3
Änderung
  2
ÄND.
 70
     0
  0
ATTDEF
  5
1EFC
330
1EC7
100
AcDbEntity
  8
TEXTE
100
AcDbText
 10
-164.7427958077344
 20
30.72768000847555
 30
0.0
 40
2.5
  1

  7
ISOCP
 72
     5
 11
-158.8677958077344
 21
30.72768000847555
 31
0.0
100
AcDbAttributeDefinition
  3
Bearb. Datum
  2
DAT
 70
     0
  0
ATTDEF
  5
1EFD
330
1EC7
100
AcDbEntity
  8
TEXTE
100
AcDbText
 10
-152.1611017383567
 20
30.72768000847556
 30
0.0
 40
2.5
  1

  7
ISOCP
100
AcDbAttributeDefinition
  3
Bearb. NAME
  2
NAME
 70
     0
  0
ATTDEF
  5
1EFE
330
1EC7
100
AcDbEntity
  8
TEXTE
100
AcDbText
 10
-186.0425163509874
 20
35.06867633133571
 30
0.0
 40
2.5
  1

  7
ISOCP
100
AcDbAttributeDefinition
  3
Zustand
  2
ZUST.
 70
     0
  0
ATTDEF
  5
1EFF
330
1EC7
100
AcDbEntity
  8
TEXTE
100
AcDbText
 10
-177.8982217996796
 20
35.06867633133571
 30
0.0
 40
2.5
  1

  7
ISOCP
100
AcDbAttributeDefinition
  3
Änderung
  2
ÄND.
 70
     0
  0
ATTDEF
  5
1F00
330
1EC7
100
AcDbEntity
  8
TEXTE
100
AcDbText
 10
-164.7427958077344
 20
34.97768000847556
 30
0.0
 40
2.5
  1

  7
ISOCP
 72
     5
 11
-158.8677958077344
 21
34.97768000847556
 31
0.0
100
AcDbAttributeDefinition
  3
Bearb. Datum
  2
DAT
 70
     0
  0
ATTDEF
  5
1F01
330
1EC7
100
AcDbEntity
  8
TEXTE
100
AcDbText
 10
-152.1611017383567
 20
34.97768000847556
 30
0.0
 40
2.5
  1

  7
ISOCP
100
AcDbAttributeDefinition
  3
Bearb. NAME
  2
NAME
 70
     0
  0
ATTDEF
  5
1F02
330
1EC7
100
AcDbEntity
  8
TEXTE
100
AcDbText
 10
-186.0425163509874
 20
39.31867633133571
 30
0.0
 40
2.5
  1

  7
ISOCP
100
AcDbAttributeDefinition
  3
Zustand
  2
ZUST.
 70
     0
  0
ATTDEF
  5
1F03
330
1EC7
100
AcDbEntity
  8
TEXTE
100
AcDbText
 10
-177.8982217996796
 20
39.31867633133571
 30
0.0
 40
2.5
  1

  7
ISOCP
100
AcDbAttributeDefinition
  3
Änderung
  2
ÄND.
 70
     0
  0
ATTDEF
  5
1F04
330
1EC7
100
AcDbEntity
  8
TEXTE
100
AcDbText
 10
-164.7427958077344
 20
39.22768000847554
 30
0.0
 40
2.5
  1

  7
ISOCP
 72
     5
 11
-158.8677958077344
 21
39.22768000847554
 31
0.0
100
AcDbAttributeDefinition
  3
Bearb. Datum
  2
DAT
 70
     0
  0
ATTDEF
  5
1F05
330
1EC7
100
AcDbEntity
  8
TEXTE
100
AcDbText
 10
-152.1611017383567
 20
39.22768000847556
 30
0.0
 40
2.5
  1

  7
ISOCP
100
AcDbAttributeDefinition
  3
Bearb. NAME
  2
NAME
 70
     0
  0
ATTDEF
  5
1F06
330
1EC7
100
AcDbEntity
  8
TEXTE
100
AcDbText
 10
-186.0425163509874
 20
43.5686763313357
 30
0.0
 40
2.5
  1

  7
ISOCP
100
AcDbAttributeDefinition
  3
Zustand
  2
ZUST.
 70
     0
  0
ATTDEF
  5
1F07
330
1EC7
100
AcDbEntity
  8
TEXTE
100
AcDbText
 10
-177.8982217996796
 20
43.5686763313357
 30
0.0
 40
2.5
  1

  7
ISOCP
100
AcDbAttributeDefinition
  3
Änderung
  2
ÄND.
 70
     0
  0
ATTDEF
  5
1F08
330
1EC7
100
AcDbEntity
  8
TEXTE
100
AcDbText
 10
-164.7427958077344
 20
43.47768000847555
 30
0.0
 40
2.5
  1

  7
ISOCP
 72
     5
 11
-158.8677958077344
 21
43.47768000847555
 31
0.0
100
AcDbAttributeDefinition
  3
Bearb. Datum
  2
DAT
 70
     0
  0
ATTDEF
  5
1F09
330
1EC7
100
AcDbEntity
  8
TEXTE
100
AcDbText
 10
-152.1611017383567
 20
43.47768000847556
 30
0.0
 40
2.5
  1

  7
ISOCP
100
AcDbAttributeDefinition
  3
Bearb. NAME
  2
NAME
 70
     0
  0
ATTDEF
  5
1F0A
330
1EC7
100
AcDbEntity
  8
TEXTE
100
AcDbText
 10
-186.0425163509874
 20
47.81867633133571
 30
0.0
 40
2.5
  1

  7
ISOCP
100
AcDbAttributeDefinition
  3
Zustand
  2
ZUST.
 70
     0
  0
ATTDEF
  5
1F0B
330
1EC7
100
AcDbEntity
  8
TEXTE
100
AcDbText
 10
-177.8982217996796
 20
47.81867633133571
 30
0.0
 40
2.5
  1

  7
ISOCP
100
AcDbAttributeDefinition
  3
Änderung
  2
ÄND.
 70
     0
  0
ATTDEF
  5
1F0C
330
1EC7
100
AcDbEntity
  8
TEXTE
100
AcDbText
 10
-164.7427958077344
 20
47.72768000847555
 30
0.0
 40
2.5
  1

  7
ISOCP
 72
     5
 11
-158.8677958077344
 21
47.72768000847555
 31
0.0
100
AcDbAttributeDefinition
  3
Bearb. Datum
  2
DAT
 70
     0
  0
ATTDEF
  5
1F0D
330
1EC7
100
AcDbEntity
  8
TEXTE
100
AcDbText
 10
-152.1611017383567
 20
47.72768000847555
 30
0.0
 40
2.5
  1

  7
ISOCP
100
AcDbAttributeDefinition
  3
Bearb. NAME
  2
NAME
 70
     0
  0
ATTDEF
  5
1F0E
330
1EC7
100
AcDbEntity
  8
TEXTE
100
AcDbText
 10
-186.0425163509874
 20
52.06867633133565
 30
0.0
 40
2.5
  1

  7
ISOCP
100
AcDbAttributeDefinition
  3
Zustand
  2
ZUST.
 70
     0
  0
ATTDEF
  5
1F0F
330
1EC7
100
AcDbEntity
  8
TEXTE
100
AcDbText
 10
-177.8982217996796
 20
52.06867633133565
 30
0.0
 40
2.5
  1

  7
ISOCP
100
AcDbAttributeDefinition
  3
Änderung
  2
ÄND.
 70
     0
  0
ATTDEF
  5
1F10
330
1EC7
100
AcDbEntity
  8
TEXTE
100
AcDbText
 10
-164.7427958077344
 20
51.97768000847554
 30
0.0
 40
2.5
  1

  7
ISOCP
 72
     5
 11
-158.8677958077344
 21
51.97768000847554
 31
0.0
100
AcDbAttributeDefinition
  3
Bearb. Datum
  2
DAT
 70
     0
  0
ATTDEF
  5
1F11
330
1EC7
100
AcDbEntity
  8
TEXTE
100
AcDbText
 10
-152.1611017383567
 20
51.97768000847553
 30
0.0
 40
2.5
  1

  7
ISOCP
100
AcDbAttributeDefinition
  3
Bearb. NAME
  2
NAME
 70
     0
  0
LINE
  5
1F12
330
1EC7
100
AcDbEntity
  8
1
100
AcDbLine
 10
-97.39999999999998
 20
55.25
 30
0.0
 11
0.0
 21
55.25
 31
0.0
  0
LINE
  5
1F13
330
1EC7
100
AcDbEntity
  8
1
100
AcDbLine
 10
0.0
 20
72.25
 30
0.0
 11
-187.2
 21
72.25
 31
0.0
  0
LINE
  5
1F14
330
1EC7
100
AcDbEntity
  8
1
100
AcDbLine
 10
-141.6
 20
38.25
 30
0.0
 11
0.0
 21
38.25
 31
0.0
  0
LINE
  5
1F15
330
1EC7
100
AcDbEntity
  8
1
100
AcDbLine
 10
-97.39999999999998
 20
23.37500000000004
 30
0.0
 11
0.0
 21
23.37500000000004
 31
0.0
  0
LINE
  5
1F16
330
1EC7
100
AcDbEntity
  8
1
100
AcDbLine
 10
-141.6
 20
4.25000000000004
 30
0.0
 11
0.0
 21
4.25
 31
0.0
  0
LINE
  5
1F17
330
1EC7
100
AcDbEntity
  8
TEXTE
100
AcDbLine
 10
-187.2
 20
0.0000000000000568
 30
0.0
 11
0.0
 21
0.0
 31
0.0
  0
LINE
  5
1F18
330
1EC7
100
AcDbEntity
  8
4
100
AcDbLine
 10
-115.5999999999999
 20
55.25
 30
0.0
 11
-115.5999999999999
 21
72.25
 31
0.0
  0
LINE
  5
1F19
330
1EC7
100
AcDbEntity
  8
1
100
AcDbLine
 10
-97.39999999999998
 20
38.25
 30
0.0
 11
-97.39999999999998
 21
72.25
 31
0.0
  0
LINE
  5
1F1A
330
1EC7
100
AcDbEntity
  8
1
100
AcDbLine
 10
-187.2
 20
72.25
 30
0.0
 11
-187.2
 21
55.25
 31
0.0
  0
LINE
  5
1F1B
330
1EC7
100
AcDbEntity
  8
1
100
AcDbLine
 10
-187.2
 20
55.25
 30
0.0
 11
-187.2
 21
72.25
 31
0.0
  0
LINE
  5
1F1C
330
1EC7
100
AcDbEntity
  8
1
100
AcDbLine
 10
-141.6
 20
38.25
 30
0.0
 11
-141.6
 21
72.25
 31
0.0
  0
LINE
  5
1F1D
330
1EC7
100
AcDbEntity
  8
1
100
AcDbLine
 10
-187.2
 20
55.25
 30
0.0
 11
-97.39999999999998
 21
55.25
 31
0.0
  0
LINE
  5
1F1E
330
1EC7
100
AcDbEntity
  8
1
100
AcDbLine
 10
-187.2
 20
55.25
 30
0.0
 11
-97.39999999999998
 21
55.25
 31
0.0
  0
LINE
  5
1F1F
330
1EC7
100
AcDbEntity
  8
4
100
AcDbLine
 10
-141.6
 20
42.50000000000003
 30
0.0
 11
-187.2
 21
42.50000000000003
 31
0.0
  0
LINE
  5
1F20
330
1EC7
100
AcDbEntity
  8
4
100
AcDbLine
 10
-141.6
 20
51.00000000000004
 30
0.0
 11
-187.2
 21
51.00000000000004
 31
0.0
  0
LINE
  5
1F21
330
1EC7
100
AcDbEntity
  8
4
100
AcDbLine
 10
-141.6
 20
46.75000000000003
 30
0.0
 11
-187.2
 21
46.75000000000003
 31
0.0
  0
LINE
  5
1F22
330
1EC7
100
AcDbEntity
  8
4
100
AcDbLine
 10
-141.6
 20
38.25000000000004
 30
0.0
 11
-187.2
 21
38.25000000000004
 31
0.0
  0
LINE
  5
1F23
330
1EC7
100
AcDbEntity
  8
4
100
AcDbLine
 10
-141.6
 20
34.00000000000004
 30
0.0
 11
-187.2
 21
34.00000000000004
 31
0.0
  0
LINE
  5
1F24
330
1EC7
100
AcDbEntity
  8
4
100
AcDbLine
 10
-141.6
 20
29.75000000000004
 30
0.0
 11
-187.2
 21
29.75000000000004
 31
0.0
  0
LINE
  5
1F25
330
1EC7
100
AcDbEntity
  8
4
100
AcDbLine
 10
-141.6
 20
25.50000000000004
 30
0.0
 11
-187.2
 21
25.50000000000004
 31
0.0
  0
LINE
  5
1F26
330
1EC7
100
AcDbEntity
  8
4
100
AcDbLine
 10
-141.6
 20
17.00000000000004
 30
0.0
 11
-187.2
 21
17.00000000000004
 31
0.0
  0
LINE
  5
1F27
330
1EC7
100
AcDbEntity
  8
4
100
AcDbLine
 10
-141.6
 20
8.500000000000042
 30
0.0
 11
-187.2
 21
8.500000000000042
 31
0.0
  0
LINE
  5
1F28
330
1EC7
100
AcDbEntity
  8
TEXTE
100
AcDbLine
 10
-141.6
 20
21.25000000000004
 30
0.0
 11
-187.2
 21
21.25000000000004
 31
0.0
  0
LINE
  5
1F29
330
1EC7
100
AcDbEntity
  8
TEXTE
100
AcDbLine
 10
-141.6
 20
4.25000000000004
 30
0.0
 11
-187.2
 21
4.25000000000004
 31
0.0
  0
LINE
  5
1F2A
330
1EC7
100
AcDbEntity
  8
TEXTE
100
AcDbLine
 10
-141.6
 20
12.75000000000004
 30
0.0
 11
-187.2
 21
12.75000000000004
 31
0.0
  0
LINE
  5
1F2B
330
1EC7
100
AcDbEntity
  8
1
100
AcDbLine
 10
-187.2
 20
0.0
 30
0.0
 11
-187.2
 21
55.25
 31
0.0
  0
LINE
  5
1F2C
330
1EC7
100
AcDbEntity
  8
4
100
AcDbLine
 10
-179.4
 20
0.0
 30
0.0
 11
-179.4
 21
55.25
 31
0.0
  0
LINE
  5
1F2D
330
1EC7
100
AcDbEntity
  8
4
100
AcDbLine
 10
-166.1269718340444
 20
55.25
 30
0.0
 11
-166.1269718340444
 21
0.0000000000000568
 31
0.0
  0
LINE
  5
1F2E
330
1EC7
100
AcDbEntity
  8
4
100
AcDbLine
 10
-153.1269718340444
 20
55.25
 30
0.0
 11
-153.1269718340444
 21
0.0000000000000426
 31
0.0
  0
LINE
  5
1F2F
330
1EC7
100
AcDbEntity
  8
1
100
AcDbLine
 10
-141.6
 20
55.25
 30
0.0
 11
-141.6
 21
0.0000000000000426
 31
0.0
  0
LINE
  5
1F30
330
1EC7
100
AcDbEntity
  8
1
100
AcDbLine
 10
-97.39999999999998
 20
21.25000000000004
 30
0.0
 11
-97.39999999999998
 21
0.0000000000000284
 31
0.0
  0
LWPOLYLINE
  5
1F31
330
1EC7
100
AcDbEntity
  8
SCHRAFUR
 62
     2
100
AcDbPolyline
 90
       10
 70
     1
 43
0.0
 10
-124.2050944204746
 20
9.362603872644255
 42
-0.2878248726205669
 10
-125.351197977385
 20
10.08195108768824
 42
-0.2878248726205669
 10
-126.4973015342955
 20
9.362603872644255
 10
-129.1199430070051
 20
9.362603872644255
 10
-129.1199430070051
 20
11.90798632587635
 10
-126.4973015342955
 20
11.90798632587635
 42
-0.2878248726205669
 10
-125.351197977385
 20
11.18863911083237
 42
-0.2878248726205666
 10
-124.2050944204746
 20
11.90798632587635
 10
-122.4747776603247
 20
11.90798632587635
 42
-0.9999999999999998
 10
-122.4747776603247
 20
9.362603872644255
  0
LWPOLYLINE
  5
1F32
330
1EC7
100
AcDbEntity
  8
SCHRAFUR
 62
     2
100
AcDbPolyline
 90
        4
 70
     1
 43
0.0
 10
-114.3703968939391
 20
9.224562983916197
 42
-0.7635869553129523
 10
-124.6296031060609
 20
9.224562983916197
 10
-123.1154720216624
 20
9.224562983916197
 42
0.6850520295069698
 10
-115.8845279783376
 20
9.224562983916197
  0
LWPOLYLINE
  5
1F33
330
1EC7
100
AcDbEntity
  8
SCHRAFUR
 62
     2
100
AcDbPolyline
 90
        4
 70
     1
 43
0.0
 10
-117.5054347514386
 20
9.224562983916197
 10
-116.1232140296945
 20
9.224562983916227
 42
-0.6678631217639561
 10
-122.8767859703055
 20
9.224562983916227
 10
-121.4945652485614
 20
9.224562983916197
 42
0.5197497926717248
  0
TEXT
  5
1F34
330
1EC7
100
AcDbEntity
  8
TEXTE
100
AcDbText
 10
-140.552765831797
 20
0.909003677139907
 30
0.0
 40
2.5
  1
Urspr.:
  7
ISOCP
100
AcDbText
  0
TEXT
  5
1F35
330
1EC7
100
AcDbEntity
  8
TEXTE
100
AcDbText
 10
-96.35276583179702
 20
0.9090036771398928
 30
0.0
 40
2.5
  1
Ers. f.:
  7
ISOCP
100
AcDbText
  0
LINE
  5
1F36
330
1EC7
100
AcDbEntity
  8
1
100
AcDbLine
 10
-97.39999999999998
 20
55.25
 30
0.0
 11
-141.6
 21
55.25
 31
0.0
  0
LWPOLYLINE
  5
1F37
330
1EC7
100
AcDbEntity
  8
SCHRAFUR
 62
     2
100
AcDbPolyline
 90
       28
 70
     1
 43
0.0
 10
-110.3328791777036
 20
11.90798632587635
 10
-108.7815943955639
 20
9.383194071164751
 10
-110.0385664183526
 20
9.383194071164751
 10
-110.3148471604421
 20
9.832854562768034
 10
-111.9467801979518
 20
9.832854562768034
 10
-112.2230609400413
 20
9.383194071164751
 10
-114.5988757936953
 20
9.383194071164751
 10
-114.5988757936953
 20
10.2755297720258
 10
-115.1471453753698
 20
9.383194071164751
 10
-115.7812575407041
 20
9.383194071164751
 10
-116.3295271223787
 20
10.2755297720258
 10
-116.3295271223787
 20
9.383194071164751
 10
-117.729299162969
 20
9.383194071164751
 10
-117.729299162969
 20
11.20922930935297
 10
-118.8359871861134
 20
9.890329881889682
 10
-118.8359871861134
 20
9.383194071164751
 10
-120.1640128138866
 20
9.383194071164751
 10
-120.1640128138866
 20
9.890329881889682
 10
-121.8570275918783
 20
11.90798632587635
 10
-120.0863267548472
 20
11.90798632587635
 10
-119.5
 20
11.20922930935297
 10
-118.9136732451527
 20
11.90798632587635
 10
-116.0505282128843
 20
11.90798632587635
 10
-115.464201458037
 20
11.20922930935297
 10
-114.8778747031897
 20
11.90798632587635
 10
-113.1991037531049
 20
11.90798632587635
 10
-113.1991037531049
 20
9.890329881889682
 10
-111.9594137424509
 20
11.90798632587635
  0
LWPOLYLINE
  5
1F38
330
1EC7
100
AcDbEntity
  8
SCHRAFUR
 62
     2
100
AcDbPolyline
 90
        4
 70
     1
 43
0.0
 10
-114.3703968939391
 20
12.04602721460441
 42
0.7635869553129523
 10
-124.6296031060609
 20
12.04602721460441
 10
-123.1154720216624
 20
12.04602721460441
 42
-0.6850520295069698
 10
-115.8845279783376
 20
12.04602721460441
  0
LWPOLYLINE
  5
1F39
330
1EC7
100
AcDbEntity
  8
SCHRAFUR
 62
     2
100
AcDbPolyline
 90
        4
 70
     1
 43
0.0
 10
-117.5054347514386
 20
12.04602721460441
 10
-116.1232140296945
 20
12.04602721460438
 42
0.6678631217639561
 10
-122.8767859703055
 20
12.04602721460438
 10
-121.4945652485614
 20
12.04602721460441
 42
-0.5197497926717248
  0
LINE
  5
1F3A
330
1EC7
100
AcDbEntity
  8
1
100
AcDbLine
 10
-141.6
 20
17.00000000000004
 30
0.0
 11
-97.39999999999998
 21
17.00000000000004
 31
0.0
  0
LINE
  5
1F3B
330
1EC7
100
AcDbEntity
  8
4
100
AcDbLine
 10
-141.6
 20
21.25000000000004
 30
0.0
 11
-97.39999999999998
 21
21.25000000000004
 31
0.0
  0
LINE
  5
1F3C
330
1EC7
100
AcDbEntity
  8
4
100
AcDbLine
 10
-141.6
 20
25.50000000000004
 30
0.0
 11
-97.39999999999998
 21
25.50000000000004
 31
0.0
  0
LINE
  5
1F3D
330
1EC7
100
AcDbEntity
  8
4
100
AcDbLine
 10
-141.6
 20
29.75000000000004
 30
0.0
 11
-97.39999999999998
 21
29.75000000000004
 31
0.0
  0
LINE
  5
1F3E
330
1EC7
100
AcDbEntity
  8
4
100
AcDbLine
 10
-141.6
 20
34.00000000000004
 30
0.0
 11
-97.39999999999998
 21
34.00000000000004
 31
0.0
  0
LINE
  5
1F3F
330
1EC7
100
AcDbEntity
  8
4
100
AcDbLine
 10
-141.6
 20
21.25000000000004
 30
0.0
 11
-97.39999999999998
 21
21.25000000000004
 31
0.0
  0
LINE
  5
1F40
330
1EC7
100
AcDbEntity
  8
4
100
AcDbLine
 10
-131.2
 20
38.25
 30
0.0
 11
-131.2
 21
17.00000000000004
 31
0.0
  0
LWPOLYLINE
  5
1F41
330
1EC7
100
AcDbEntity
  8
SCHRAFUR
 62
     2
100
AcDbPolyline
 90
        4
 70
     1
 43
0.0
 10
-127.9025861815462
 20
11.02263590736085
 10
-127.9025861815462
 20
10.24795429115978
 10
-126.7958981584019
 20
10.24795429115978
 42
0.9999999999999998
 10
-126.7958981584019
 20
11.02263590736085
  0
LWPOLYLINE
  5
1F42
330
1EC7
100
AcDbEntity
  8
SCHRAFUR
 62
     2
100
AcDbPolyline
 90
        4
 70
     1
 43
0.0
 10
-124.039091217003
 20
10.24795429115977
 42
-0.9999999999999998
 10
-124.039091217003
 20
11.02263590736085
 10
-122.6407808637963
 20
11.02263590736085
 42
-0.9999999999999998
 10
-122.6407808637963
 20
10.24795429115977
  0
TEXT
  5
1F43
330
1EC7
100
AcDbEntity
  8
TEXTE
100
AcDbText
 10
-130.2
 20
35.0
 30
0.0
 40
2.5
  1
Datum
  7
ISOCP
100
AcDbText
  0
LINE
  5
1F44
330
1EC7
100
AcDbEntity
  8
4
100
AcDbLine
 10
-115.5999999999999
 20
38.25
 30
0.0
 11
-115.5999999999999
 21
17.00000000000004
 31
0.0
  0
LINE
  5
1F45
330
1EC7
100
AcDbEntity
  8
1
100
AcDbLine
 10
-97.39999999999998
 20
38.25
 30
0.0
 11
-97.39999999999998
 21
25.50000000000004
 31
0.0
  0
LWPOLYLINE
  5
1F46
330
1EC7
100
AcDbEntity
  8
SCHRAFUR
 62
     2
100
AcDbPolyline
 90
        3
 70
     1
 43
0.0
 10
-110.6548332099233
 20
10.38619857434025
 10
-111.130813679197
 20
11.1608801905413
 10
-111.6067941484706
 20
10.38619857434025
  0
LINE
  5
1F47
330
1EC7
100
AcDbEntity
  8
1
100
AcDbLine
 10
-97.39999999999998
 20
25.50000000000004
 30
0.0
 11
-97.39999999999998
 21
21.25000000000004
 31
0.0
  0
TEXT
  5
1F48
330
1EC7
100
AcDbEntity
  8
TEXTE
100
AcDbText
 10
-96.39999999999998
 20
9.274128980961492
 30
0.0
 40
2.5
  1
Kl.-Nr.:
  7
ISOCP
100
AcDbText
  0
TEXT
  5
1F49
330
1EC7
100
AcDbEntity
  8
TEXTE
100
AcDbText
 10
-96.39999999999998
 20
16.6372199876776
 30
0.0
 40
2.5
  1
Zg.-Nr.:
  7
ISOCP
100
AcDbText
  0
TEXT
  5
1F4A
330
1EC7
100
AcDbEntity
  8
TEXTE
100
AcDbText
 10
-114.5999999999999
 20
35.00000000000003
 30
0.0
 40
2.5
  1
Name
  7
ISOCP
100
AcDbText
  0
TEXT
  5
1F4B
330
1EC7
100
AcDbEntity
  8
TEXTE
100
AcDbText
 10
-96.39999999999998
 20
34.7856703898684
 30
0.0
 40
2.5
  1
Benennung
  7
ISOCP
100
AcDbText
  0
TEXT
  5
1F4C
330
1EC7
100
AcDbEntity
  8
TEXTE
100
AcDbText
 10
-183.9928141203591
 20
60.51937967832163
 30
0.0
 40
3.0
  1
ISO16016 beachten.
  7
ISOCP
100
AcDbText
  0
TEXT
  5
1F4D
330
1EC7
100
AcDbEntity
  8
TEXTE
100
AcDbText
 10
-183.9928141203591
 20
64.47760188519663
 30
0.0
 40
3.0
  1
Schutzvermerk 
  7
ISOCP
100
AcDbText
  0
LINE
  5
1F4E
330
1EC7
100
AcDbEntity
  8
4
100
AcDbLine
 10
-97.39999999999998
 20
68.0
 30
0.0
 11
-141.6
 21
68.0
 31
0.0
  0
TEXT
  5
1F4F
330
1EC7
100
AcDbEntity
  8
TEXTE
100
AcDbText
 10
-112.9010218565545
 20
68.9008935805993
 30
0.0
 40
2.5
  1
Maßstab
  7
ISOCP
100
AcDbText
  0
LINE
  5
1F50
330
1EC7
100
AcDbEntity
  8
1
100
AcDbLine
 10
0.0
 20
55.25
 30
0.0
 11
0.0
 21
72.25
 31
0.0
  0
LINE
  5
1F51
330
1EC7
100
AcDbEntity
  8
4
100
AcDbLine
 10
-66.4738835443696
 20
72.25
 30
0.0
 11
-66.4738835443696
 21
55.25
 31
0.0
  0
LINE
  5
1F52
330
1EC7
100
AcDbEntity
  8
1
100
AcDbLine
 10
0.0
 20
0.0
 30
0.0
 11
0.0
 21
55.25
 31
0.0
  0
LINE
  5
1F53
330
1EC7
100
AcDbEntity
  8
1
100
AcDbLine
 10
-48.69999999999993
 20
4.250000000000013
 30
0.0
 11
-48.69999999999993
 21
0.0000000000000142
 31
0.0
  0
TEXT
  5
1F54
330
1EC7
100
AcDbEntity
  8
TEXTE
100
AcDbText
 10
-47.65276583179707
 20
0.9090036771398786
 30
0.0
 40
2.5
  1
Ers. d.:
  7
ISOCP
100
AcDbText
  0
LINE
  5
1F55
330
1EC7
100
AcDbEntity
  8
2
  6
MITTE2
 48
0.5
100
AcDbLine
 10
-43.6427590943084
 20
47.80579963079342
 30
0.0
 11
-25.0784411186628
 21
47.80579963079342
 31
0.0
  0
TEXT
  5
1F56
330
1EC7
100
AcDbEntity
  8
TEXTE
100
AcDbText
 10
-28.05001384276364
 20
39.07889189167304
 30
0.0
 40
2.5
  1
METRIC
  7
ISOCP
100
AcDbText
  0
LINE
  5
1F57
330
1EC7
100
AcDbEntity
  8
1
100
AcDbLine
 10
-48.70000000000004
 20
55.25
 30
0.0
 11
-48.70000000000004
 21
38.25
 31
0.0
  0
LWPOLYLINE
  5
1F58
330
1EC7
100
AcDbEntity
  8
1
100
AcDbPolyline
 90
        5
 70
     0
 43
0.0
 10
-27.64275909430843
 20
52.80579963079343
 10
-41.6427590943084
 20
50.80579963079344
 10
-41.6427590943084
 20
44.80579963079343
 10
-27.64275909430843
 20
42.80579963079342
 10
-27.64275909430843
 20
52.80579963079343
  0
CIRCLE
  5
1F59
330
1EC7
100
AcDbEntity
  8
1
100
AcDbCircle
 10
-14.17049830471149
 20
47.80579963079342
 30
0.0
 40
5.0
  0
LINE
  5
1F5A
330
1EC7
100
AcDbEntity
  8
2
  6
MITTE2
 48
0.5
100
AcDbLine
 10
-14.17049830471149
 20
54.80579963079343
 30
0.0
 11
-14.17049830471149
 21
40.80579963079343
 31
0.0
  0
CIRCLE
  5
1F5B
330
1EC7
100
AcDbEntity
  8
1
100
AcDbCircle
 10
-14.17049830471149
 20
47.80579963079342
 30
0.0
 40
3.0
  0
LINE
  5
1F5C
330
1EC7
100
AcDbEntity
  8
2
  6
MITTE2
 48
0.5
100
AcDbLine
 10
-22.09252775403979
 20
47.80579963079342
 30
0.0
 11
-7.170498304711486
 21
47.80579963079342
 31
0.0
  0
LINE
  5
1F5D
330
1EC7
100
AcDbEntity
  8
1
100
AcDbLine
 10
0.0
 20
38.25
 30
0.0
 11
0.0
 21
55.25
 31
0.0
  0
ENDBLK
  5
1F5F
330
1EC7
100
AcDbEntity
  8
0
100
AcDbBlockEnd
  0
BLOCK
  5
231B
330
2319
100
AcDbEntity
  8
0
100
AcDbBlockBegin
  2
Toleranz1000
 70
     0
 10
0.0
 20
0.0
 30
0.0
  3
Toleranz1000
  1

  0
MTEXT
  5
231A
330
2319
100
AcDbEntity
  8
4-TEXT
100
AcDbMText
 10
22.42818946620355
 20
8.554401179611311
 30
0.0
 40
2.5
 41
42.20729999999997
 71
     5
 72
     5
  1
In Spezifikation nicht angegebene Toleranzen nach Allgemeintoleranzen ISO 2768-c
 73
     1
 44
1.0
  0
ENDBLK
  5
231C
330
2319
100
AcDbEntity
  8
0
100
AcDbBlockEnd
  0
BLOCK
  5
2366
330
232F
100
AcDbEntity
  8
0
100
AcDbBlockBegin
  2
Datenblatt 13.02.02
 70
     2
 10
0.0
 20
0.0
 30
0.0
  3
Datenblatt 13.02.02
  1

  0
LINE
  5
2330
330
232F
100
AcDbEntity
  8
OBJEKT
100
AcDbLine
 10
-187.1999999999999
 20
27.99565768088456
 30
0.0
 11
-44.40833707163906
 21
27.99565768088456
 31
0.0
  0
MTEXT
  5
2331
330
232F
100
AcDbEntity
  8
5
100
AcDbMText
 10
-186.0052453530775
 20
26.33140066529037
 30
0.0
 40
2.5
 41
54.7295
 71
     1
 72
     5
  1
Außen/Großring %%c:
 73
     1
 44
1.0
  0
LINE
  5
2332
330
232F
100
AcDbEntity
  8
OBJEKT
100
AcDbLine
 10
-187.2
 20
0.0
 30
0.0
 11
-187.1999999999999
 21
27.99565768088456
 31
0.0
  0
MTEXT
  5
2333
330
232F
100
AcDbEntity
  8
5
100
AcDbMText
 10
-140.340670268571
 20
26.74828593040781
 30
0.0
 40
2.5
 41
63.7959
 71
     1
 72
     5
  1
Anzahl  Gestell%%c  Gummi%%c  Medienr.%%c
  7
ISOCP
 73
     1
 44
1.0
  0
LINE
  5
2334
330
232F
100
AcDbEntity
  8
OBJEKT
100
AcDbLine
 10
-141.6
 20
0.0
 30
0.0
 11
-141.6
 21
27.99565768088456
 31
0.0
  0
LINE
  5
2335
330
232F
100
AcDbEntity
  8
SCHRAFFUR
100
AcDbLine
 10
-156.2
 20
0.0
 30
0.0
 11
-156.1999999999999
 21
27.99565768088456
 31
0.0
  0
LINE
  5
2336
330
232F
100
AcDbEntity
  8
SCHRAFFUR
100
AcDbLine
 10
-114.1
 20
0.0
 30
0.0
 11
-114.1
 21
27.99565768088459
 31
0.0
  0
LINE
  5
2337
330
232F
100
AcDbEntity
  8
SCHRAFFUR
100
AcDbLine
 10
-129.6
 20
0.0
 30
0.0
 11
-129.6
 21
27.99565768088456
 31
0.0
  0
MTEXT
  5
2338
330
232F
100
AcDbEntity
  8
5
100
AcDbMText
 10
-82.98527047254308
 20
26.13085352612995
 30
0.0
 40
1.999999999999999
 41
52.55510000000001
 71
     1
 72
     5
  1
Gummi Außen%%c:\PGestell Material:\PGummi Material:\PAuftrag Nr.:              Pos.Nr.:
  7
ISOCP
 73
     1
 44
1.0
  0
LINE
  5
2339
330
232F
100
AcDbEntity
  8
OBJEKT
100
AcDbLine
 10
-84.10415155719022
 20
0.0
 30
0.0
 11
-84.10415155719022
 21
27.99565768088456
 31
0.0
  0
LINE
  5
233A
330
232F
100
AcDbEntity
  8
SCHRAFFUR
100
AcDbLine
 10
-101.1041515571902
 20
0.0
 30
0.0
 11
-101.1041515571902
 21
27.99565768088456
 31
0.0
  0
LINE
  5
233B
330
232F
100
AcDbEntity
  8
OBJEKT
100
AcDbLine
 10
-44.40833707163903
 20
-0.0000000000000009
 30
0.0
 11
-44.40833707163903
 21
27.99565768088456
 31
0.0
  0
MTEXT
  5
233D
330
232F
100
AcDbEntity
  8
5
100
AcDbMText
 10
-186.0052453530775
 20
18.3314006652904
 30
0.0
 40
2.5
 41
54.7295
 71
     1
 72
     5
  1
Lochkreis %%c:
 73
     1
 44
1.0
  0
MTEXT
  5
233E
330
232F
100
AcDbEntity
  8
5
100
AcDbMText
 10
-186.0052453530775
 20
12.33140066529037
 30
0.0
 40
2.5
 41
54.7295
 71
     1
 72
     5
  1
Bolzen x Anzahl:
 73
     1
 44
1.0
  0
MTEXT
  5
233F
330
232F
100
AcDbEntity
  8
5
100
AcDbMText
 10
-186.0052453530775
 20
5.331400665290401
 30
0.0
 40
2.5
 41
54.7295
 71
     1
 72
     5
  1
Bolzenbohrungs %%c:
 73
     1
 44
1.0
  0
LINE
  5
2340
330
232F
100
AcDbEntity
  8
SCHRAFFUR
100
AcDbLine
 10
-187.1999999999999
 20
20.99565768088456
 30
0.0
 11
-141.6
 21
20.99565768088456
 31
0.0
  0
LINE
  5
2341
330
232F
100
AcDbEntity
  8
SCHRAFFUR
100
AcDbLine
 10
-187.1999999999999
 20
13.99565768088456
 30
0.0
 11
-141.6
 21
13.99565768088456
 31
0.0
  0
LINE
  5
2342
330
232F
100
AcDbEntity
  8
SCHRAFFUR
100
AcDbLine
 10
-187.1999999999999
 20
6.995657680884562
 30
0.0
 11
-141.6
 21
6.995657680884562
 31
0.0
  0
LINE
  5
2343
330
232F
100
AcDbEntity
  8
SCHRAFFUR
100
AcDbLine
 10
-141.6
 20
22.39565768088457
 30
0.0
 11
-84.10415155719022
 21
22.39565768088457
 31
0.0
  0
LINE
  5
2344
330
232F
100
AcDbEntity
  8
SCHRAFFUR
100
AcDbLine
 10
-141.6
 20
5.595657680884528
 30
0.0
 11
-84.10415155719022
 21
5.595657680884528
 31
0.0
  0
LINE
  5
2345
330
232F
100
AcDbEntity
  8
SCHRAFFUR
100
AcDbLine
 10
-141.6
 20
11.19565768088455
 30
0.0
 11
-84.10415155719022
 21
11.19565768088455
 31
0.0
  0
LINE
  5
2346
330
232F
100
AcDbEntity
  8
SCHRAFFUR
100
AcDbLine
 10
-141.6
 20
16.79565768088457
 30
0.0
 11
-84.10415155719022
 21
16.79565768088457
 31
0.0
  0
MTEXT
  5
2347
330
232F
100
AcDbEntity
  8
5
100
AcDbMText
 10
-82.93711998001038
 20
3.150997337964781
 30
0.0
 40
2.0
 41
54.7295
 71
     1
 72
     5
  1
Gültigkeitsdatum:
 73
     1
 44
1.0
  0
MTEXT
  5
2348
330
232F
100
AcDbEntity
  8
5
100
AcDbMText
 10
-82.93711998001038
 20
6.845375492574246
 30
0.0
 40
2.0
 41
54.7295
 71
     1
 72
     5
  1
Lfd.-Nr.:275-
 73
     1
 44
1.0
  0
MTEXT
  5
2349
330
232F
100
AcDbEntity
  8
5
100
AcDbMText
 10
-82.93711998001034
 20
10.47911066923575
 30
0.0
 40
1.999999999999999
 41
54.72949999999999
 71
     1
 72
     5
  1
Fehlende Angaben Spezifikation
 73
     1
 44
1.0
  0
LINE
  5
234A
330
232F
100
AcDbEntity
  8
SCHRAFFUR
100
AcDbLine
 10
-44.40833707163903
 20
11.84312884486814
 30
0.0
 11
-84.1041515571902
 21
11.84312884486814
 31
0.0
  0
ATTDEF
  5
234B
330
232F
100
AcDbEntity
  8
5
 62
     6
100
AcDbText
 10
-155.1309313309483
 20
23.42135642318396
 30
0.0
 40
2.5
  1
.
 51
10.0
  7
ISOCP
100
AcDbAttributeDefinition
  3
Außen/Großring%%c
  2
.
 70
     0
  0
ATTDEF
  5
234C
330
232F
100
AcDbEntity
  8
5
 62
     6
100
AcDbText
 10
-155.1309313309483
 20
16.42135642318396
 30
0.0
 40
2.5
  1
.
 51
10.0
  7
ISOCP
100
AcDbAttributeDefinition
  3
Lochkreis%%c
  2
.
 70
     0
  0
ATTDEF
  5
234D
330
232F
100
AcDbEntity
  8
5
 62
     6
100
AcDbText
 10
-155.1309313309483
 20
9.421356423183963
 30
0.0
 40
2.5
  1
.
 51
10.0
  7
ISOCP
100
AcDbAttributeDefinition
  3
Bolzen x Anzahl
  2
.
 70
     0
  0
ATTDEF
  5
234E
330
232F
100
AcDbEntity
  8
5
 62
     6
100
AcDbText
 10
-155.1309313309483
 20
2.4256987422994
 30
0.0
 40
2.5
  1
.
 51
10.0
  7
ISOCP
100
AcDbAttributeDefinition
  3
Bolzenbohrungs%%c
  2
.
 70
     0
  0
ATTDEF
  5
234F
330
232F
100
AcDbEntity
  8
5
 62
     6
100
AcDbText
 10
-137.5977460648357
 20
18.41373671921519
 30
0.0
 40
2.0
  1
.
 51
10.0
  7
ISOCP
100
AcDbAttributeDefinition
  3
Anzahl1
  2
.
 70
     0
  0
ATTDEF
  5
2350
330
232F
100
AcDbEntity
  8
5
 62
     6
100
AcDbText
 10
-126.0718560374971
 20
18.41373671921519
 30
0.0
 40
2.0
  1
.
 51
10.0
  7
ISOCP
100
AcDbAttributeDefinition
  3
Gestell%%c1
  2
.
 70
     0
  0
ATTDEF
  5
2351
330
232F
100
AcDbEntity
  8
5
 62
     6
100
AcDbText
 10
-112.1838325543763
 20
18.41373671921519
 30
0.0
 40
2.0
  1
.
 51
10.0
  7
ISOCP
100
AcDbAttributeDefinition
  3
Gummi%%c1
  2
.
 70
     0
  0
ATTDEF
  5
2352
330
232F
100
AcDbEntity
  8
5
 62
     6
100
AcDbText
 10
-97.38636425808062
 20
18.41373671921519
 30
0.0
 40
2.0
  1
.
 51
10.0
  7
ISOCP
100
AcDbAttributeDefinition
  3
Medienr.1
  2
.
 70
     0
  0
ATTDEF
  5
2353
330
232F
100
AcDbEntity
  8
5
 62
     6
100
AcDbText
 10
-137.5977460648357
 20
12.81373671921517
 30
0.0
 40
2.0
  1
.
 51
10.0
  7
ISOCP
100
AcDbAttributeDefinition
  3
Anzahl2
  2
.
 70
     0
  0
ATTDEF
  5
2354
330
232F
100
AcDbEntity
  8
5
 62
     6
100
AcDbText
 10
-126.0718560374971
 20
12.81373671921517
 30
0.0
 40
2.0
  1
.
 51
10.0
  7
ISOCP
100
AcDbAttributeDefinition
  3
Gestell%%c2
  2
.
 70
     0
  0
ATTDEF
  5
2355
330
232F
100
AcDbEntity
  8
5
 62
     6
100
AcDbText
 10
-112.1838325543763
 20
12.81373671921517
 30
0.0
 40
2.0
  1
.
 51
10.0
  7
ISOCP
100
AcDbAttributeDefinition
  3
Gummi%%c2
  2
.
 70
     0
  0
ATTDEF
  5
2356
330
232F
100
AcDbEntity
  8
5
 62
     6
100
AcDbText
 10
-97.38636425808062
 20
12.81373671921517
 30
0.0
 40
2.0
  1
.
 51
10.0
  7
ISOCP
100
AcDbAttributeDefinition
  3
Medienr.2
  2
.
 70
     0
  0
ATTDEF
  5
2357
330
232F
100
AcDbEntity
  8
5
 62
     6
100
AcDbText
 10
-137.5977460648357
 20
7.213736719215203
 30
0.0
 40
2.0
  1
.
 51
10.0
  7
ISOCP
100
AcDbAttributeDefinition
  3
Anzahl3
  2
.
 70
     0
  0
ATTDEF
  5
2358
330
232F
100
AcDbEntity
  8
5
 62
     6
100
AcDbText
 10
-126.0718560374971
 20
7.213736719215203
 30
0.0
 40
2.0
  1
.
 51
10.0
  7
ISOCP
100
AcDbAttributeDefinition
  3
Gestell%%c3
  2
.
 70
     0
  0
ATTDEF
  5
2359
330
232F
100
AcDbEntity
  8
5
 62
     6
100
AcDbText
 10
-112.1838325543763
 20
7.213736719215203
 30
0.0
 40
2.0
  1
.
 51
10.0
  7
ISOCP
100
AcDbAttributeDefinition
  3
Gummi%%c3
  2
.
 70
     0
  0
ATTDEF
  5
235A
330
232F
100
AcDbEntity
  8
5
 62
     6
100
AcDbText
 10
-97.38636425808062
 20
7.213736719215203
 30
0.0
 40
2.0
  1
.
 51
10.0
  7
ISOCP
100
AcDbAttributeDefinition
  3
Medienr.3
  2
.
 70
     0
  0
ATTDEF
  5
235B
330
232F
100
AcDbEntity
  8
5
 62
     6
100
AcDbText
 10
-137.5977460648357
 20
1.61807903833062
 30
0.0
 40
2.0
  1
.
 51
10.0
  7
ISOCP
100
AcDbAttributeDefinition
  3
Anzahl4
  2
.
 70
     0
  0
ATTDEF
  5
235C
330
232F
100
AcDbEntity
  8
5
 62
     6
100
AcDbText
 10
-126.0718560374971
 20
1.61807903833062
 30
0.0
 40
2.0
  1
.
 51
10.0
  7
ISOCP
100
AcDbAttributeDefinition
  3
Gestell%%c4
  2
.
 70
     0
  0
ATTDEF
  5
235D
330
232F
100
AcDbEntity
  8
5
 62
     6
100
AcDbText
 10
-112.1838325543763
 20
1.61807903833062
 30
0.0
 40
2.0
  1
.
 51
10.0
  7
ISOCP
100
AcDbAttributeDefinition
  3
Gummi%%c4
  2
.
 70
     0
  0
ATTDEF
  5
235E
330
232F
100
AcDbEntity
  8
5
 62
     6
100
AcDbText
 10
-97.38636425808062
 20
1.61807903833062
 30
0.0
 40
2.0
  1
.
 51
10.0
  7
ISOCP
100
AcDbAttributeDefinition
  3
Medienr.4
  2
.
 70
     0
  0
ATTDEF
  5
235F
330
232F
100
AcDbEntity
  8
5
 62
     6
100
AcDbText
 10
-60.56627149556358
 20
24.2301792243012
 30
0.0
 40
2.5
  1
.
 51
10.0
  7
ISOCP
100
AcDbAttributeDefinition
  3
Gummi Außen%%c
  2
.
 70
     0
  0
ATTDEF
  5
2360
330
232F
100
AcDbEntity
  8
5
 62
     6
100
AcDbText
 10
-60.56627149556358
 20
20.56214714947623
 30
0.0
 40
2.5
  1
.
 51
10.0
  7
ISOCP
100
AcDbAttributeDefinition
  3
Gestell Material
  2
.
 70
     0
  0
ATTDEF
  5
2361
330
232F
100
AcDbEntity
  8
5
 62
     6
100
AcDbText
 10
-60.56627149556358
 20
17.30907520043684
 30
0.0
 40
2.5
  1
.
 51
10.0
  7
ISOCP
100
AcDbAttributeDefinition
  3
Gummi Material
  2
.
 70
     0
  0
ATTDEF
  5
2362
330
232F
100
AcDbEntity
  8
5
 62
     6
100
AcDbText
 10
-68.85446858067735
 20
14.06783807991337
 30
0.0
 40
2.5
  1
.
 51
10.0
  7
ISOCP
100
AcDbAttributeDefinition
  3
Auftrag Nr.:
  2
.
 70
     0
  0
ATTDEF
  5
2363
330
232F
100
AcDbEntity
  8
5
 62
     6
100
AcDbText
 10
-48.84455827863053
 20
14.06783807991337
 30
0.0
 40
2.5
  1
.
 51
10.0
  7
ISOCP
100
AcDbAttributeDefinition
  3
Pos.Nr.:
  2
.
 70
     0
  0
ATTDEF
  5
2364
330
232F
100
AcDbEntity
  8
5
 62
     6
100
AcDbText
 10
-67.20762069406942
 20
4.744364904269558
 30
0.0
 40
2.5
  1
.
 51
10.0
  7
ISOCP
100
AcDbAttributeDefinition
  3
275-
  2
.
 70
     0
  0
ATTDEF
  5
2365
330
232F
100
AcDbEntity
  8
5
 62
     6
100
AcDbText
 10
-59.78161188052308
 20
1.207657901680248
 30
0.0
 40
2.5
  1
.
 51
10.0
  7
ISOCP
100
AcDbAttributeDefinition
  3
Spez.-Datum
  2
.
 70
     0
  0
ENDBLK
  5
2367
330
232F
100
AcDbEntity
  8
0
100
AcDbBlockEnd
  0
BLOCK
  5
258E
330
258C
100
AcDbEntity
  8
0
100
AcDbBlockBegin
  2
*Paper_Space4
 70
     0
 10
0.0
 20
0.0
 30
0.0
  3
*Paper_Space4
  1

  0
VIEWPORT
  5
266A
330
258C
100
AcDbEntity
  8
0
100
AcDbViewport
 10
300.625209720823
 20
161.6631277582252
 30
0.0
 40
655.8304585934287
 41
352.7212518238234
 69
     0
 12
300.625209720823
 22
161.6631277582252
 13
0.0
 23
0.0
 14
10.0
 24
10.0
 15
10.0
 25
10.0
 16
0.0
 26
0.0
 36
1.0
 17
0.0
 27
0.0
 37
0.0
 42
50.0
 43
0.0
 44
0.0
 45
352.7212518238234
 50
0.0
 51
0.0
 72
   100
331
2499
 90
    32800
  1

281
     0
 71
     1
 74
     0
110
0.0
120
0.0
130
0.0
111
1.0
121
0.0
131
0.0
112
0.0
122
1.0
132
0.0
 79
     0
146
0.0
170
     0
  0
INSERT
  5
26D6
330
258C
100
AcDbEntity
  8
OBJEKT
100
AcDbBlockReference
 66
     1
  2
Datenblatt 13.02.02
 10
277.863221754304
 20
4.670531641252603
 30
0.0
 41
1.406244715412399
 42
1.406244715412399
 43
1.406244715412402
  0
ATTRIB
  5
26D7
330
26D6
100
AcDbEntity
  8
5
 62
     6
100
AcDbText
 10
59.71116937315364
 20
37.60669033914538
 30
0.0
 40
3.515611788531004
  1
.
 51
10.0
  7
ISOCP
100
AcDbAttribute
  2
.
 70
     0
  0
ATTRIB
  5
26D8
330
26D6
100
AcDbEntity
  8
5
 62
     6
100
AcDbText
 10
59.71116937315364
 20
27.76297733125856
 30
0.0
 40
3.515611788531004
  1
.
 51
10.0
  7
ISOCP
100
AcDbAttribute
  2
.
 70
     0
  0
ATTRIB
  5
26D9
330
26D6
100
AcDbEntity
  8
5
 62
     6
100
AcDbText
 10
59.71116937315364
 20
17.91926432337175
 30
0.0
 40
3.515611788531004
  1
.
 51
10.0
  7
ISOCP
100
AcDbAttribute
  2
.
 70
     0
  0
ATTRIB
  5
26DA
330
26D6
100
AcDbEntity
  8
5
 62
     6
100
AcDbText
 10
59.71116937315364
 20
8.08165767879365
 30
0.0
 40
3.515611788531004
  1
.
 51
10.0
  7
ISOCP
100
AcDbAttribute
  2
.
 70
     0
  0
ATTRIB
  5
26DB
330
26D6
100
AcDbEntity
  8
5
 62
     6
100
AcDbText
 10
84.36711849797111
 20
30.56475159364428
 30
0.0
 40
2.812489430824804
  1
.
 51
10.0
  7
ISOCP
100
AcDbAttribute
  2
.
 70
     0
  0
ATTRIB
  5
26DC
330
26D6
100
AcDbEntity
  8
5
 62
     6
100
AcDbText
 10
100.5753404393405
 20
30.56475159364428
 30
0.0
 40
2.812489430824804
  1
.
 51
10.0
  7
ISOCP
100
AcDbAttribute
  2
.
 70
     0
  0
ATTRIB
  5
26DD
330
26D6
100
AcDbEntity
  8
5
 62
     6
100
AcDbText
 10
120.1053000700025
 20
30.56475159364428
 30
0.0
 40
2.812489430824804
  1
.
 51
10.0
  7
ISOCP
100
AcDbAttribute
  2
.
 70
     0
  0
ATTRIB
  5
26DE
330
26D6
100
AcDbEntity
  8
5
 62
     6
100
AcDbText
 10
140.9141616631509
 20
30.56475159364428
 30
0.0
 40
2.812489430824804
  1
.
 51
10.0
  7
ISOCP
100
AcDbAttribute
  2
.
 70
     0
  0
ATTRIB
  5
26DF
330
26D6
100
AcDbEntity
  8
5
 62
     6
100
AcDbText
 10
84.36711849797111
 20
22.6897811873348
 30
0.0
 40
2.812489430824804
  1
.
 51
10.0
  7
ISOCP
100
AcDbAttribute
  2
.
 70
     0
  0
ATTRIB
  5
26E0
330
26D6
100
AcDbEntity
  8
5
 62
     6
100
AcDbText
 10
100.5753404393405
 20
22.6897811873348
 30
0.0
 40
2.812489430824804
  1
.
 51
10.0
  7
ISOCP
100
AcDbAttribute
  2
.
 70
     0
  0
ATTRIB
  5
26E1
330
26D6
100
AcDbEntity
  8
5
 62
     6
100
AcDbText
 10
120.1053000700025
 20
22.6897811873348
 30
0.0
 40
2.812489430824804
  1
.
 51
10.0
  7
ISOCP
100
AcDbAttribute
  2
.
 70
     0
  0
ATTRIB
  5
26E2
330
26D6
100
AcDbEntity
  8
5
 62
     6
100
AcDbText
 10
140.9141616631509
 20
22.6897811873348
 30
0.0
 40
2.812489430824804
  1
.
 51
10.0
  7
ISOCP
100
AcDbAttribute
  2
.
 70
     0
  0
ATTRIB
  5
26E3
330
26D6
100
AcDbEntity
  8
5
 62
     6
100
AcDbText
 10
84.36711849797111
 20
14.81481078102539
 30
0.0
 40
2.812489430824804
  1
.
 51
10.0
  7
ISOCP
100
AcDbAttribute
  2
.
 70
     0
  0
ATTRIB
  5
26E4
330
26D6
100
AcDbEntity
  8
5
 62
     6
100
AcDbText
 10
100.5753404393405
 20
14.81481078102539
 30
0.0
 40
2.812489430824804
  1
.
 51
10.0
  7
ISOCP
100
AcDbAttribute
  2
.
 70
     0
  0
ATTRIB
  5
26E5
330
26D6
100
AcDbEntity
  8
5
 62
     6
100
AcDbText
 10
120.1053000700025
 20
14.81481078102539
 30
0.0
 40
2.812489430824804
  1
.
 51
10.0
  7
ISOCP
100
AcDbAttribute
  2
.
 70
     0
  0
ATTRIB
  5
26E6
330
26D6
100
AcDbEntity
  8
5
 62
     6
100
AcDbText
 10
140.9141616631509
 20
14.81481078102539
 30
0.0
 40
2.812489430824804
  1
.
 51
10.0
  7
ISOCP
100
AcDbAttribute
  2
.
 70
     0
  0
ATTRIB
  5
26E7
330
26D6
100
AcDbEntity
  8
5
 62
     6
100
AcDbText
 10
84.36711849797111
 20
6.94594673802462
 30
0.0
 40
2.812489430824804
  1
.
 51
10.0
  7
ISOCP
100
AcDbAttribute
  2
.
 70
     0
  0
ATTRIB
  5
26E8
330
26D6
100
AcDbEntity
  8
5
 62
     6
100
AcDbText
 10
100.5753404393405
 20
6.94594673802462
 30
0.0
 40
2.812489430824804
  1
.
 51
10.0
  7
ISOCP
100
AcDbAttribute
  2
.
 70
     0
  0
ATTRIB
  5
26E9
330
26D6
100
AcDbEntity
  8
5
 62
     6
100
AcDbText
 10
120.1053000700025
 20
6.94594673802462
 30
0.0
 40
2.812489430824804
  1
.
 51
10.0
  7
ISOCP
100
AcDbAttribute
  2
.
 70
     0
  0
ATTRIB
  5
26EA
330
26D6
100
AcDbEntity
  8
5
 62
     6
100
AcDbText
 10
140.9141616631509
 20
6.94594673802462
 30
0.0
 40
2.812489430824804
  1
.
 51
10.0
  7
ISOCP
100
AcDbAttribute
  2
.
 70
     0
  0
ATTRIB
  5
26EB
330
26D6
100
AcDbEntity
  8
5
 62
     6
100
AcDbText
 10
192.692222531435
 20
38.74409312892153
 30
0.0
 40
3.515611788531004
  1
.
 51
10.0
  7
ISOCP
100
AcDbAttribute
  2
.
 70
     0
  0
ATTRIB
  5
26EC
330
26D6
100
AcDbEntity
  8
5
 62
     6
100
AcDbText
 10
192.692222531435
 20
33.58594240773575
 30
0.0
 40
3.515611788531004
  1
.
 51
10.0
  7
ISOCP
100
AcDbAttribute
  2
.
 70
     0
  0
ATTRIB
  5
26ED
330
26D6
100
AcDbEntity
  8
5
 62
     6
100
AcDbText
 10
192.692222531435
 20
29.01132717054278
 30
0.0
 40
3.515611788531004
  1
.
 51
10.0
  7
ISOCP
100
AcDbAttribute
  2
.
 70
     0
  0
ATTRIB
  5
26EE
330
26D6
100
AcDbEntity
  8
5
 62
     6
100
AcDbText
 10
181.0369891801972
 20
24.45335459840814
 30
0.0
 40
3.515611788531004
  1
.
 51
10.0
  7
ISOCP
100
AcDbAttribute
  2
.
 70
     0
  0
ATTRIB
  5
26EF
330
26D6
100
AcDbEntity
  8
5
 62
     6
100
AcDbText
 10
209.1758197983268
 20
24.45335459840814
 30
0.0
 40
3.515611788531004
  1
.
 51
10.0
  7
ISOCP
100
AcDbAttribute
  2
.
 70
     0
  0
ATTRIB
  5
26F0
330
26D6
100
AcDbEntity
  8
5
 62
     6
100
AcDbText
 10
183.3528603178277
 20
11.34226971586974
 30
0.0
 40
3.515611788531004
  1
.
 51
10.0
  7
ISOCP
100
AcDbAttribute
  2
.
 70
     0
  0
ATTRIB
  5
26F1
330
26D6
100
AcDbEntity
  8
5
 62
     6
100
AcDbText
 10
193.7956459684832
 20
6.368794183516482
 30
0.0
 40
3.515611788531004
  1
.
 51
10.0
  7
ISOCP
100
AcDbAttribute
  2
.
 70
     0
  0
SEQEND
  5
26F2
330
26D6
100
AcDbEntity
  8
OBJEKT
  0
VIEWPORT
  5
26F3
330
258C
100
AcDbEntity
  8
5
100
AcDbViewport
 10
208.614211115104
 20
143.1705316412525
 30
0.0
 40
388.0
 41
277.0
 69
     0
 12
70.96039267584387
 22
-35.1351936953775
 13
0.0
 23
0.0
 14
10.0
 24
10.0
 15
10.0
 25
10.0
 16
0.0
 26
0.0
 36
1.0
 17
0.0
 27
0.0
 37
0.0
 42
50.0
 43
0.0
 44
0.0
 45
276.9999999561274
 50
0.0
 51
0.0
 72
   100
 90
   163872
  1

281
     0
 71
     1
 74
     0
110
0.0
120
0.0
130
0.0
111
1.0
121
0.0
131
0.0
112
0.0
122
1.0
132
0.0
 79
     0
146
0.0
170
     0
  0
LINE
  5
26F4
330
258C
100
AcDbEntity
  8
WERKSKANTEN
100
AcDbLine
 10
14.61421111510401
 20
4.670531641252523
 30
0.0
 11
402.614211115104
 21
4.670531641252523
 31
0.0
  0
LINE
  5
26F5
330
258C
100
AcDbEntity
  8
WERKSKANTEN
100
AcDbLine
 10
14.61421111510401
 20
281.6705316412525
 30
0.0
 11
402.614211115104
 21
281.6705316412525
 31
0.0
  0
LINE
  5
26F6
330
258C
100
AcDbEntity
  8
WERKSKANTEN
100
AcDbLine
 10
14.61421111510401
 20
4.670531641252523
 30
0.0
 11
14.61421111510401
 21
281.6705316412525
 31
0.0
  0
LINE
  5
26F7
330
258C
100
AcDbEntity
  8
WERKSKANTEN
100
AcDbLine
 10
402.614211115104
 20
4.670531641252523
 30
0.0
 11
402.614211115104
 21
281.6705316412525
 31
0.0
  0
INSERT
  5
26F8
330
258C
100
AcDbEntity
  8
OBJEKT
100
AcDbBlockReference
 66
     1
  2
schriftfeld-31.01.02
 10
402.614211115104
 20
4.670531641252523
 30
0.0
  0
ATTRIB
  5
26F9
330
26F8
100
AcDbEntity
  8
TEXTE
 62
     6
370
    35
100
AcDbText
 10
359.5101853154454
 20
32.08900322367743
 30
0.0
 40
3.5
  1
.
  7
ISOCP
 72
     1
 11
360.0351853154454
 21
32.08900322367743
 31
0.0
100
AcDbAttribute
  2
BENENNUNG
 70
     0
  0
ATTRIB
  5
26FA
330
26F8
100
AcDbEntity
  8
TEXTE
100
AcDbText
 10
320.7262778411692
 20
21.19590272589392
 30
0.0
 40
3.5
  1
3
  7
ISOCP
100
AcDbAttribute
  2
A?
 70
     0
  0
ATTRIB
  5
26FB
330
26F8
100
AcDbEntity
  8
TEXTE
 62
     6
370
    35
100
AcDbText
 10
357.9202931525833
 20
21.28365176116404
 30
0.0
 40
3.5
  1
.
  7
ISOCP
 72
     1
 11
358.4452931525833
 21
21.28365176116404
 31
0.0
100
AcDbAttribute
  2
ZNR
 70
     0
  0
ATTRIB
  5
26FC
330
26F8
100
AcDbEntity
  8
TEXTE
100
AcDbText
 10
316.9019674747409
 20
13.80733993755291
 30
0.0
 40
3.5
  1
                     
 41
2.915382436747045
  7
ISOCP
 72
     5
 11
402.614211115104
 21
13.80733993755291
 31
0.0
100
AcDbAttribute
  2
KL.NR.
 70
     0
  0
ATTRIB
  5
26FD
330
26F8
100
AcDbEntity
  8
TEXTE
100
AcDbText
 10
272.5716947641165
 20
22.73920797258825
 30
0.0
 40
2.5
  1
.
  7
ISOCP
100
AcDbAttribute
  2
CADDAT
 70
     0
  0
ATTRIB
  5
26FE
330
26F8
100
AcDbEntity
  8
TEXTE
100
AcDbText
 10
288.122212378532
 20
22.73920797258825
 30
0.0
 40
2.5
  1
.
  7
ISOCP
100
AcDbAttribute
  2
BEARBNAME
 70
     0
  0
ATTRIB
  5
26FF
330
26F8
100
AcDbEntity
  8
TEXTE
100
AcDbText
 10
272.5716947641166
 20
35.48920797258825
 30
0.0
 40
2.5
  1
.
  7
ISOCP
100
AcDbAttribute
  2
BEARBDAT
 70
     0
  0
ATTRIB
  5
2700
330
26F8
100
AcDbEntity
  8
TEXTE
100
AcDbText
 10
288.122212378532
 20
35.48920797258825
 30
0.0
 40
2.5
  1
.
  7
ISOCP
100
AcDbAttribute
  2
BEARBNAME
 70
     0
  0
ATTRIB
  5
2701
330
26F8
100
AcDbEntity
  8
TEXTE
100
AcDbText
 10
272.5716947641166
 20
31.23920797258825
 30
0.0
 40
2.5
  1
 
  7
ISOCP
100
AcDbAttribute
  2
GEPR-DAT
 70
     0
  0
ATTRIB
  5
2702
330
26F8
100
AcDbEntity
  8
TEXTE
100
AcDbText
 10
288.122212378532
 20
31.23920797258825
 30
0.0
 40
2.5
  1

  7
ISOCP
100
AcDbAttribute
  2
GEPÜNAME
 70
     0
  0
ATTRIB
  5
2703
330
26F8
100
AcDbEntity
  8
TEXTE
100
AcDbText
 10
272.5716947641165
 20
26.98920797258825
 30
0.0
 40
2.5
  1

  7
ISOCP
100
AcDbAttribute
  2
NORMBDAT
 70
     0
  0
ATTRIB
  5
2704
330
26F8
100
AcDbEntity
  8
TEXTE
100
AcDbText
 10
288.122212378532
 20
26.98920797258825
 30
0.0
 40
2.5
  1
 
  7
ISOCP
100
AcDbAttribute
  2
BEARBNAME
 70
     0
  0
ATTRIB
  5
2705
330
26F8
100
AcDbEntity
  8
TEXTE
100
AcDbText
 10
295.7787637086901
 20
69.48920797258819
 30
0.0
 40
2.5
  1
.
  7
ISOCP
 72
     1
 11
296.1537637086901
 21
69.48920797258819
 31
0.0
100
AcDbAttribute
  2
MAßSTAB1
 70
     0
  0
ATTRIB
  5
2706
330
26F8
100
AcDbEntity
  8
TEXTE
100
AcDbText
 10
295.9941993610659
 20
65.23920797258819
 30
0.0
 40
2.5
  1
 
  7
ISOCP
 72
     1
 11
296.4941993610659
 21
65.23920797258819
 31
0.0
100
AcDbAttribute
  2
MAßSTAB2
 70
     0
  0
ATTRIB
  5
2707
330
26F8
100
AcDbEntity
  8
TEXTE
100
AcDbText
 10
295.9941993610659
 20
60.98920797258817
 30
0.0
 40
2.5
  1
 
  7
ISOCP
 72
     1
 11
296.4941993610659
 21
60.98920797258817
 31
0.0
100
AcDbAttribute
  2
MAßSTAB3
 70
     0
  0
ATTRIB
  5
2708
330
26F8
100
AcDbEntity
  8
TEXTE
100
AcDbText
 10
272.5716947641166
 20
5.739207972588244
 30
0.0
 40
2.5
  1
.
  7
ISOCP
100
AcDbAttribute
  2
URSPRUNG
 70
     0
  0
ATTRIB
  5
2709
330
26F8
100
AcDbEntity
  8
TEXTE
100
AcDbText
 10
316.7716947641166
 20
5.739207972588244
 30
0.0
 40
2.5
  1
.
  7
ISOCP
100
AcDbAttribute
  2
ERSETZTFÜR
 70
     0
  0
ATTRIB
  5
270A
330
26F8
100
AcDbEntity
  8
TEXTE
100
AcDbText
 10
365.4716947641166
 20
5.739207972588189
 30
0.0
 40
2.5
  1
.
  7
ISOCP
100
AcDbAttribute
  2
ERSTELLTFÜR
 70
     0
  0
ATTRIB
  5
270B
330
26F8
100
AcDbEntity
  8
TEXTE
100
AcDbText
 10
216.5716947641166
 20
9.989207972588244
 30
0.0
 40
2.5
  1
 
  7
ISOCP
100
AcDbAttribute
  2
ZUST.
 70
     0
  0
ATTRIB
  5
270C
330
26F8
100
AcDbEntity
  8
TEXTE
100
AcDbText
 10
224.7159893154243
 20
9.989207972588244
 30
0.0
 40
2.5
  1
 
  7
ISOCP
100
AcDbAttribute
  2
ÄND.
 70
     0
  0
ATTRIB
  5
270D
330
26F8
100
AcDbEntity
  8
TEXTE
100
AcDbText
 10
237.8714153073695
 20
9.898211649728068
 30
0.0
 40
2.5
  1
 
 41
5.875
  7
ISOCP
 72
     5
 11
243.7464153073695
 21
9.898211649728068
 31
0.0
100
AcDbAttribute
  2
DAT
 70
     0
  0
ATTRIB
  5
270E
330
26F8
100
AcDbEntity
  8
TEXTE
100
AcDbText
 10
250.4531093767472
 20
9.898211649728068
 30
0.0
 40
2.5
  1
 
  7
ISOCP
100
AcDbAttribute
  2
NAME
 70
     0
  0
ATTRIB
  5
270F
330
26F8
100
AcDbEntity
  8
TEXTE
100
AcDbText
 10
216.5716947641166
 20
14.23920797258825
 30
0.0
 40
2.5
  1
 
  7
ISOCP
100
AcDbAttribute
  2
ZUST.
 70
     0
  0
ATTRIB
  5
2710
330
26F8
100
AcDbEntity
  8
TEXTE
100
AcDbText
 10
224.7159893154243
 20
14.23920797258825
 30
0.0
 40
2.5
  1
 
  7
ISOCP
100
AcDbAttribute
  2
ÄND.
 70
     0
  0
ATTRIB
  5
2711
330
26F8
100
AcDbEntity
  8
TEXTE
100
AcDbText
 10
237.8714153073695
 20
14.14821164972807
 30
0.0
 40
2.5
  1
 
 41
5.875
  7
ISOCP
 72
     5
 11
243.7464153073695
 21
14.14821164972807
 31
0.0
100
AcDbAttribute
  2
DAT
 70
     0
  0
ATTRIB
  5
2712
330
26F8
100
AcDbEntity
  8
TEXTE
100
AcDbText
 10
250.4531093767472
 20
14.14821164972807
 30
0.0
 40
2.5
  1
 
  7
ISOCP
100
AcDbAttribute
  2
NAME
 70
     0
  0
ATTRIB
  5
2713
330
26F8
100
AcDbEntity
  8
TEXTE
100
AcDbText
 10
216.5716947641166
 20
18.48920797258825
 30
0.0
 40
2.5
  1
 
  7
ISOCP
100
AcDbAttribute
  2
ZUST.
 70
     0
  0
ATTRIB
  5
2714
330
26F8
100
AcDbEntity
  8
TEXTE
100
AcDbText
 10
224.7159893154243
 20
18.48920797258825
 30
0.0
 40
2.5
  1
 
  7
ISOCP
100
AcDbAttribute
  2
ÄND.
 70
     0
  0
ATTRIB
  5
2715
330
26F8
100
AcDbEntity
  8
TEXTE
100
AcDbText
 10
237.8714153073695
 20
18.39821164972807
 30
0.0
 40
2.5
  1
 
 41
5.875
  7
ISOCP
 72
     5
 11
243.7464153073695
 21
18.39821164972807
 31
0.0
100
AcDbAttribute
  2
DAT
 70
     0
  0
ATTRIB
  5
2716
330
26F8
100
AcDbEntity
  8
TEXTE
100
AcDbText
 10
250.4531093767472
 20
18.39821164972807
 30
0.0
 40
2.5
  1
 
  7
ISOCP
100
AcDbAttribute
  2
NAME
 70
     0
  0
ATTRIB
  5
2717
330
26F8
100
AcDbEntity
  8
TEXTE
100
AcDbText
 10
216.5716947641166
 20
22.73920797258825
 30
0.0
 40
2.5
  1
 
  7
ISOCP
100
AcDbAttribute
  2
ZUST.
 70
     0
  0
ATTRIB
  5
2718
330
26F8
100
AcDbEntity
  8
TEXTE
100
AcDbText
 10
224.7159893154243
 20
22.73920797258825
 30
0.0
 40
2.5
  1
 
  7
ISOCP
100
AcDbAttribute
  2
ÄND.
 70
     0
  0
ATTRIB
  5
2719
330
26F8
100
AcDbEntity
  8
TEXTE
100
AcDbText
 10
237.8714153073695
 20
22.64821164972807
 30
0.0
 40
2.5
  1
 
 41
5.875
  7
ISOCP
 72
     5
 11
243.7464153073695
 21
22.64821164972807
 31
0.0
100
AcDbAttribute
  2
DAT
 70
     0
  0
ATTRIB
  5
271A
330
26F8
100
AcDbEntity
  8
TEXTE
100
AcDbText
 10
250.4531093767472
 20
22.64821164972807
 30
0.0
 40
2.5
  1

  7
ISOCP
100
AcDbAttribute
  2
NAME
 70
     0
  0
ATTRIB
  5
271B
330
26F8
100
AcDbEntity
  8
TEXTE
100
AcDbText
 10
216.5716947641166
 20
26.98920797258825
 30
0.0
 40
2.5
  1

  7
ISOCP
100
AcDbAttribute
  2
ZUST.
 70
     0
  0
ATTRIB
  5
271C
330
26F8
100
AcDbEntity
  8
TEXTE
100
AcDbText
 10
224.7159893154243
 20
26.98920797258825
 30
0.0
 40
2.5
  1

  7
ISOCP
100
AcDbAttribute
  2
ÄND.
 70
     0
  0
ATTRIB
  5
271D
330
26F8
100
AcDbEntity
  8
TEXTE
100
AcDbText
 10
237.8714153073695
 20
26.89821164972807
 30
0.0
 40
2.5
  1

  7
ISOCP
 72
     5
 11
243.7464153073695
 21
26.89821164972807
 31
0.0
100
AcDbAttribute
  2
DAT
 70
     0
  0
ATTRIB
  5
271E
330
26F8
100
AcDbEntity
  8
TEXTE
100
AcDbText
 10
250.4531093767472
 20
26.89821164972807
 30
0.0
 40
2.5
  1

  7
ISOCP
100
AcDbAttribute
  2
NAME
 70
     0
  0
ATTRIB
  5
271F
330
26F8
100
AcDbEntity
  8
TEXTE
100
AcDbText
 10
216.5716947641166
 20
31.23920797258825
 30
0.0
 40
2.5
  1

  7
ISOCP
100
AcDbAttribute
  2
ZUST.
 70
     0
  0
ATTRIB
  5
2720
330
26F8
100
AcDbEntity
  8
TEXTE
100
AcDbText
 10
224.7159893154243
 20
31.23920797258825
 30
0.0
 40
2.5
  1

  7
ISOCP
100
AcDbAttribute
  2
ÄND.
 70
     0
  0
ATTRIB
  5
2721
330
26F8
100
AcDbEntity
  8
TEXTE
100
AcDbText
 10
237.8714153073695
 20
31.14821164972807
 30
0.0
 40
2.5
  1

  7
ISOCP
 72
     5
 11
243.7464153073695
 21
31.14821164972807
 31
0.0
100
AcDbAttribute
  2
DAT
 70
     0
  0
ATTRIB
  5
2722
330
26F8
100
AcDbEntity
  8
TEXTE
100
AcDbText
 10
250.4531093767472
 20
31.14821164972807
 30
0.0
 40
2.5
  1

  7
ISOCP
100
AcDbAttribute
  2
NAME
 70
     0
  0
ATTRIB
  5
2723
330
26F8
100
AcDbEntity
  8
TEXTE
100
AcDbText
 10
216.5716947641166
 20
35.48920797258825
 30
0.0
 40
2.5
  1

  7
ISOCP
100
AcDbAttribute
  2
ZUST.
 70
     0
  0
ATTRIB
  5
2724
330
26F8
100
AcDbEntity
  8
TEXTE
100
AcDbText
 10
224.7159893154243
 20
35.48920797258825
 30
0.0
 40
2.5
  1

  7
ISOCP
100
AcDbAttribute
  2
ÄND.
 70
     0
  0
ATTRIB
  5
2725
330
26F8
100
AcDbEntity
  8
TEXTE
100
AcDbText
 10
237.8714153073695
 20
35.39821164972807
 30
0.0
 40
2.5
  1

  7
ISOCP
 72
     5
 11
243.7464153073695
 21
35.39821164972807
 31
0.0
100
AcDbAttribute
  2
DAT
 70
     0
  0
ATTRIB
  5
2726
330
26F8
100
AcDbEntity
  8
TEXTE
100
AcDbText
 10
250.4531093767472
 20
35.39821164972807
 30
0.0
 40
2.5
  1

  7
ISOCP
100
AcDbAttribute
  2
NAME
 70
     0
  0
ATTRIB
  5
2727
330
26F8
100
AcDbEntity
  8
TEXTE
100
AcDbText
 10
216.5716947641166
 20
39.73920797258825
 30
0.0
 40
2.5
  1

  7
ISOCP
100
AcDbAttribute
  2
ZUST.
 70
     0
  0
ATTRIB
  5
2728
330
26F8
100
AcDbEntity
  8
TEXTE
100
AcDbText
 10
224.7159893154243
 20
39.73920797258825
 30
0.0
 40
2.5
  1

  7
ISOCP
100
AcDbAttribute
  2
ÄND.
 70
     0
  0
ATTRIB
  5
2729
330
26F8
100
AcDbEntity
  8
TEXTE
100
AcDbText
 10
237.8714153073696
 20
39.64821164972807
 30
0.0
 40
2.5
  1

  7
ISOCP
 72
     5
 11
243.7464153073696
 21
39.64821164972807
 31
0.0
100
AcDbAttribute
  2
DAT
 70
     0
  0
ATTRIB
  5
272A
330
26F8
100
AcDbEntity
  8
TEXTE
100
AcDbText
 10
250.4531093767472
 20
39.64821164972807
 30
0.0
 40
2.5
  1

  7
ISOCP
100
AcDbAttribute
  2
NAME
 70
     0
  0
ATTRIB
  5
272B
330
26F8
100
AcDbEntity
  8
TEXTE
100
AcDbText
 10
216.5716947641166
 20
43.98920797258824
 30
0.0
 40
2.5
  1

  7
ISOCP
100
AcDbAttribute
  2
ZUST.
 70
     0
  0
ATTRIB
  5
272C
330
26F8
100
AcDbEntity
  8
TEXTE
100
AcDbText
 10
224.7159893154243
 20
43.98920797258824
 30
0.0
 40
2.5
  1

  7
ISOCP
100
AcDbAttribute
  2
ÄND.
 70
     0
  0
ATTRIB
  5
272D
330
26F8
100
AcDbEntity
  8
TEXTE
100
AcDbText
 10
237.8714153073696
 20
43.89821164972807
 30
0.0
 40
2.5
  1

  7
ISOCP
 72
     5
 11
243.7464153073696
 21
43.89821164972807
 31
0.0
100
AcDbAttribute
  2
DAT
 70
     0
  0
ATTRIB
  5
272E
330
26F8
100
AcDbEntity
  8
TEXTE
100
AcDbText
 10
250.4531093767472
 20
43.89821164972807
 30
0.0
 40
2.5
  1

  7
ISOCP
100
AcDbAttribute
  2
NAME
 70
     0
  0
ATTRIB
  5
272F
330
26F8
100
AcDbEntity
  8
TEXTE
100
AcDbText
 10
216.5716947641166
 20
48.23920797258825
 30
0.0
 40
2.5
  1

  7
ISOCP
100
AcDbAttribute
  2
ZUST.
 70
     0
  0
ATTRIB
  5
2730
330
26F8
100
AcDbEntity
  8
TEXTE
100
AcDbText
 10
224.7159893154243
 20
48.23920797258825
 30
0.0
 40
2.5
  1

  7
ISOCP
100
AcDbAttribute
  2
ÄND.
 70
     0
  0
ATTRIB
  5
2731
330
26F8
100
AcDbEntity
  8
TEXTE
100
AcDbText
 10
237.8714153073696
 20
48.14821164972807
 30
0.0
 40
2.5
  1

  7
ISOCP
 72
     5
 11
243.7464153073696
 21
48.14821164972807
 31
0.0
100
AcDbAttribute
  2
DAT
 70
     0
  0
ATTRIB
  5
2732
330
26F8
100
AcDbEntity
  8
TEXTE
100
AcDbText
 10
250.4531093767472
 20
48.14821164972807
 30
0.0
 40
2.5
  1

  7
ISOCP
100
AcDbAttribute
  2
NAME
 70
     0
  0
ATTRIB
  5
2733
330
26F8
100
AcDbEntity
  8
TEXTE
100
AcDbText
 10
216.5716947641166
 20
52.48920797258826
 30
0.0
 40
2.5
  1

  7
ISOCP
100
AcDbAttribute
  2
ZUST.
 70
     0
  0
ATTRIB
  5
2734
330
26F8
100
AcDbEntity
  8
TEXTE
100
AcDbText
 10
224.7159893154243
 20
52.48920797258826
 30
0.0
 40
2.5
  1

  7
ISOCP
100
AcDbAttribute
  2
ÄND.
 70
     0
  0
ATTRIB
  5
2735
330
26F8
100
AcDbEntity
  8
TEXTE
100
AcDbText
 10
237.8714153073695
 20
52.39821164972807
 30
0.0
 40
2.5
  1

  7
ISOCP
 72
     5
 11
243.7464153073695
 21
52.39821164972807
 31
0.0
100
AcDbAttribute
  2
DAT
 70
     0
  0
ATTRIB
  5
2736
330
26F8
100
AcDbEntity
  8
TEXTE
100
AcDbText
 10
250.4531093767472
 20
52.39821164972807
 30
0.0
 40
2.5
  1

  7
ISOCP
100
AcDbAttribute
  2
NAME
 70
     0
  0
ATTRIB
  5
2737
330
26F8
100
AcDbEntity
  8
TEXTE
100
AcDbText
 10
216.5716947641166
 20
56.73920797258817
 30
0.0
 40
2.5
  1

  7
ISOCP
100
AcDbAttribute
  2
ZUST.
 70
     0
  0
ATTRIB
  5
2738
330
26F8
100
AcDbEntity
  8
TEXTE
100
AcDbText
 10
224.7159893154243
 20
56.73920797258817
 30
0.0
 40
2.5
  1

  7
ISOCP
100
AcDbAttribute
  2
ÄND.
 70
     0
  0
ATTRIB
  5
2739
330
26F8
100
AcDbEntity
  8
TEXTE
100
AcDbText
 10
237.8714153073695
 20
56.64821164972806
 30
0.0
 40
2.5
  1

  7
ISOCP
 72
     5
 11
243.7464153073695
 21
56.64821164972806
 31
0.0
100
AcDbAttribute
  2
DAT
 70
     0
  0
ATTRIB
  5
273A
330
26F8
100
AcDbEntity
  8
TEXTE
100
AcDbText
 10
250.4531093767472
 20
56.64821164972806
 30
0.0
 40
2.5
  1

  7
ISOCP
100
AcDbAttribute
  2
NAME
 70
     0
  0
SEQEND
  5
273B
330
26F8
100
AcDbEntity
  8
OBJEKT
  0
INSERT
  5
273C
330
258C
100
AcDbEntity
  8
OBJEKT
100
AcDbBlockReference
  2
Toleranz1000
 10
261.014211115104
 20
42.92053164125254
 30
0.0
  0
LWPOLYLINE
  5
2744
102
{ACAD_REACTORS
330
2746
102
}
330
258C
100
AcDbEntity
  8
Ansichtsfenster
100
AcDbPolyline
 90
        6
 70
     1
 43
0.0
 10
14.61421111510401
 20
44.03927730949113
 10
215.414232427059
 20
44.03927730949113
 10
215.414211115104
 20
76.92053164125252
 10
402.614211115104
 20
76.92053164125252
 10
402.614211115104
 20
281.6705316412525
 10
14.61421111510401
 20
281.6705316412525
  0
VIEWPORT
  5
2746
330
258C
100
AcDbEntity
  8
Ansichtsfenster
100
AcDbViewport
 10
208.614211115104
 20
162.8549044753718
 30
0.0
 40
388.0
 41
237.6312543317614
 69
     0
 12
82.38384455980249
 22
-24.09418841058899
 13
0.0
 23
0.0
 14
10.0
 24
10.0
 15
10.0
 25
10.0
 16
0.0
 26
0.0
 36
1.0
 17
0.0
 27
0.0
 37
0.0
 42
50.0
 43
0.0
 44
0.0
 45
237.6312537912419
 50
0.0
 51
0.0
 72
   100
331
2499
 90
    98304
340
2744
  1

281
     0
 71
     1
 74
     0
110
0.0
120
0.0
130
0.0
111
1.0
121
0.0
131
0.0
112
0.0
122
1.0
132
0.0
 79
     0
146
0.0
170
     0
  0
ENDBLK
  5
258F
330
258C
100
AcDbEntity
  8
0
100
AcDbBlockEnd
  0
BLOCK
  5
24AB
330
24A7
100
AcDbEntity
  8
0
100
AcDbBlockBegin
  2
oberfläche_nach_1302
 70
     0
 10
0.0
 20
0.0
 30
0.0
  3
oberfläche_nach_1302
  1

  0
TEXT
  5
24A8
330
24A7
100
AcDbEntity
  8
5-BEM
100
AcDbText
 10
5.536096684105373
 20
11.93918267525639
 30
0.0
 40
2.5
  1
Oberflächen
  7
ISOCP
100
AcDbText
1001
ACAD
1000
MTEXTBEGIN
1070
    73
1070
     1
1070
    44
1040
1.0
1070
    74
1070
     0
1000
MTEXTEND
1000
MTEXTBEGIN
1070
    73
1070
     1
1070
    44
1040
1.0
1070
    74
1070
     0
1000
MTEXTEND
1000
MTEXTBEGIN
1070
    73
1070
     1
1070
    44
1040
1.0
1070
    74
1070
     0
1000
MTEXTEND
1000
MTEXTBEGIN
1070
    73
1070
     1
1070
    44
1040
1.0
1070
    74
1070
     0
1000
MTEXTEND
  0
TEXT
  5
24A9
330
24A7
100
AcDbEntity
  8
5-BEM
100
AcDbText
 10
10.88633250976433
 20
7.772516008589718
 30
0.0
 40
2.5
  1
nach
  7
ISOCP
100
AcDbText
1001
ACAD
1000
MTEXTBEGIN
1070
    73
1070
     1
1070
    44
1040
1.0
1070
    74
1070
     0
1000
MTEXTEND
1000
MTEXTBEGIN
1070
    73
1070
     1
1070
    44
1040
1.0
1070
    74
1070
     0
1000
MTEXTEND
1000
MTEXTBEGIN
1070
    73
1070
     1
1070
    44
1040
1.0
1070
    74
1070
     0
1000
MTEXTEND
1000
MTEXTBEGIN
1070
    73
1070
     1
1070
    44
1040
1.0
1070
    74
1070
     0
1000
MTEXTEND
  0
TEXT
  5
24AA
330
24A7
100
AcDbEntity
  8
5-BEM
100
AcDbText
 10
8.161227461750215
 20
3.605849341923045
 30
0.0
 40
2.5
  1
ISO 1302
  7
ISOCP
100
AcDbText
1001
ACAD
1000
MTEXTBEGIN
1070
    73
1070
     1
1070
    44
1040
1.0
1070
    74
1070
     0
1000
MTEXTEND
1000
MTEXTBEGIN
1070
    73
1070
     1
1070
    44
1040
1.0
1070
    74
1070
     0
1000
MTEXTEND
1000
MTEXTBEGIN
1070
    73
1070
     1
1070
    44
1040
1.0
1070
    74
1070
     0
1000
MTEXTEND
1000
MTEXTBEGIN
1070
    73
1070
     1
1070
    44
1040
1.0
1070
    74
1070
     0
1000
MTEXTEND
  0
ENDBLK
  5
24AC
330
24A7
100
AcDbEntity
  8
0
100
AcDbBlockEnd
  0
BLOCK
  5
24B2
330
24AE
100
AcDbEntity
  8
0
100
AcDbBlockBegin
  2
Allgemeintoleranzen1
 70
     2
 10
0.0
 20
0.0
 30
0.0
  3
Allgemeintoleranzen1
  1

  0
TEXT
  5
24AF
330
24AE
100
AcDbEntity
  8
TEXTE
100
AcDbText
 10
3.708796159061023
 20
4.904317726805841
 30
0.0
 40
2.5
  1

  7
ISOCP
100
AcDbText
  0
TEXT
  5
24B0
330
24AE
100
AcDbEntity
  8
TEXTE
100
AcDbText
 10
3.708796159061023
 20
8.836505930480186
 30
0.0
 40
2.5
  1
Allgemeintoleranzen
  7
ISOCP
100
AcDbText
  0
ATTDEF
  5
24B1
330
24AE
100
AcDbEntity
  8
TEXTE
100
AcDbText
 10
9.739745867903195
 20
4.905944648027597
 30
0.0
 40
2.5
  1

  7
ISOCP
100
AcDbAttributeDefinition
  3

  2
ALGEMEINT.
 70
     0
  0
ENDBLK
  5
24B3
330
24AE
100
AcDbEntity
  8
0
100
AcDbBlockEnd
  0
BLOCK
  5
24E1
330
24DA
100
AcDbEntity
  8
0
100
AcDbBlockBegin
  2
A3ra
 70
     0
 10
0.0
 20
0.0
 30
0.0
  3
A3ra
  1

  0
LINE
  5
24DB
330
24DA
100
AcDbEntity
  8
WERKSKANTEN
100
AcDbLine
 10
395.0
 20
-2.085507088176655
 30
0.0
 11
395.0
 21
274.9144929118234
 31
0.0
  0
LINE
  5
24DC
330
24DA
100
AcDbEntity
  8
WERKSKANTEN
100
AcDbLine
 10
7.0
 20
274.9144929118234
 30
0.0
 11
395.0
 21
274.9144929118234
 31
0.0
  0
LINE
  5
24DD
330
24DA
100
AcDbEntity
  8
WERKSKANTEN
100
AcDbLine
 10
7.0
 20
-2.085507088176655
 30
0.0
 11
395.0
 21
-2.085507088176655
 31
0.0
  0
LINE
  5
24DE
330
24DA
100
AcDbEntity
  8
WERKSKANTEN
100
AcDbLine
 10
7.0
 20
-2.085507088176655
 30
0.0
 11
7.0
 21
274.9144929118234
 31
0.0
  0
LINE
  5
24DF
330
24DA
100
AcDbEntity
  8
WERKSKANTEN
100
AcDbLine
 10
0.0
 20
-4.17101417635331
 30
0.0
 11
0.0
 21
0.0
 31
0.0
  0
LINE
  5
24E0
330
24DA
100
AcDbEntity
  8
WERKSKANTEN
100
AcDbLine
 10
2.327386164632115
 20
-2.085507088176655
 30
0.0
 11
-2.256941670683771
 21
-2.085507088176655
 31
0.0
  0
ENDBLK
  5
24E2
330
24DA
100
AcDbEntity
  8
0
100
AcDbBlockEnd
  0
BLOCK
  5
23C0
330
23BE
100
AcDbEntity
  8
0
100
AcDbBlockBegin
  2
*Paper_Space8
 70
     0
 10
0.0
 20
0.0
 30
0.0
  3
*Paper_Space8
  1

  0
VIEWPORT
  5
24D9
330
23BE
100
AcDbEntity
  8
0
100
AcDbViewport
 10
261.9830548955184
 20
146.9401355551803
 30
0.0
 40
584.1921936070438
 41
314.1924854736328
 69
     0
 12
261.9830548955184
 22
146.9401355551803
 13
0.0
 23
0.0
 14
10.0
 24
10.0
 15
10.0
 25
10.0
 16
0.0
 26
0.0
 36
1.0
 17
0.0
 27
0.0
 37
0.0
 42
50.0
 43
0.0
 44
0.0
 45
314.1924854736328
 50
0.0
 51
0.0
 72
   100
331
2499
 90
    32800
  1

281
     0
 71
     1
 74
     0
110
0.0
120
0.0
130
0.0
111
1.0
121
0.0
131
0.0
112
0.0
122
1.0
132
0.0
 79
     0
146
0.0
170
     0
  0
INSERT
  5
24E3
330
23BE
100
AcDbEntity
  8
TEXTE
100
AcDbBlockReference
  2
A3ra
 10
5.611244138646383
 20
8.626898060227063
 30
0.0
  0
LINE
  5
253D
330
23BE
100
AcDbEntity
  8
OBJEKT
100
AcDbLine
 10
400.6112441386464
 20
6.541390972050407
 30
0.0
 11
213.4112441386464
 21
6.541390972050407
 31
0.0
  0
INSERT
  5
253E
330
23BE
100
AcDbEntity
  8
OBJEKT
100
AcDbBlockReference
 66
     1
  2
schriftfeld-31.01.02
 10
400.6112441386464
 20
6.541390972050407
 30
0.0
  0
ATTRIB
  5
253F
330
253E
100
AcDbEntity
  8
TEXTE
 62
     6
370
    35
100
AcDbText
 10
357.5072183389878
 20
33.95986255447531
 30
0.0
 40
3.5
  1
.
  7
ISOCP
 72
     1
 11
358.0322183389878
 21
33.95986255447531
 31
0.0
100
AcDbAttribute
  2
BENENNUNG
 70
     0
  0
ATTRIB
  5
2540
330
253E
100
AcDbEntity
  8
TEXTE
100
AcDbText
 10
318.7233108647116
 20
23.0667620566918
 30
0.0
 40
3.5
  1
4
  7
ISOCP
100
AcDbAttribute
  2
A?
 70
     0
  0
ATTRIB
  5
2541
330
253E
100
AcDbEntity
  8
TEXTE
 62
     6
370
    35
100
AcDbText
 10
355.9173261761257
 20
23.15451109196192
 30
0.0
 40
3.5
  1
.
  7
ISOCP
 72
     1
 11
356.4423261761256
 21
23.15451109196192
 31
0.0
100
AcDbAttribute
  2
ZNR
 70
     0
  0
ATTRIB
  5
2542
330
253E
100
AcDbEntity
  8
TEXTE
100
AcDbText
 10
314.8990004982833
 20
15.67819926835079
 30
0.0
 40
3.5
  1
                     
 41
2.915382436747043
  7
ISOCP
 72
     5
 11
400.6112441386464
 21
15.67819926835079
 31
0.0
100
AcDbAttribute
  2
KL.NR.
 70
     0
  0
ATTRIB
  5
2543
330
253E
100
AcDbEntity
  8
TEXTE
100
AcDbText
 10
270.5687277876589
 20
24.61006730338613
 30
0.0
 40
2.5
  1
.
  7
ISOCP
100
AcDbAttribute
  2
CADDAT
 70
     0
  0
ATTRIB
  5
2544
330
253E
100
AcDbEntity
  8
TEXTE
100
AcDbText
 10
286.1192454020743
 20
24.61006730338613
 30
0.0
 40
2.5
  1
.
  7
ISOCP
100
AcDbAttribute
  2
BEARBNAME
 70
     0
  0
ATTRIB
  5
2545
330
253E
100
AcDbEntity
  8
TEXTE
100
AcDbText
 10
270.5687277876589
 20
37.36006730338614
 30
0.0
 40
2.5
  1
.
  7
ISOCP
100
AcDbAttribute
  2
BEARBDAT
 70
     0
  0
ATTRIB
  5
2546
330
253E
100
AcDbEntity
  8
TEXTE
100
AcDbText
 10
286.1192454020743
 20
37.36006730338614
 30
0.0
 40
2.5
  1
.
  7
ISOCP
100
AcDbAttribute
  2
BEARBNAME
 70
     0
  0
ATTRIB
  5
2547
330
253E
100
AcDbEntity
  8
TEXTE
100
AcDbText
 10
270.5687277876589
 20
33.11006730338613
 30
0.0
 40
2.5
  1
 
  7
ISOCP
100
AcDbAttribute
  2
GEPR-DAT
 70
     0
  0
ATTRIB
  5
2548
330
253E
100
AcDbEntity
  8
TEXTE
100
AcDbText
 10
286.1192454020743
 20
33.11006730338613
 30
0.0
 40
2.5
  1

  7
ISOCP
100
AcDbAttribute
  2
GEPÜNAME
 70
     0
  0
ATTRIB
  5
2549
330
253E
100
AcDbEntity
  8
TEXTE
100
AcDbText
 10
270.5687277876589
 20
28.86006730338613
 30
0.0
 40
2.5
  1

  7
ISOCP
100
AcDbAttribute
  2
NORMBDAT
 70
     0
  0
ATTRIB
  5
254A
330
253E
100
AcDbEntity
  8
TEXTE
100
AcDbText
 10
286.1192454020743
 20
28.86006730338613
 30
0.0
 40
2.5
  1
 
  7
ISOCP
100
AcDbAttribute
  2
BEARBNAME
 70
     0
  0
ATTRIB
  5
254B
330
253E
100
AcDbEntity
  8
TEXTE
100
AcDbText
 10
293.7757967322325
 20
71.36006730338606
 30
0.0
 40
2.5
  1
.
  7
ISOCP
 72
     1
 11
294.1507967322325
 21
71.36006730338606
 31
0.0
100
AcDbAttribute
  2
MAßSTAB1
 70
     0
  0
ATTRIB
  5
254C
330
253E
100
AcDbEntity
  8
TEXTE
100
AcDbText
 10
293.9912323846083
 20
67.11006730338607
 30
0.0
 40
2.5
  1
 
  7
ISOCP
 72
     1
 11
294.4912323846083
 21
67.11006730338607
 31
0.0
100
AcDbAttribute
  2
MAßSTAB2
 70
     0
  0
ATTRIB
  5
254D
330
253E
100
AcDbEntity
  8
TEXTE
100
AcDbText
 10
293.9912323846083
 20
62.86006730338606
 30
0.0
 40
2.5
  1
 
  7
ISOCP
 72
     1
 11
294.4912323846083
 21
62.86006730338606
 31
0.0
100
AcDbAttribute
  2
MAßSTAB3
 70
     0
  0
ATTRIB
  5
254E
330
253E
100
AcDbEntity
  8
TEXTE
100
AcDbText
 10
270.568727787659
 20
7.61006730338613
 30
0.0
 40
2.5
  1
.
  7
ISOCP
100
AcDbAttribute
  2
URSPRUNG
 70
     0
  0
ATTRIB
  5
254F
330
253E
100
AcDbEntity
  8
TEXTE
100
AcDbText
 10
314.768727787659
 20
7.61006730338613
 30
0.0
 40
2.5
  1
.
  7
ISOCP
100
AcDbAttribute
  2
ERSETZTFÜR
 70
     0
  0
ATTRIB
  5
2550
330
253E
100
AcDbEntity
  8
TEXTE
100
AcDbText
 10
363.468727787659
 20
7.610067303386074
 30
0.0
 40
2.5
  1
.
  7
ISOCP
100
AcDbAttribute
  2
ERSTELLTFÜR
 70
     0
  0
ATTRIB
  5
2551
330
253E
100
AcDbEntity
  8
TEXTE
100
AcDbText
 10
214.5687277876589
 20
11.86006730338613
 30
0.0
 40
2.5
  1
 
  7
ISOCP
100
AcDbAttribute
  2
ZUST.
 70
     0
  0
ATTRIB
  5
2552
330
253E
100
AcDbEntity
  8
TEXTE
100
AcDbText
 10
222.7130223389667
 20
11.86006730338613
 30
0.0
 40
2.5
  1
 
  7
ISOCP
100
AcDbAttribute
  2
ÄND.
 70
     0
  0
ATTRIB
  5
2553
330
253E
100
AcDbEntity
  8
TEXTE
100
AcDbText
 10
235.8684483309119
 20
11.76907098052595
 30
0.0
 40
2.5
  1
 
 41
5.875
  7
ISOCP
 72
     5
 11
241.7434483309119
 21
11.76907098052595
 31
0.0
100
AcDbAttribute
  2
DAT
 70
     0
  0
ATTRIB
  5
2554
330
253E
100
AcDbEntity
  8
TEXTE
100
AcDbText
 10
248.4501424002896
 20
11.76907098052595
 30
0.0
 40
2.5
  1
 
  7
ISOCP
100
AcDbAttribute
  2
NAME
 70
     0
  0
ATTRIB
  5
2555
330
253E
100
AcDbEntity
  8
TEXTE
100
AcDbText
 10
214.5687277876589
 20
16.11006730338613
 30
0.0
 40
2.5
  1
 
  7
ISOCP
100
AcDbAttribute
  2
ZUST.
 70
     0
  0
ATTRIB
  5
2556
330
253E
100
AcDbEntity
  8
TEXTE
100
AcDbText
 10
222.7130223389667
 20
16.11006730338613
 30
0.0
 40
2.5
  1
 
  7
ISOCP
100
AcDbAttribute
  2
ÄND.
 70
     0
  0
ATTRIB
  5
2557
330
253E
100
AcDbEntity
  8
TEXTE
100
AcDbText
 10
235.8684483309119
 20
16.01907098052595
 30
0.0
 40
2.5
  1
 
 41
5.875
  7
ISOCP
 72
     5
 11
241.7434483309119
 21
16.01907098052595
 31
0.0
100
AcDbAttribute
  2
DAT
 70
     0
  0
ATTRIB
  5
2558
330
253E
100
AcDbEntity
  8
TEXTE
100
AcDbText
 10
248.4501424002896
 20
16.01907098052595
 30
0.0
 40
2.5
  1
 
  7
ISOCP
100
AcDbAttribute
  2
NAME
 70
     0
  0
ATTRIB
  5
2559
330
253E
100
AcDbEntity
  8
TEXTE
100
AcDbText
 10
214.5687277876589
 20
20.36006730338613
 30
0.0
 40
2.5
  1
 
  7
ISOCP
100
AcDbAttribute
  2
ZUST.
 70
     0
  0
ATTRIB
  5
255A
330
253E
100
AcDbEntity
  8
TEXTE
100
AcDbText
 10
222.7130223389667
 20
20.36006730338613
 30
0.0
 40
2.5
  1
 
  7
ISOCP
100
AcDbAttribute
  2
ÄND.
 70
     0
  0
ATTRIB
  5
255B
330
253E
100
AcDbEntity
  8
TEXTE
100
AcDbText
 10
235.8684483309119
 20
20.26907098052595
 30
0.0
 40
2.5
  1
 
 41
5.875
  7
ISOCP
 72
     5
 11
241.7434483309119
 21
20.26907098052595
 31
0.0
100
AcDbAttribute
  2
DAT
 70
     0
  0
ATTRIB
  5
255C
330
253E
100
AcDbEntity
  8
TEXTE
100
AcDbText
 10
248.4501424002896
 20
20.26907098052595
 30
0.0
 40
2.5
  1
 
  7
ISOCP
100
AcDbAttribute
  2
NAME
 70
     0
  0
ATTRIB
  5
255D
330
253E
100
AcDbEntity
  8
TEXTE
100
AcDbText
 10
214.5687277876589
 20
24.61006730338613
 30
0.0
 40
2.5
  1
 
  7
ISOCP
100
AcDbAttribute
  2
ZUST.
 70
     0
  0
ATTRIB
  5
255E
330
253E
100
AcDbEntity
  8
TEXTE
100
AcDbText
 10
222.7130223389667
 20
24.61006730338613
 30
0.0
 40
2.5
  1
 
  7
ISOCP
100
AcDbAttribute
  2
ÄND.
 70
     0
  0
ATTRIB
  5
255F
330
253E
100
AcDbEntity
  8
TEXTE
100
AcDbText
 10
235.8684483309119
 20
24.51907098052596
 30
0.0
 40
2.5
  1
 
 41
5.875
  7
ISOCP
 72
     5
 11
241.7434483309119
 21
24.51907098052596
 31
0.0
100
AcDbAttribute
  2
DAT
 70
     0
  0
ATTRIB
  5
2560
330
253E
100
AcDbEntity
  8
TEXTE
100
AcDbText
 10
248.4501424002896
 20
24.51907098052596
 30
0.0
 40
2.5
  1

  7
ISOCP
100
AcDbAttribute
  2
NAME
 70
     0
  0
ATTRIB
  5
2561
330
253E
100
AcDbEntity
  8
TEXTE
100
AcDbText
 10
214.5687277876589
 20
28.86006730338613
 30
0.0
 40
2.5
  1

  7
ISOCP
100
AcDbAttribute
  2
ZUST.
 70
     0
  0
ATTRIB
  5
2562
330
253E
100
AcDbEntity
  8
TEXTE
100
AcDbText
 10
222.7130223389667
 20
28.86006730338613
 30
0.0
 40
2.5
  1

  7
ISOCP
100
AcDbAttribute
  2
ÄND.
 70
     0
  0
ATTRIB
  5
2563
330
253E
100
AcDbEntity
  8
TEXTE
100
AcDbText
 10
235.8684483309119
 20
28.76907098052596
 30
0.0
 40
2.5
  1

  7
ISOCP
 72
     5
 11
241.7434483309119
 21
28.76907098052596
 31
0.0
100
AcDbAttribute
  2
DAT
 70
     0
  0
ATTRIB
  5
2564
330
253E
100
AcDbEntity
  8
TEXTE
100
AcDbText
 10
248.4501424002896
 20
28.76907098052596
 30
0.0
 40
2.5
  1

  7
ISOCP
100
AcDbAttribute
  2
NAME
 70
     0
  0
ATTRIB
  5
2565
330
253E
100
AcDbEntity
  8
TEXTE
100
AcDbText
 10
214.5687277876589
 20
33.11006730338613
 30
0.0
 40
2.5
  1

  7
ISOCP
100
AcDbAttribute
  2
ZUST.
 70
     0
  0
ATTRIB
  5
2566
330
253E
100
AcDbEntity
  8
TEXTE
100
AcDbText
 10
222.7130223389667
 20
33.11006730338613
 30
0.0
 40
2.5
  1

  7
ISOCP
100
AcDbAttribute
  2
ÄND.
 70
     0
  0
ATTRIB
  5
2567
330
253E
100
AcDbEntity
  8
TEXTE
100
AcDbText
 10
235.8684483309119
 20
33.01907098052595
 30
0.0
 40
2.5
  1

  7
ISOCP
 72
     5
 11
241.7434483309119
 21
33.01907098052595
 31
0.0
100
AcDbAttribute
  2
DAT
 70
     0
  0
ATTRIB
  5
2568
330
253E
100
AcDbEntity
  8
TEXTE
100
AcDbText
 10
248.4501424002896
 20
33.01907098052595
 30
0.0
 40
2.5
  1

  7
ISOCP
100
AcDbAttribute
  2
NAME
 70
     0
  0
ATTRIB
  5
2569
330
253E
100
AcDbEntity
  8
TEXTE
100
AcDbText
 10
214.5687277876589
 20
37.36006730338614
 30
0.0
 40
2.5
  1

  7
ISOCP
100
AcDbAttribute
  2
ZUST.
 70
     0
  0
ATTRIB
  5
256A
330
253E
100
AcDbEntity
  8
TEXTE
100
AcDbText
 10
222.7130223389667
 20
37.36006730338614
 30
0.0
 40
2.5
  1

  7
ISOCP
100
AcDbAttribute
  2
ÄND.
 70
     0
  0
ATTRIB
  5
256B
330
253E
100
AcDbEntity
  8
TEXTE
100
AcDbText
 10
235.8684483309119
 20
37.26907098052596
 30
0.0
 40
2.5
  1

  7
ISOCP
 72
     5
 11
241.7434483309119
 21
37.26907098052596
 31
0.0
100
AcDbAttribute
  2
DAT
 70
     0
  0
ATTRIB
  5
256C
330
253E
100
AcDbEntity
  8
TEXTE
100
AcDbText
 10
248.4501424002896
 20
37.26907098052596
 30
0.0
 40
2.5
  1

  7
ISOCP
100
AcDbAttribute
  2
NAME
 70
     0
  0
ATTRIB
  5
256D
330
253E
100
AcDbEntity
  8
TEXTE
100
AcDbText
 10
214.5687277876589
 20
41.61006730338614
 30
0.0
 40
2.5
  1

  7
ISOCP
100
AcDbAttribute
  2
ZUST.
 70
     0
  0
ATTRIB
  5
256E
330
253E
100
AcDbEntity
  8
TEXTE
100
AcDbText
 10
222.7130223389667
 20
41.61006730338614
 30
0.0
 40
2.5
  1

  7
ISOCP
100
AcDbAttribute
  2
ÄND.
 70
     0
  0
ATTRIB
  5
256F
330
253E
100
AcDbEntity
  8
TEXTE
100
AcDbText
 10
235.868448330912
 20
41.51907098052595
 30
0.0
 40
2.5
  1

  7
ISOCP
 72
     5
 11
241.743448330912
 21
41.51907098052595
 31
0.0
100
AcDbAttribute
  2
DAT
 70
     0
  0
ATTRIB
  5
2570
330
253E
100
AcDbEntity
  8
TEXTE
100
AcDbText
 10
248.4501424002896
 20
41.51907098052595
 30
0.0
 40
2.5
  1

  7
ISOCP
100
AcDbAttribute
  2
NAME
 70
     0
  0
ATTRIB
  5
2571
330
253E
100
AcDbEntity
  8
TEXTE
100
AcDbText
 10
214.5687277876589
 20
45.86006730338612
 30
0.0
 40
2.5
  1

  7
ISOCP
100
AcDbAttribute
  2
ZUST.
 70
     0
  0
ATTRIB
  5
2572
330
253E
100
AcDbEntity
  8
TEXTE
100
AcDbText
 10
222.7130223389667
 20
45.86006730338612
 30
0.0
 40
2.5
  1

  7
ISOCP
100
AcDbAttribute
  2
ÄND.
 70
     0
  0
ATTRIB
  5
2573
330
253E
100
AcDbEntity
  8
TEXTE
100
AcDbText
 10
235.868448330912
 20
45.76907098052595
 30
0.0
 40
2.5
  1

  7
ISOCP
 72
     5
 11
241.743448330912
 21
45.76907098052595
 31
0.0
100
AcDbAttribute
  2
DAT
 70
     0
  0
ATTRIB
  5
2574
330
253E
100
AcDbEntity
  8
TEXTE
100
AcDbText
 10
248.4501424002896
 20
45.76907098052595
 30
0.0
 40
2.5
  1

  7
ISOCP
100
AcDbAttribute
  2
NAME
 70
     0
  0
ATTRIB
  5
2575
330
253E
100
AcDbEntity
  8
TEXTE
100
AcDbText
 10
214.5687277876589
 20
50.11006730338614
 30
0.0
 40
2.5
  1

  7
ISOCP
100
AcDbAttribute
  2
ZUST.
 70
     0
  0
ATTRIB
  5
2576
330
253E
100
AcDbEntity
  8
TEXTE
100
AcDbText
 10
222.7130223389667
 20
50.11006730338614
 30
0.0
 40
2.5
  1

  7
ISOCP
100
AcDbAttribute
  2
ÄND.
 70
     0
  0
ATTRIB
  5
2577
330
253E
100
AcDbEntity
  8
TEXTE
100
AcDbText
 10
235.868448330912
 20
50.01907098052595
 30
0.0
 40
2.5
  1

  7
ISOCP
 72
     5
 11
241.743448330912
 21
50.01907098052595
 31
0.0
100
AcDbAttribute
  2
DAT
 70
     0
  0
ATTRIB
  5
2578
330
253E
100
AcDbEntity
  8
TEXTE
100
AcDbText
 10
248.4501424002896
 20
50.01907098052595
 30
0.0
 40
2.5
  1

  7
ISOCP
100
AcDbAttribute
  2
NAME
 70
     0
  0
ATTRIB
  5
2579
330
253E
100
AcDbEntity
  8
TEXTE
100
AcDbText
 10
214.5687277876589
 20
54.36006730338615
 30
0.0
 40
2.5
  1

  7
ISOCP
100
AcDbAttribute
  2
ZUST.
 70
     0
  0
ATTRIB
  5
257A
330
253E
100
AcDbEntity
  8
TEXTE
100
AcDbText
 10
222.7130223389667
 20
54.36006730338615
 30
0.0
 40
2.5
  1

  7
ISOCP
100
AcDbAttribute
  2
ÄND.
 70
     0
  0
ATTRIB
  5
257B
330
253E
100
AcDbEntity
  8
TEXTE
100
AcDbText
 10
235.8684483309119
 20
54.26907098052595
 30
0.0
 40
2.5
  1

  7
ISOCP
 72
     5
 11
241.7434483309119
 21
54.26907098052595
 31
0.0
100
AcDbAttribute
  2
DAT
 70
     0
  0
ATTRIB
  5
257C
330
253E
100
AcDbEntity
  8
TEXTE
100
AcDbText
 10
248.4501424002896
 20
54.26907098052595
 30
0.0
 40
2.5
  1

  7
ISOCP
100
AcDbAttribute
  2
NAME
 70
     0
  0
ATTRIB
  5
257D
330
253E
100
AcDbEntity
  8
TEXTE
100
AcDbText
 10
214.5687277876589
 20
58.61006730338607
 30
0.0
 40
2.5
  1

  7
ISOCP
100
AcDbAttribute
  2
ZUST.
 70
     0
  0
ATTRIB
  5
257E
330
253E
100
AcDbEntity
  8
TEXTE
100
AcDbText
 10
222.7130223389667
 20
58.61006730338607
 30
0.0
 40
2.5
  1

  7
ISOCP
100
AcDbAttribute
  2
ÄND.
 70
     0
  0
ATTRIB
  5
257F
330
253E
100
AcDbEntity
  8
TEXTE
100
AcDbText
 10
235.8684483309119
 20
58.51907098052596
 30
0.0
 40
2.5
  1

  7
ISOCP
 72
     5
 11
241.7434483309119
 21
58.51907098052596
 31
0.0
100
AcDbAttribute
  2
DAT
 70
     0
  0
ATTRIB
  5
2580
330
253E
100
AcDbEntity
  8
TEXTE
100
AcDbText
 10
248.4501424002896
 20
58.51907098052596
 30
0.0
 40
2.5
  1

  7
ISOCP
100
AcDbAttribute
  2
NAME
 70
     0
  0
SEQEND
  5
2581
330
253E
100
AcDbEntity
  8
OBJEKT
  0
INSERT
  5
2582
330
23BE
100
AcDbEntity
  8
TEXTE
100
AcDbBlockReference
 66
     1
  2
Allgemeintoleranzen1
 10
259.0112441386464
 20
44.79139097205045
 30
0.0
  0
ATTRIB
  5
2583
330
2582
100
AcDbEntity
  8
TEXTE
100
AcDbText
 10
268.7509900065496
 20
49.69733562007803
 30
0.0
 40
2.5
  1
ISO 2768-xxx
  7
ISOCP
100
AcDbAttribute
  2
ALGEMEINT.
 70
     0
  0
SEQEND
  5
2584
330
2582
100
AcDbEntity
  8
TEXTE
  0
INSERT
  5
2585
330
23BE
100
AcDbEntity
  8
TEXTE
100
AcDbBlockReference
  2
oberfläche_nach_1302
 10
303.2112441386464
 20
61.79139097205041
 30
0.0
  0
LWPOLYLINE
  5
2760
102
{ACAD_REACTORS
330
2762
102
}
330
23BE
100
AcDbEntity
  8
Ansichtsfenster
100
AcDbPolyline
 90
        6
 70
     1
 43
0.0
 10
12.61124413864638
 20
281.5413909720504
 10
400.6112441386464
 20
281.5413909720504
 10
400.6112441386464
 20
76.79139097205041
 10
213.4112441386464
 20
76.79139097205041
 10
213.4112441386464
 20
4.541390972050463
 10
12.61124413864638
 20
4.541390972050407
  0
VIEWPORT
  5
2762
330
23BE
100
AcDbEntity
  8
Ansichtsfenster
100
AcDbViewport
 10
206.6112441386464
 20
143.0413909720504
 30
0.0
 40
388.0
 41
277.0
 69
     0
 12
84.31363142743597
 22
-46.92652892886918
 13
0.0
 23
0.0
 14
10.0
 24
10.0
 15
10.0
 25
10.0
 16
0.0
 26
0.0
 36
1.0
 17
0.0
 27
0.0
 37
0.0
 42
50.0
 43
0.0
 44
0.0
 45
277.0000008012112
 50
0.0
 51
0.0
 72
   100
 90
    98304
340
2760
  1

281
     0
 71
     1
 74
     0
110
0.0
120
0.0
130
0.0
111
1.0
121
0.0
131
0.0
112
0.0
122
1.0
132
0.0
 79
     0
146
0.0
170
     0
  0
INSERT
  5
290E
330
23BE
100
AcDbEntity
  8
OBJEKT
100
AcDbBlockReference
 66
     1
  2
Werkstückkanten
 10
303.2112441386464
 20
44.79139097205041
 30
0.0
  0
ATTRIB
  5
290F
330
290E
100
AcDbEntity
  8
SCHRAFUR
100
AcDbText
 10
332.4816558896873
 20
51.78603237908411
 30
0.0
 40
2.0
  1
+1
  7
ISOCP
100
AcDbAttribute
  2
+1
 70
     0
  0
ATTRIB
  5
2910
330
290E
100
AcDbEntity
  8
SCHRAFUR
100
AcDbText
 10
332.4816558896873
 20
55.11103861847637
 30
0.0
 40
2.0
  1
+0,3
  7
ISOCP
100
AcDbAttribute
  2
+0,3
 70
     0
  0
ATTRIB
  5
2911
330
290E
100
AcDbEntity
  8
SCHRAFUR
100
AcDbText
 10
312.9980083103733
 20
55.11103861847632
 30
0.0
 40
2.0
  1
-0,3
  7
ISOCP
100
AcDbAttribute
  2
-0,3
 70
     0
  0
ATTRIB
  5
2912
330
290E
100
AcDbEntity
  8
SCHRAFUR
100
AcDbText
 10
312.9980083103733
 20
51.78603237908411
 30
0.0
 40
2.0
  1
-1
  7
ISOCP
100
AcDbAttribute
  2
-1
 70
     0
  0
SEQEND
  5
2913
330
290E
100
AcDbEntity
  8
OBJEKT
  0
ENDBLK
  5
23C1
330
23BE
100
AcDbEntity
  8
0
100
AcDbBlockEnd
  0
BLOCK
  5
23BC
330
23BA
100
AcDbEntity
  8
0
100
AcDbBlockBegin
  2
*Paper_Space9
 70
     0
 10
0.0
 20
0.0
 30
0.0
  3
*Paper_Space9
  1

  0
VIEWPORT
  5
23C5
330
23BA
100
AcDbEntity
  8
0
100
AcDbViewport
 10
156.1831739712981
 20
143.412635573135
 30
0.0
 40
584.1921936070438
 41
314.1924854736328
 69
     0
 12
156.1831739712981
 22
143.412635573135
 13
0.0
 23
0.0
 14
10.0
 24
10.0
 15
10.0
 25
10.0
 16
0.0
 26
0.0
 36
1.0
 17
0.0
 27
0.0
 37
0.0
 42
50.0
 43
0.0
 44
0.0
 45
314.1924854736328
 50
0.0
 51
0.0
 72
   100
331
2499
 90
    32800
  1

281
     0
 71
     1
 74
     0
110
0.0
120
0.0
130
0.0
111
1.0
121
0.0
131
0.0
112
0.0
122
1.0
132
0.0
 79
     0
146
0.0
170
     0
  0
INSERT
  5
244F
330
23BA
100
AcDbEntity
  8
OBJEKT
100
AcDbBlockReference
 66
     1
  2
schriftfeld-31.01.02
 10
190.6638876212385
 20
4.828902423817311
 30
0.0
  0
ATTRIB
  5
2450
330
244F
100
AcDbEntity
  8
TEXTE
 62
     6
370
    35
100
AcDbText
 10
147.5598618215799
 20
32.24737400624221
 30
0.0
 40
3.5
  1
.
  7
ISOCP
 72
     1
 11
148.0848618215799
 21
32.24737400624221
 31
0.0
100
AcDbAttribute
  2
BENENNUNG
 70
     0
  0
ATTRIB
  5
2451
330
244F
100
AcDbEntity
  8
TEXTE
100
AcDbText
 10
108.7759543473037
 20
21.3542735084587
 30
0.0
 40
3.5
  1
4
  7
ISOCP
100
AcDbAttribute
  2
A?
 70
     0
  0
ATTRIB
  5
2452
330
244F
100
AcDbEntity
  8
TEXTE
 62
     6
370
    35
100
AcDbText
 10
145.9699696587176
 20
21.44202254372883
 30
0.0
 40
3.5
  1
.
  7
ISOCP
 72
     1
 11
146.4949696587177
 21
21.44202254372883
 31
0.0
100
AcDbAttribute
  2
ZNR
 70
     0
  0
ATTRIB
  5
2453
330
244F
100
AcDbEntity
  8
TEXTE
100
AcDbText
 10
104.9516439808753
 20
13.9657107201177
 30
0.0
 40
3.5
  1
                     
 41
2.915382436747048
  7
ISOCP
 72
     5
 11
190.6638876212385
 21
13.9657107201177
 31
0.0
100
AcDbAttribute
  2
KL.NR.
 70
     0
  0
ATTRIB
  5
2454
330
244F
100
AcDbEntity
  8
TEXTE
100
AcDbText
 10
60.62137127025096
 20
22.89757875515304
 30
0.0
 40
2.5
  1
.
  7
ISOCP
100
AcDbAttribute
  2
CADDAT
 70
     0
  0
ATTRIB
  5
2455
330
244F
100
AcDbEntity
  8
TEXTE
100
AcDbText
 10
76.17188888466649
 20
22.89757875515304
 30
0.0
 40
2.5
  1
.
  7
ISOCP
100
AcDbAttribute
  2
BEARBNAME
 70
     0
  0
ATTRIB
  5
2456
330
244F
100
AcDbEntity
  8
TEXTE
100
AcDbText
 10
60.62137127025104
 20
35.64757875515303
 30
0.0
 40
2.5
  1
.
  7
ISOCP
100
AcDbAttribute
  2
BEARBDAT
 70
     0
  0
ATTRIB
  5
2457
330
244F
100
AcDbEntity
  8
TEXTE
100
AcDbText
 10
76.17188888466649
 20
35.64757875515303
 30
0.0
 40
2.5
  1
.
  7
ISOCP
100
AcDbAttribute
  2
BEARBNAME
 70
     0
  0
ATTRIB
  5
2458
330
244F
100
AcDbEntity
  8
TEXTE
100
AcDbText
 10
60.62137127025104
 20
31.39757875515304
 30
0.0
 40
2.5
  1
 
  7
ISOCP
100
AcDbAttribute
  2
GEPR-DAT
 70
     0
  0
ATTRIB
  5
2459
330
244F
100
AcDbEntity
  8
TEXTE
100
AcDbText
 10
76.17188888466649
 20
31.39757875515304
 30
0.0
 40
2.5
  1

  7
ISOCP
100
AcDbAttribute
  2
GEPÜNAME
 70
     0
  0
ATTRIB
  5
245A
330
244F
100
AcDbEntity
  8
TEXTE
100
AcDbText
 10
60.62137127025096
 20
27.14757875515303
 30
0.0
 40
2.5
  1

  7
ISOCP
100
AcDbAttribute
  2
NORMBDAT
 70
     0
  0
ATTRIB
  5
245B
330
244F
100
AcDbEntity
  8
TEXTE
100
AcDbText
 10
76.17188888466649
 20
27.14757875515303
 30
0.0
 40
2.5
  1
 
  7
ISOCP
100
AcDbAttribute
  2
BEARBNAME
 70
     0
  0
ATTRIB
  5
245C
330
244F
100
AcDbEntity
  8
TEXTE
100
AcDbText
 10
83.82844021482453
 20
69.64757875515298
 30
0.0
 40
2.5
  1
.
  7
ISOCP
 72
     1
 11
84.20344021482454
 21
69.64757875515298
 31
0.0
100
AcDbAttribute
  2
MAßSTAB1
 70
     0
  0
ATTRIB
  5
245D
330
244F
100
AcDbEntity
  8
TEXTE
100
AcDbText
 10
84.04387586720035
 20
65.39757875515298
 30
0.0
 40
2.5
  1
 
  7
ISOCP
 72
     1
 11
84.54387586720036
 21
65.39757875515298
 31
0.0
100
AcDbAttribute
  2
MAßSTAB2
 70
     0
  0
ATTRIB
  5
245E
330
244F
100
AcDbEntity
  8
TEXTE
100
AcDbText
 10
84.04387586720035
 20
61.14757875515298
 30
0.0
 40
2.5
  1
 
  7
ISOCP
 72
     1
 11
84.54387586720036
 21
61.14757875515298
 31
0.0
100
AcDbAttribute
  2
MAßSTAB3
 70
     0
  0
ATTRIB
  5
245F
330
244F
100
AcDbEntity
  8
TEXTE
100
AcDbText
 10
60.62137127025107
 20
5.897578755153032
 30
0.0
 40
2.5
  1
.
  7
ISOCP
100
AcDbAttribute
  2
URSPRUNG
 70
     0
  0
ATTRIB
  5
2460
330
244F
100
AcDbEntity
  8
TEXTE
100
AcDbText
 10
104.821371270251
 20
5.897578755153032
 30
0.0
 40
2.5
  1
.
  7
ISOCP
100
AcDbAttribute
  2
ERSETZTFÜR
 70
     0
  0
ATTRIB
  5
2461
330
244F
100
AcDbEntity
  8
TEXTE
100
AcDbText
 10
153.521371270251
 20
5.897578755152977
 30
0.0
 40
2.5
  1
.
  7
ISOCP
100
AcDbAttribute
  2
ERSTELLTFÜR
 70
     0
  0
ATTRIB
  5
2462
330
244F
100
AcDbEntity
  8
TEXTE
100
AcDbText
 10
4.621371270251017
 20
10.14757875515303
 30
0.0
 40
2.5
  1
 
  7
ISOCP
100
AcDbAttribute
  2
ZUST.
 70
     0
  0
ATTRIB
  5
2463
330
244F
100
AcDbEntity
  8
TEXTE
100
AcDbText
 10
12.76566582155874
 20
10.14757875515303
 30
0.0
 40
2.5
  1
 
  7
ISOCP
100
AcDbAttribute
  2
ÄND.
 70
     0
  0
ATTRIB
  5
2464
330
244F
100
AcDbEntity
  8
TEXTE
100
AcDbText
 10
25.92109181350402
 20
10.05658243229285
 30
0.0
 40
2.5
  1
 
 41
5.874999999999992
  7
ISOCP
 72
     5
 11
31.79609181350401
 21
10.05658243229285
 31
0.0
100
AcDbAttribute
  2
DAT
 70
     0
  0
ATTRIB
  5
2465
330
244F
100
AcDbEntity
  8
TEXTE
100
AcDbText
 10
38.50278588288171
 20
10.05658243229285
 30
0.0
 40
2.5
  1
 
  7
ISOCP
100
AcDbAttribute
  2
NAME
 70
     0
  0
ATTRIB
  5
2466
330
244F
100
AcDbEntity
  8
TEXTE
100
AcDbText
 10
4.621371270251017
 20
14.39757875515303
 30
0.0
 40
2.5
  1
 
  7
ISOCP
100
AcDbAttribute
  2
ZUST.
 70
     0
  0
ATTRIB
  5
2467
330
244F
100
AcDbEntity
  8
TEXTE
100
AcDbText
 10
12.76566582155874
 20
14.39757875515303
 30
0.0
 40
2.5
  1
 
  7
ISOCP
100
AcDbAttribute
  2
ÄND.
 70
     0
  0
ATTRIB
  5
2468
330
244F
100
AcDbEntity
  8
TEXTE
100
AcDbText
 10
25.92109181350402
 20
14.30658243229285
 30
0.0
 40
2.5
  1
 
 41
5.874999999999992
  7
ISOCP
 72
     5
 11
31.79609181350401
 21
14.30658243229285
 31
0.0
100
AcDbAttribute
  2
DAT
 70
     0
  0
ATTRIB
  5
2469
330
244F
100
AcDbEntity
  8
TEXTE
100
AcDbText
 10
38.50278588288171
 20
14.30658243229285
 30
0.0
 40
2.5
  1
 
  7
ISOCP
100
AcDbAttribute
  2
NAME
 70
     0
  0
ATTRIB
  5
246A
330
244F
100
AcDbEntity
  8
TEXTE
100
AcDbText
 10
4.621371270251017
 20
18.64757875515303
 30
0.0
 40
2.5
  1
 
  7
ISOCP
100
AcDbAttribute
  2
ZUST.
 70
     0
  0
ATTRIB
  5
246B
330
244F
100
AcDbEntity
  8
TEXTE
100
AcDbText
 10
12.76566582155874
 20
18.64757875515303
 30
0.0
 40
2.5
  1
 
  7
ISOCP
100
AcDbAttribute
  2
ÄND.
 70
     0
  0
ATTRIB
  5
246C
330
244F
100
AcDbEntity
  8
TEXTE
100
AcDbText
 10
25.92109181350402
 20
18.55658243229285
 30
0.0
 40
2.5
  1
 
 41
5.874999999999992
  7
ISOCP
 72
     5
 11
31.79609181350401
 21
18.55658243229285
 31
0.0
100
AcDbAttribute
  2
DAT
 70
     0
  0
ATTRIB
  5
246D
330
244F
100
AcDbEntity
  8
TEXTE
100
AcDbText
 10
38.50278588288171
 20
18.55658243229285
 30
0.0
 40
2.5
  1
 
  7
ISOCP
100
AcDbAttribute
  2
NAME
 70
     0
  0
ATTRIB
  5
246E
330
244F
100
AcDbEntity
  8
TEXTE
100
AcDbText
 10
4.621371270251017
 20
22.89757875515304
 30
0.0
 40
2.5
  1
 
  7
ISOCP
100
AcDbAttribute
  2
ZUST.
 70
     0
  0
ATTRIB
  5
246F
330
244F
100
AcDbEntity
  8
TEXTE
100
AcDbText
 10
12.76566582155874
 20
22.89757875515304
 30
0.0
 40
2.5
  1
 
  7
ISOCP
100
AcDbAttribute
  2
ÄND.
 70
     0
  0
ATTRIB
  5
2470
330
244F
100
AcDbEntity
  8
TEXTE
100
AcDbText
 10
25.92109181350402
 20
22.80658243229286
 30
0.0
 40
2.5
  1
 
 41
5.874999999999992
  7
ISOCP
 72
     5
 11
31.79609181350401
 21
22.80658243229286
 31
0.0
100
AcDbAttribute
  2
DAT
 70
     0
  0
ATTRIB
  5
2471
330
244F
100
AcDbEntity
  8
TEXTE
100
AcDbText
 10
38.50278588288171
 20
22.80658243229286
 30
0.0
 40
2.5
  1

  7
ISOCP
100
AcDbAttribute
  2
NAME
 70
     0
  0
ATTRIB
  5
2472
330
244F
100
AcDbEntity
  8
TEXTE
100
AcDbText
 10
4.621371270251017
 20
27.14757875515303
 30
0.0
 40
2.5
  1

  7
ISOCP
100
AcDbAttribute
  2
ZUST.
 70
     0
  0
ATTRIB
  5
2473
330
244F
100
AcDbEntity
  8
TEXTE
100
AcDbText
 10
12.76566582155874
 20
27.14757875515303
 30
0.0
 40
2.5
  1

  7
ISOCP
100
AcDbAttribute
  2
ÄND.
 70
     0
  0
ATTRIB
  5
2474
330
244F
100
AcDbEntity
  8
TEXTE
100
AcDbText
 10
25.92109181350402
 20
27.05658243229286
 30
0.0
 40
2.5
  1

  7
ISOCP
 72
     5
 11
31.79609181350401
 21
27.05658243229286
 31
0.0
100
AcDbAttribute
  2
DAT
 70
     0
  0
ATTRIB
  5
2475
330
244F
100
AcDbEntity
  8
TEXTE
100
AcDbText
 10
38.50278588288171
 20
27.05658243229286
 30
0.0
 40
2.5
  1

  7
ISOCP
100
AcDbAttribute
  2
NAME
 70
     0
  0
ATTRIB
  5
2476
330
244F
100
AcDbEntity
  8
TEXTE
100
AcDbText
 10
4.621371270251017
 20
31.39757875515304
 30
0.0
 40
2.5
  1

  7
ISOCP
100
AcDbAttribute
  2
ZUST.
 70
     0
  0
ATTRIB
  5
2477
330
244F
100
AcDbEntity
  8
TEXTE
100
AcDbText
 10
12.76566582155874
 20
31.39757875515304
 30
0.0
 40
2.5
  1

  7
ISOCP
100
AcDbAttribute
  2
ÄND.
 70
     0
  0
ATTRIB
  5
2478
330
244F
100
AcDbEntity
  8
TEXTE
100
AcDbText
 10
25.92109181350402
 20
31.30658243229286
 30
0.0
 40
2.5
  1

  7
ISOCP
 72
     5
 11
31.79609181350401
 21
31.30658243229286
 31
0.0
100
AcDbAttribute
  2
DAT
 70
     0
  0
ATTRIB
  5
2479
330
244F
100
AcDbEntity
  8
TEXTE
100
AcDbText
 10
38.50278588288171
 20
31.30658243229286
 30
0.0
 40
2.5
  1

  7
ISOCP
100
AcDbAttribute
  2
NAME
 70
     0
  0
ATTRIB
  5
247A
330
244F
100
AcDbEntity
  8
TEXTE
100
AcDbText
 10
4.621371270251017
 20
35.64757875515303
 30
0.0
 40
2.5
  1

  7
ISOCP
100
AcDbAttribute
  2
ZUST.
 70
     0
  0
ATTRIB
  5
247B
330
244F
100
AcDbEntity
  8
TEXTE
100
AcDbText
 10
12.76566582155874
 20
35.64757875515303
 30
0.0
 40
2.5
  1

  7
ISOCP
100
AcDbAttribute
  2
ÄND.
 70
     0
  0
ATTRIB
  5
247C
330
244F
100
AcDbEntity
  8
TEXTE
100
AcDbText
 10
25.92109181350402
 20
35.55658243229286
 30
0.0
 40
2.5
  1

  7
ISOCP
 72
     5
 11
31.79609181350401
 21
35.55658243229286
 31
0.0
100
AcDbAttribute
  2
DAT
 70
     0
  0
ATTRIB
  5
247D
330
244F
100
AcDbEntity
  8
TEXTE
100
AcDbText
 10
38.50278588288171
 20
35.55658243229286
 30
0.0
 40
2.5
  1

  7
ISOCP
100
AcDbAttribute
  2
NAME
 70
     0
  0
ATTRIB
  5
247E
330
244F
100
AcDbEntity
  8
TEXTE
100
AcDbText
 10
4.621371270251017
 20
39.89757875515304
 30
0.0
 40
2.5
  1

  7
ISOCP
100
AcDbAttribute
  2
ZUST.
 70
     0
  0
ATTRIB
  5
247F
330
244F
100
AcDbEntity
  8
TEXTE
100
AcDbText
 10
12.76566582155874
 20
39.89757875515304
 30
0.0
 40
2.5
  1

  7
ISOCP
100
AcDbAttribute
  2
ÄND.
 70
     0
  0
ATTRIB
  5
2480
330
244F
100
AcDbEntity
  8
TEXTE
100
AcDbText
 10
25.92109181350406
 20
39.80658243229285
 30
0.0
 40
2.5
  1

  7
ISOCP
 72
     5
 11
31.79609181350406
 21
39.80658243229285
 31
0.0
100
AcDbAttribute
  2
DAT
 70
     0
  0
ATTRIB
  5
2481
330
244F
100
AcDbEntity
  8
TEXTE
100
AcDbText
 10
38.50278588288171
 20
39.80658243229285
 30
0.0
 40
2.5
  1

  7
ISOCP
100
AcDbAttribute
  2
NAME
 70
     0
  0
ATTRIB
  5
2482
330
244F
100
AcDbEntity
  8
TEXTE
100
AcDbText
 10
4.621371270251017
 20
44.14757875515302
 30
0.0
 40
2.5
  1

  7
ISOCP
100
AcDbAttribute
  2
ZUST.
 70
     0
  0
ATTRIB
  5
2483
330
244F
100
AcDbEntity
  8
TEXTE
100
AcDbText
 10
12.76566582155874
 20
44.14757875515302
 30
0.0
 40
2.5
  1

  7
ISOCP
100
AcDbAttribute
  2
ÄND.
 70
     0
  0
ATTRIB
  5
2484
330
244F
100
AcDbEntity
  8
TEXTE
100
AcDbText
 10
25.92109181350406
 20
44.05658243229285
 30
0.0
 40
2.5
  1

  7
ISOCP
 72
     5
 11
31.79609181350406
 21
44.05658243229285
 31
0.0
100
AcDbAttribute
  2
DAT
 70
     0
  0
ATTRIB
  5
2485
330
244F
100
AcDbEntity
  8
TEXTE
100
AcDbText
 10
38.50278588288171
 20
44.05658243229285
 30
0.0
 40
2.5
  1

  7
ISOCP
100
AcDbAttribute
  2
NAME
 70
     0
  0
ATTRIB
  5
2486
330
244F
100
AcDbEntity
  8
TEXTE
100
AcDbText
 10
4.621371270251017
 20
48.39757875515303
 30
0.0
 40
2.5
  1

  7
ISOCP
100
AcDbAttribute
  2
ZUST.
 70
     0
  0
ATTRIB
  5
2487
330
244F
100
AcDbEntity
  8
TEXTE
100
AcDbText
 10
12.76566582155874
 20
48.39757875515303
 30
0.0
 40
2.5
  1

  7
ISOCP
100
AcDbAttribute
  2
ÄND.
 70
     0
  0
ATTRIB
  5
2488
330
244F
100
AcDbEntity
  8
TEXTE
100
AcDbText
 10
25.92109181350406
 20
48.30658243229287
 30
0.0
 40
2.5
  1

  7
ISOCP
 72
     5
 11
31.79609181350406
 21
48.30658243229287
 31
0.0
100
AcDbAttribute
  2
DAT
 70
     0
  0
ATTRIB
  5
2489
330
244F
100
AcDbEntity
  8
TEXTE
100
AcDbText
 10
38.50278588288171
 20
48.30658243229287
 30
0.0
 40
2.5
  1

  7
ISOCP
100
AcDbAttribute
  2
NAME
 70
     0
  0
ATTRIB
  5
248A
330
244F
100
AcDbEntity
  8
TEXTE
100
AcDbText
 10
4.621371270251017
 20
52.64757875515304
 30
0.0
 40
2.5
  1

  7
ISOCP
100
AcDbAttribute
  2
ZUST.
 70
     0
  0
ATTRIB
  5
248B
330
244F
100
AcDbEntity
  8
TEXTE
100
AcDbText
 10
12.76566582155874
 20
52.64757875515304
 30
0.0
 40
2.5
  1

  7
ISOCP
100
AcDbAttribute
  2
ÄND.
 70
     0
  0
ATTRIB
  5
248C
330
244F
100
AcDbEntity
  8
TEXTE
100
AcDbText
 10
25.92109181350402
 20
52.55658243229285
 30
0.0
 40
2.5
  1

  7
ISOCP
 72
     5
 11
31.79609181350401
 21
52.55658243229285
 31
0.0
100
AcDbAttribute
  2
DAT
 70
     0
  0
ATTRIB
  5
248D
330
244F
100
AcDbEntity
  8
TEXTE
100
AcDbText
 10
38.50278588288171
 20
52.55658243229285
 30
0.0
 40
2.5
  1

  7
ISOCP
100
AcDbAttribute
  2
NAME
 70
     0
  0
ATTRIB
  5
248E
330
244F
100
AcDbEntity
  8
TEXTE
100
AcDbText
 10
4.621371270251017
 20
56.89757875515297
 30
0.0
 40
2.5
  1

  7
ISOCP
100
AcDbAttribute
  2
ZUST.
 70
     0
  0
ATTRIB
  5
248F
330
244F
100
AcDbEntity
  8
TEXTE
100
AcDbText
 10
12.76566582155874
 20
56.89757875515297
 30
0.0
 40
2.5
  1

  7
ISOCP
100
AcDbAttribute
  2
ÄND.
 70
     0
  0
ATTRIB
  5
2490
330
244F
100
AcDbEntity
  8
TEXTE
100
AcDbText
 10
25.92109181350402
 20
56.80658243229284
 30
0.0
 40
2.5
  1

  7
ISOCP
 72
     5
 11
31.79609181350401
 21
56.80658243229284
 31
0.0
100
AcDbAttribute
  2
DAT
 70
     0
  0
ATTRIB
  5
2491
330
244F
100
AcDbEntity
  8
TEXTE
100
AcDbText
 10
38.50278588288171
 20
56.80658243229284
 30
0.0
 40
2.5
  1

  7
ISOCP
100
AcDbAttribute
  2
NAME
 70
     0
  0
SEQEND
  5
2492
330
244F
100
AcDbEntity
  8
OBJEKT
  0
LINE
  5
2493
330
23BA
100
AcDbEntity
  8
OBJEKT
100
AcDbLine
 10
190.6638876212385
 20
277.8289024238173
 30
0.0
 11
3.463887621238483
 21
277.8289024238173
 31
0.0
  0
LINE
  5
2494
330
23BA
100
AcDbEntity
  8
OBJEKT
100
AcDbLine
 10
190.6638876212385
 20
4.828902423817311
 30
0.0
 11
3.463887621238483
 21
4.828902423817311
 31
0.0
  0
VIEWPORT
  5
2495
330
23BA
100
AcDbEntity
  8
OBJEKT
100
AcDbViewport
 10
97.06388762123848
 20
141.3289024238173
 30
0.0
 40
187.2
 41
273.0
 69
     0
 12
6.842520586879571
 22
-58.18048176170073
 13
0.0
 23
0.0
 14
10.0
 24
10.0
 15
10.0
 25
10.0
 16
0.0
 26
0.0
 36
1.0
 17
0.0
 27
0.0
 37
0.0
 42
50.0
 43
0.0
 44
0.0
 45
272.9999999720488
 50
0.0
 51
0.0
 72
   100
 90
   163872
  1

281
     0
 71
     1
 74
     0
110
0.0
120
0.0
130
0.0
111
1.0
121
0.0
131
0.0
112
0.0
122
1.0
132
0.0
 79
     0
146
0.0
170
     0
  0
LINE
  5
2496
330
23BA
100
AcDbEntity
  8
OBJEKT
100
AcDbLine
 10
3.463887621238483
 20
4.828902423817311
 30
0.0
 11
3.463887621238483
 21
277.8289024238173
 31
0.0
  0
LINE
  5
2497
330
23BA
100
AcDbEntity
  8
OBJEKT
100
AcDbLine
 10
190.6638876212385
 20
4.828902423817311
 30
0.0
 11
190.6638876212385
 21
277.8289024238173
 31
0.0
  0
VIEWPORT
  5
249B
330
23BA
100
AcDbEntity
  8
Ansichtsfenster
100
AcDbViewport
 10
99.02509432975504
 20
177.0618970074393
 30
0.0
 40
187.2
 41
200.75
 69
     0
 12
4.039140845244896
 22
-10.42711190579047
 13
0.0
 23
0.0
 14
10.0
 24
10.0
 15
10.0
 25
10.0
 16
0.0
 26
0.0
 36
1.0
 17
0.0
 27
0.0
 37
0.0
 42
50.0
 43
0.0
 44
0.0
 45
200.7500010135625
 50
0.0
 51
0.0
 72
   100
 90
    32800
  1

281
     0
 71
     1
 74
     0
110
0.0
120
0.0
130
0.0
111
1.0
121
0.0
131
0.0
112
0.0
122
1.0
132
0.0
 79
     0
146
0.0
170
     0
  0
INSERT
  5
24AD
330
23BA
100
AcDbEntity
  8
TEXTE
100
AcDbBlockReference
  2
oberfläche_nach_1302
 10
93.26388762123848
 20
60.07890242381731
 30
0.0
  0
INSERT
  5
24B4
330
23BA
100
AcDbEntity
  8
TEXTE
100
AcDbBlockReference
 66
     1
  2
Allgemeintoleranzen1
 10
49.06388762123845
 20
43.07890242381737
 30
0.0
  0
ATTRIB
  5
24B5
330
24B4
100
AcDbEntity
  8
TEXTE
100
AcDbText
 10
58.80363348914165
 20
47.98484707184494
 30
0.0
 40
2.5
  1
ISO 2768-xxx
  7
ISOCP
100
AcDbAttribute
  2
ALGEMEINT.
 70
     0
  0
SEQEND
  5
24B6
330
24B4
100
AcDbEntity
  8
TEXTE
  0
INSERT
  5
2922
330
23BA
100
AcDbEntity
  8
OBJEKT
100
AcDbBlockReference
 66
     1
  2
Werkstückkanten
 10
93.09761547947257
 20
43.26534487227124
 30
0.0
  0
ATTRIB
  5
2923
330
2922
100
AcDbEntity
  8
SCHRAFUR
100
AcDbText
 10
122.3680272305134
 20
50.25998627930498
 30
0.0
 40
2.0
  1
+1
  7
ISOCP
100
AcDbAttribute
  2
+1
 70
     0
  0
ATTRIB
  5
2924
330
2922
100
AcDbEntity
  8
SCHRAFUR
100
AcDbText
 10
122.3680272305134
 20
53.58499251869718
 30
0.0
 40
2.0
  1
+0,3
  7
ISOCP
100
AcDbAttribute
  2
+0,3
 70
     0
  0
ATTRIB
  5
2925
330
2922
100
AcDbEntity
  8
SCHRAFUR
100
AcDbText
 10
102.8843796511994
 20
53.58499251869716
 30
0.0
 40
2.0
  1
-0,3
  7
ISOCP
100
AcDbAttribute
  2
-0,3
 70
     0
  0
ATTRIB
  5
2926
330
2922
100
AcDbEntity
  8
SCHRAFUR
100
AcDbText
 10
102.8843796511994
 20
50.25998627930493
 30
0.0
 40
2.0
  1
-1
  7
ISOCP
100
AcDbAttribute
  2
-1
 70
     0
  0
SEQEND
  5
2927
330
2922
100
AcDbEntity
  8
OBJEKT
  0
ENDBLK
  5
23BD
330
23BA
100
AcDbEntity
  8
0
100
AcDbBlockEnd
  0
BLOCK
  5
290C
330
28F8
100
AcDbEntity
  8
0
100
AcDbBlockBegin
  2
Werkstückkanten
 70
     2
 10
0.0
 20
0.0
 30
0.0
  3
Werkstückkanten
  1

  0
TEXT
  5
28F9
330
28F8
100
AcDbEntity
  8
SCHRAFUR
100
AcDbText
 10
1.005392984460284
 20
13.4646849353138
 30
0.0
 40
2.5
  1
Werkstückkanten DIN ISO 13715
  7
ISOCP
100
AcDbText
  0
ATTDEF
  5
28FA
330
28F8
100
AcDbEntity
  8
SCHRAFUR
100
AcDbText
 10
29.27041175104091
 20
6.99464140703371
 30
0.0
 40
2.0
  1
.
  7
ISOCP
100
AcDbAttributeDefinition
  3
Kanten+0,0
  2
+1
 70
     0
  0
ATTDEF
  5
28FB
330
28F8
100
AcDbEntity
  8
SCHRAFUR
100
AcDbText
 10
29.27041175104091
 20
10.31964764642593
 30
0.0
 40
2.0
  1
.
  7
ISOCP
100
AcDbAttributeDefinition
  3
Kanten+0,0
  2
+0,3
 70
     0
  0
LINE
  5
28FC
330
28F8
100
AcDbEntity
  8
5
100
AcDbLine
 10
28.23978911532419
 20
6.370514789151499
 30
0.0
 11
32.23978911532419
 21
6.370514789151499
 31
0.0
  0
LINE
  5
28FD
330
28F8
100
AcDbEntity
  8
5
100
AcDbLine
 10
27.88623572473091
 20
6.016961398558237
 30
0.0
 11
31.88623572473091
 21
6.016961398558237
 31
0.0
  0
ATTDEF
  5
28FE
330
28F8
100
AcDbEntity
  8
SCHRAFUR
100
AcDbText
 10
9.786764171726872
 20
10.31964764642592
 30
0.0
 40
2.0
  1
.
  7
ISOCP
100
AcDbAttributeDefinition
  3
Kanten-0,0
  2
-0,3
 70
     0
  0
LINE
  5
28FF
330
28F8
100
AcDbEntity
  8
OBJEKT
100
AcDbLine
 10
2.927714411264446
 20
3.042087664404903
 30
0.0
 11
5.427714411264445
 21
3.042087664404903
 31
0.0
  0
LINE
  5
2900
330
28F8
100
AcDbEntity
  8
OBJEKT
100
AcDbLine
 10
5.427714411264445
 20
3.042087664404903
 30
0.0
 11
5.427714411264445
 21
0.5420876644049031
 31
0.0
  0
ATTDEF
  5
2901
330
28F8
100
AcDbEntity
  8
SCHRAFUR
100
AcDbText
 10
9.786764171726872
 20
6.994641407033697
 30
0.0
 40
2.0
  1
.
  7
ISOCP
100
AcDbAttributeDefinition
  3
Kanten-0,0
  2
-1
 70
     0
  0
SOLID
  5
2902
330
28F8
100
AcDbEntity
  8
5
100
AcDbTrace
 10
8.315067101109548
 20
5.104482442865559
 30
0.0
 11
7.4901091897251
 21
5.929440354250004
 31
0.0
 12
5.427714411264445
 22
3.042087664404903
 32
0.0
 13
5.427714411264445
 23
3.042087664404903
 33
0.0
  0
LINE
  5
2903
330
28F8
100
AcDbEntity
  8
5
100
AcDbLine
 10
8.756141536010147
 20
6.370514789151499
 30
0.0
 11
12.75614153601015
 21
6.370514789151499
 31
0.0
  0
LINE
  5
2904
330
28F8
100
AcDbEntity
  8
5
100
AcDbLine
 10
8.756141536010147
 20
10.3705147891515
 30
0.0
 11
8.756141536010147
 21
6.370514789151499
 31
0.0
  0
LINE
  5
2905
330
28F8
100
AcDbEntity
  8
5
100
AcDbLine
 10
8.402588145416871
 20
6.016961398558237
 30
0.0
 11
6.683942159814818
 21
4.298315412956185
 31
0.0
  0
LINE
  5
2906
330
28F8
100
AcDbEntity
  8
5
100
AcDbLine
 10
8.402588145416871
 20
6.016961398558223
 30
0.0
 11
12.40258814541687
 21
6.016961398558223
 31
0.0
  0
LINE
  5
2907
330
28F8
100
AcDbEntity
  8
OBJEKT
100
AcDbLine
 10
22.41136199057848
 20
0.5420876644049031
 30
0.0
 11
22.41136199057848
 21
3.042087664404903
 31
0.0
  0
SOLID
  5
2908
330
28F8
100
AcDbEntity
  8
5
100
AcDbTrace
 10
25.29871468042359
 20
2.60448244286556
 30
0.0
 11
24.47375676903914
 21
3.429440354250003
 31
0.0
 12
22.41136199057848
 22
0.5420876644049031
 32
0.0
 13
22.41136199057848
 23
0.5420876644049031
 33
0.0
  0
LINE
  5
2909
330
28F8
100
AcDbEntity
  8
5
100
AcDbLine
 10
27.88623572473091
 20
6.016961398558237
 30
0.0
 11
23.66758973912886
 21
1.798315412956185
 31
0.0
  0
LINE
  5
290A
330
28F8
100
AcDbEntity
  8
5
100
AcDbLine
 10
28.23978911532419
 20
10.3705147891515
 30
0.0
 11
28.23978911532419
 21
6.370514789151499
 31
0.0
  0
LINE
  5
290B
330
28F8
100
AcDbEntity
  8
OBJEKT
100
AcDbLine
 10
24.91136199057848
 20
0.5420876644049031
 30
0.0
 11
22.41136199057848
 21
0.5420876644049031
 31
0.0
  0
ENDBLK
  5
290D
330
28F8
100
AcDbEntity
  8
0
100
AcDbBlockEnd
  0
BLOCK
  5
318E
330
3184
100
AcDbEntity
  8
0
100
AcDbBlockBegin
  2
*D11
 70
     1
 10
0.0
 20
0.0
 30
0.0
  3
*D11
  1

  0
LINE
  5
8142
330
3184
100
AcDbEntity
  8
5
370
    13
100
AcDbLine
 10
335.5535744776554
 20
109.9931689995495
 30
0.0
 11
371.6307880966406
 21
109.9931689995495
 31
0.0
  0
LINE
  5
8143
330
3184
100
AcDbEntity
  8
5
370
    13
100
AcDbLine
 10
335.5535744776554
 20
167.9931659995495
 30
0.0
 11
371.6307880966406
 21
167.9931659995495
 31
0.0
  0
LINE
  5
8144
330
3184
100
AcDbEntity
  8
5
370
    13
100
AcDbLine
 10
366.5907880966405
 20
119.7931689995495
 30
0.0
 11
366.5907880966406
 21
158.1931659995495
 31
0.0
  0
SOLID
  5
8145
330
3184
100
AcDbEntity
  8
5
100
AcDbTrace
 10
364.9574547633072
 20
119.7931689995495
 30
0.0
 11
368.224121429974
 21
119.7931689995495
 31
0.0
 12
366.5907880966405
 22
109.9931689995495
 32
0.0
 13
366.5907880966405
 23
109.9931689995495
 33
0.0
  0
SOLID
  5
8146
330
3184
100
AcDbEntity
  8
5
100
AcDbTrace
 10
364.9574547633073
 20
158.1931659995495
 30
0.0
 11
368.224121429974
 21
158.1931659995495
 31
0.0
 12
366.5907880966406
 22
167.9931659995495
 32
0.0
 13
366.5907880966406
 23
167.9931659995495
 33
0.0
  0
MTEXT
  5
8147
330
3184
100
AcDbEntity
  8
5
 62
     6
100
AcDbMText
 10
356.7907880966405
 20
138.9931674995495
 30
0.0
 40
9.799999999999997
 41
0.0
 71
     5
 72
     1
  1
\A1;d
  7
ROMANS
 11
0.0000000000000001
 21
1.0
 31
0.0
 73
     1
 44
1.0
  0
POINT
  5
8148
330
3184
100
AcDbEntity
  8
DEFPOINTS
 62
     0
100
AcDbPoint
 10
335.2735744776554
 20
109.9931689995495
 30
0.0
  0
POINT
  5
8149
330
3184
100
AcDbEntity
  8
DEFPOINTS
 62
     0
100
AcDbPoint
 10
335.2735744776554
 20
167.9931659995495
 30
0.0
  0
POINT
  5
814A
330
3184
100
AcDbEntity
  8
DEFPOINTS
 62
     0
100
AcDbPoint
 10
366.5907880966406
 20
167.9931659995495
 30
0.0
  0
ENDBLK
  5
318F
330
3184
100
AcDbEntity
  8
0
100
AcDbBlockEnd
  0
BLOCK
  5
319A
330
3190
100
AcDbEntity
  8
0
100
AcDbBlockBegin
  2
*D12
 70
     1
 10
0.0
 20
0.0
 30
0.0
  3
*D12
  1

  0
LINE
  5
8139
330
3190
100
AcDbEntity
  8
5
370
    13
100
AcDbLine
 10
276.855559185357
 20
212.9931659995496
 30
0.0
 11
401.2842119696227
 21
212.9931659995495
 31
0.0
  0
LINE
  5
813A
330
3190
100
AcDbEntity
  8
5
370
    13
100
AcDbLine
 10
276.855559185357
 20
64.99316899954954
 30
0.0
 11
401.2842119696227
 21
64.99316899954949
 31
0.0
  0
LINE
  5
813B
330
3190
100
AcDbEntity
  8
5
370
    13
100
AcDbLine
 10
396.2442119696227
 20
203.1931659995495
 30
0.0
 11
396.2442119696227
 21
74.79316899954948
 31
0.0
  0
SOLID
  5
813C
330
3190
100
AcDbEntity
  8
5
100
AcDbTrace
 10
394.6108786362894
 20
203.1931659995495
 30
0.0
 11
397.877545302956
 21
203.1931659995495
 31
0.0
 12
396.2442119696227
 22
212.9931659995495
 32
0.0
 13
396.2442119696227
 23
212.9931659995495
 33
0.0
  0
SOLID
  5
813D
330
3190
100
AcDbEntity
  8
5
100
AcDbTrace
 10
394.6108786362893
 20
74.79316899954948
 30
0.0
 11
397.877545302956
 21
74.79316899954948
 31
0.0
 12
396.2442119696227
 22
64.99316899954949
 32
0.0
 13
396.2442119696227
 23
64.99316899954949
 33
0.0
  0
MTEXT
  5
813E
330
3190
100
AcDbEntity
  8
5
 62
     6
100
AcDbMText
 10
386.4442119696226
 20
138.9931674995495
 30
0.0
 40
9.799999999999997
 41
0.0
 71
     5
 72
     1
  1
\A1;D1
  7
ROMANS
 11
0.0000000000000001
 21
1.0
 31
0.0
 73
     1
 44
1.0
  0
POINT
  5
813F
330
3190
100
AcDbEntity
  8
DEFPOINTS
 62
     0
100
AcDbPoint
 10
276.5755591853571
 20
212.9931659995496
 30
0.0
  0
POINT
  5
8140
330
3190
100
AcDbEntity
  8
DEFPOINTS
 62
     0
100
AcDbPoint
 10
276.5755591853571
 20
64.99316899954954
 30
0.0
  0
POINT
  5
8141
330
3190
100
AcDbEntity
  8
DEFPOINTS
 62
     0
100
AcDbPoint
 10
396.2442119696227
 20
64.99316899954949
 30
0.0
  0
ENDBLK
  5
319B
330
3190
100
AcDbEntity
  8
0
100
AcDbBlockEnd
  0
BLOCK
  5
31B2
330
31A8
100
AcDbEntity
  8
0
100
AcDbBlockBegin
  2
*D13
 70
     1
 10
0.0
 20
0.0
 30
0.0
  3
*D13
  1

  0
LINE
  5
810C
330
31A8
100
AcDbEntity
  8
5
370
    13
100
AcDbLine
 10
276.5755591853571
 20
-169.7868310004504
 30
0.0
 11
276.5755591853571
 21
-201.7846730797349
 31
0.0
  0
LINE
  5
810D
330
31A8
100
AcDbEntity
  8
5
370
    13
100
AcDbLine
 10
126.5755591853571
 20
-169.7868310004504
 30
0.0
 11
126.5755591853571
 21
-201.7846730797349
 31
0.0
  0
LINE
  5
810E
330
31A8
100
AcDbEntity
  8
5
370
    13
100
AcDbLine
 10
266.7755591853571
 20
-196.7446730797349
 30
0.0
 11
136.3755591853571
 21
-196.7446730797349
 31
0.0
  0
SOLID
  5
810F
330
31A8
100
AcDbEntity
  8
5
100
AcDbTrace
 10
266.7755591853571
 20
-195.1113397464016
 30
0.0
 11
266.7755591853571
 21
-198.3780064130682
 31
0.0
 12
276.5755591853571
 22
-196.7446730797349
 32
0.0
 13
276.5755591853571
 23
-196.7446730797349
 33
0.0
  0
SOLID
  5
8110
330
31A8
100
AcDbEntity
  8
5
100
AcDbTrace
 10
136.3755591853571
 20
-195.1113397464016
 30
0.0
 11
136.3755591853571
 21
-198.3780064130682
 31
0.0
 12
126.5755591853571
 22
-196.7446730797349
 32
0.0
 13
126.5755591853571
 23
-196.7446730797349
 33
0.0
  0
MTEXT
  5
8111
330
31A8
100
AcDbEntity
  8
5
 62
     6
100
AcDbMText
 10
201.5755591853571
 20
-186.9446730797349
 30
0.0
 40
9.799999999999997
 41
0.0
 71
     5
 72
     1
  1
\A1;L1
  7
ROMANS
 73
     1
 44
1.0
  0
POINT
  5
8112
330
31A8
100
AcDbEntity
  8
DEFPOINTS
 62
     0
100
AcDbPoint
 10
276.5755591853571
 20
-169.5068310004504
 30
0.0
  0
POINT
  5
8113
330
31A8
100
AcDbEntity
  8
DEFPOINTS
 62
     0
100
AcDbPoint
 10
126.5755591853571
 20
-169.5068310004504
 30
0.0
  0
POINT
  5
8114
330
31A8
100
AcDbEntity
  8
DEFPOINTS
 62
     0
100
AcDbPoint
 10
126.5755591853571
 20
-196.7446730797349
 30
0.0
  0
ENDBLK
  5
31B3
330
31A8
100
AcDbEntity
  8
0
100
AcDbBlockEnd
  0
BLOCK
  5
7DE8
330
7DDE
100
AcDbEntity
  8
0
100
AcDbBlockBegin
  2
*D14
 70
     1
 10
0.0
 20
0.0
 30
0.0
  3
*D14
  1

  0
LINE
  5
8130
330
7DDE
100
AcDbEntity
  8
5
370
    13
100
AcDbLine
 10
276.855559185357
 20
393.9931674995494
 30
0.0
 11
430.4845664528832
 21
393.9931674995493
 31
0.0
  0
LINE
  5
8131
330
7DDE
100
AcDbEntity
  8
5
370
    13
100
AcDbLine
 10
276.855559185357
 20
-116.0068325004503
 30
0.0
 11
430.4845664528831
 21
-116.0068325004503
 31
0.0
  0
LINE
  5
8132
330
7DDE
100
AcDbEntity
  8
5
370
    13
100
AcDbLine
 10
425.4445664528831
 20
384.1931674995493
 30
0.0
 11
425.4445664528828
 21
-106.2068325004503
 31
0.0
  0
SOLID
  5
8133
330
7DDE
100
AcDbEntity
  8
5
100
AcDbTrace
 10
423.8112331195497
 20
384.1931674995493
 30
0.0
 11
427.0778997862165
 21
384.1931674995493
 31
0.0
 12
425.4445664528831
 22
393.9931674995493
 32
0.0
 13
425.4445664528831
 23
393.9931674995493
 33
0.0
  0
SOLID
  5
8134
330
7DDE
100
AcDbEntity
  8
5
100
AcDbTrace
 10
423.8112331195497
 20
-106.2068325004503
 30
0.0
 11
427.0778997862162
 21
-106.2068325004503
 31
0.0
 12
425.4445664528828
 22
-116.0068325004503
 32
0.0
 13
425.4445664528828
 23
-116.0068325004503
 33
0.0
  0
MTEXT
  5
8135
330
7DDE
100
AcDbEntity
  8
5
 62
     6
100
AcDbMText
 10
415.6445664528828
 20
138.9931674995495
 30
0.0
 40
9.799999999999997
 41
0.0
 71
     5
 72
     1
  1
\A1;D5
  7
ROMANS
 11
0.0000000000000001
 21
1.0
 31
0.0
 73
     1
 44
1.0
  0
POINT
  5
8136
330
7DDE
100
AcDbEntity
  8
DEFPOINTS
 62
     0
100
AcDbPoint
 10
276.5755591853571
 20
393.9931674995494
 30
0.0
  0
POINT
  5
8137
330
7DDE
100
AcDbEntity
  8
DEFPOINTS
 62
     0
100
AcDbPoint
 10
276.5755591853571
 20
-116.0068325004503
 30
0.0
  0
POINT
  5
8138
330
7DDE
100
AcDbEntity
  8
DEFPOINTS
 62
     0
100
AcDbPoint
 10
425.4445664528828
 20
-116.0068325004503
 30
0.0
  0
ENDBLK
  5
7DE9
330
7DDE
100
AcDbEntity
  8
0
100
AcDbBlockEnd
  0
BLOCK
  5
7F6E
330
7F3F
100
AcDbEntity
  8
0
100
AcDbBlockBegin
  2
*X15
 70
     1
 10
0.0
 20
0.0
 30
0.0
  3
*X15
  1

  0
LINE
  5
7F40
330
7F3F
100
AcDbEntity
  8
0
 62
     0
100
AcDbLine
 10
468.0710273546496
 20
118.0531706673089
 30
0.0
 11
477.10452735465
 21
127.086670667309
 31
0.0
  0
LINE
  5
7F41
330
7F3F
100
AcDbEntity
  8
0
 62
     0
100
AcDbLine
 10
495.5710273546499
 20
145.5531706673089
 30
0.0
 11
503.07102735465
 21
153.053170667309
 31
0.0
  0
LINE
  5
7F42
330
7F3F
100
AcDbEntity
  8
0
 62
     0
100
AcDbLine
 10
468.0710273546496
 20
121.5887045732416
 30
0.0
 11
477.10452735465
 21
130.6222045732417
 31
0.0
  0
LINE
  5
7F43
330
7F3F
100
AcDbEntity
  8
0
 62
     0
100
AcDbLine
 10
495.5710273546499
 20
149.0887045732416
 30
0.0
 11
503.07102735465
 21
156.5887045732417
 31
0.0
  0
LINE
  5
7F44
330
7F3F
100
AcDbEntity
  8
0
 62
     0
100
AcDbLine
 10
468.0710273546496
 20
125.1242384791743
 30
0.0
 11
477.10452735465
 21
134.1577384791744
 31
0.0
  0
LINE
  5
7F45
330
7F3F
100
AcDbEntity
  8
0
 62
     0
100
AcDbLine
 10
495.5710273546499
 20
152.6242384791744
 30
0.0
 11
503.07102735465
 21
160.1242384791745
 31
0.0
  0
LINE
  5
7F46
330
7F3F
100
AcDbEntity
  8
0
 62
     0
100
AcDbLine
 10
468.0710273546496
 20
128.659772385107
 30
0.0
 11
476.0810691994743
 21
136.6698142299316
 31
0.0
  0
LINE
  5
7F47
330
7F3F
100
AcDbEntity
  8
0
 62
     0
100
AcDbLine
 10
495.5710273546499
 20
156.1597723851071
 30
0.0
 11
503.07102735465
 21
163.6597723851072
 31
0.0
  0
LINE
  5
7F48
330
7F3F
100
AcDbEntity
  8
0
 62
     0
100
AcDbLine
 10
468.0710273546496
 20
132.1953062910398
 30
0.0
 11
475.5710273546498
 21
139.6953062910398
 31
0.0
  0
LINE
  5
7F49
330
7F3F
100
AcDbEntity
  8
0
 62
     0
100
AcDbLine
 10
495.5710273546499
 20
159.6953062910398
 30
0.0
 11
503.07102735465
 21
167.1953062910399
 31
0.0
  0
LINE
  5
7F4A
330
7F3F
100
AcDbEntity
  8
0
 62
     0
100
AcDbLine
 10
468.0710273546496
 20
135.7308401969725
 30
0.0
 11
475.5710273546498
 21
143.2308401969725
 31
0.0
  0
LINE
  5
7F4B
330
7F3F
100
AcDbEntity
  8
0
 62
     0
100
AcDbLine
 10
495.5710273546499
 20
163.2308401969725
 30
0.0
 11
499.986543232433
 21
167.6463560747559
 31
0.0
  0
LINE
  5
7F4C
330
7F3F
100
AcDbEntity
  8
0
 62
     0
100
AcDbLine
 10
468.0710273546496
 20
139.2663741029053
 30
0.0
 11
475.5710273546498
 21
146.7663741029053
 31
0.0
  0
LINE
  5
7F4D
330
7F3F
100
AcDbEntity
  8
0
 62
     0
100
AcDbLine
 10
495.5710273546499
 20
166.7663741029053
 30
0.0
 11
496.4510093265004
 21
167.6463560747559
 31
0.0
  0
LINE
  5
7F4E
330
7F3F
100
AcDbEntity
  8
0
 62
     0
100
AcDbLine
 10
468.0710273546499
 20
142.801908008838
 30
0.0
 11
475.5710273546498
 21
150.301908008838
 31
0.0
  0
LINE
  5
7F4F
330
7F3F
100
AcDbEntity
  8
0
 62
     0
100
AcDbLine
 10
468.0710273546499
 20
146.3374419147708
 30
0.0
 11
475.5710273546498
 21
153.8374419147707
 31
0.0
  0
LINE
  5
7F50
330
7F3F
100
AcDbEntity
  8
0
 62
     0
100
AcDbLine
 10
468.0710273546499
 20
149.8729758207035
 30
0.0
 11
475.5710273546498
 21
157.3729758207035
 31
0.0
  0
LINE
  5
7F51
330
7F3F
100
AcDbEntity
  8
0
 62
     0
100
AcDbLine
 10
468.0710273546499
 20
153.4085097266362
 30
0.0
 11
475.5710273546498
 21
160.9085097266361
 31
0.0
  0
LINE
  5
7F52
330
7F3F
100
AcDbEntity
  8
0
 62
     0
100
AcDbLine
 10
468.0710273546499
 20
156.944043632569
 30
0.0
 11
475.5710273546498
 21
164.444043632569
 31
0.0
  0
LINE
  5
7F53
330
7F3F
100
AcDbEntity
  8
0
 62
     0
100
AcDbLine
 10
468.0710273546499
 20
160.4795775385017
 30
0.0
 11
475.2378058909041
 21
167.6463560747559
 31
0.0
  0
LINE
  5
7F54
330
7F3F
100
AcDbEntity
  8
0
 62
     0
100
AcDbLine
 10
468.0710273546499
 20
164.0151114444345
 30
0.0
 11
471.7022719849713
 21
167.6463560747559
 31
0.0
  0
LINE
  5
7F55
330
7F3F
100
AcDbEntity
  8
0
 62
     0
100
AcDbLine
 10
468.0710273546499
 20
167.5506453503672
 30
0.0
 11
468.1667380790385
 21
167.6463560747559
 31
0.0
  0
LINE
  5
7F56
330
7F3F
100
AcDbEntity
  8
0
 62
     0
100
AcDbLine
 10
468.0710273546496
 20
114.5176367613761
 30
0.0
 11
477.10452735465
 21
123.5511367613762
 31
0.0
  0
LINE
  5
7F57
330
7F3F
100
AcDbEntity
  8
0
 62
     0
100
AcDbLine
 10
495.5710273546499
 20
142.0176367613762
 30
0.0
 11
503.07102735465
 21
149.5176367613762
 31
0.0
  0
LINE
  5
7F58
330
7F3F
100
AcDbEntity
  8
0
 62
     0
100
AcDbLine
 10
468.0710273546496
 20
110.9821028554434
 30
0.0
 11
477.10452735465
 21
120.0156028554435
 31
0.0
  0
LINE
  5
7F59
330
7F3F
100
AcDbEntity
  8
0
 62
     0
100
AcDbLine
 10
495.5710273546499
 20
138.4821028554434
 30
0.0
 11
503.07102735465
 21
145.9821028554435
 31
0.0
  0
LINE
  5
7F5A
330
7F3F
100
AcDbEntity
  8
0
 62
     0
100
AcDbLine
 10
468.0710273546496
 20
107.4465689495106
 30
0.0
 11
477.10452735465
 21
116.4800689495108
 31
0.0
  0
LINE
  5
7F5B
330
7F3F
100
AcDbEntity
  8
0
 62
     0
100
AcDbLine
 10
494.0375273546499
 20
133.4130689495107
 30
0.0
 11
503.07102735465
 21
142.4465689495107
 31
0.0
  0
LINE
  5
7F5C
330
7F3F
100
AcDbEntity
  8
0
 62
     0
100
AcDbLine
 10
468.0710273546496
 20
103.9110350435779
 30
0.0
 11
477.10452735465
 21
112.944535043578
 31
0.0
  0
LINE
  5
7F5D
330
7F3F
100
AcDbEntity
  8
0
 62
     0
100
AcDbLine
 10
494.0375273546499
 20
129.877535043578
 30
0.0
 11
503.07102735465
 21
138.911035043578
 31
0.0
  0
LINE
  5
7F5E
330
7F3F
100
AcDbEntity
  8
0
 62
     0
100
AcDbLine
 10
468.0710273546496
 20
100.3755011376452
 30
0.0
 11
478.5021224422655
 21
110.8065962252611
 31
0.0
  0
LINE
  5
7F5F
330
7F3F
100
AcDbEntity
  8
0
 62
     0
100
AcDbLine
 10
494.0375273546499
 20
126.3420011376452
 30
0.0
 11
503.07102735465
 21
135.3755011376452
 31
0.0
  0
LINE
  5
7F60
330
7F3F
100
AcDbEntity
  8
0
 62
     0
100
AcDbLine
 10
468.8774161976933
 20
97.64635607475597
 30
0.0
 11
480.7106431991074
 21
109.47958307617
 31
0.0
  0
LINE
  5
7F61
330
7F3F
100
AcDbEntity
  8
0
 62
     0
100
AcDbLine
 10
494.0375273546499
 20
122.8064672317125
 30
0.0
 11
503.07102735465
 21
131.8399672317125
 31
0.0
  0
LINE
  5
7F62
330
7F3F
100
AcDbEntity
  8
0
 62
     0
100
AcDbLine
 10
472.412950103626
 20
97.64635607475597
 30
0.0
 11
482.9191639559491
 21
108.1525699270789
 31
0.0
  0
LINE
  5
7F63
330
7F3F
100
AcDbEntity
  8
0
 62
     0
100
AcDbLine
 10
494.0375273546499
 20
119.2709333257798
 30
0.0
 11
503.07102735465
 21
128.3044333257798
 31
0.0
  0
LINE
  5
7F64
330
7F3F
100
AcDbEntity
  8
0
 62
     0
100
AcDbLine
 10
475.9484840095588
 20
97.64635607475597
 30
0.0
 11
485.1276847127905
 21
106.8255567779878
 31
0.0
  0
LINE
  5
7F65
330
7F3F
100
AcDbEntity
  8
0
 62
     0
100
AcDbLine
 10
494.0375273546499
 20
115.735399419847
 30
0.0
 11
503.07102735465
 21
124.768899419847
 31
0.0
  0
LINE
  5
7F66
330
7F3F
100
AcDbEntity
  8
0
 62
     0
100
AcDbLine
 10
479.4840179154915
 20
97.64635607475597
 30
0.0
 11
492.6507700825164
 21
110.8131082417808
 31
0.0
  0
LINE
  5
7F67
330
7F3F
100
AcDbEntity
  8
0
 62
     0
100
AcDbLine
 10
494.0375273546499
 20
112.1998655139143
 30
0.0
 11
503.07102735465
 21
121.2333655139143
 31
0.0
  0
LINE
  5
7F68
330
7F3F
100
AcDbEntity
  8
0
 62
     0
100
AcDbLine
 10
483.0195518214243
 20
97.64635607475597
 30
0.0
 11
503.07102735465
 21
117.6978316079816
 31
0.0
  0
LINE
  5
7F69
330
7F3F
100
AcDbEntity
  8
0
 62
     0
100
AcDbLine
 10
486.555085727357
 20
97.64635607475597
 30
0.0
 11
503.07102735465
 21
114.1622977020488
 31
0.0
  0
LINE
  5
7F6A
330
7F3F
100
AcDbEntity
  8
0
 62
     0
100
AcDbLine
 10
490.0906196332898
 20
97.64635607475597
 30
0.0
 11
503.07102735465
 21
110.6267637961161
 31
0.0
  0
LINE
  5
7F6B
330
7F3F
100
AcDbEntity
  8
0
 62
     0
100
AcDbLine
 10
493.6261535392225
 20
97.64635607475597
 30
0.0
 11
503.07102735465
 21
107.0912298901833
 31
0.0
  0
LINE
  5
7F6C
330
7F3F
100
AcDbEntity
  8
0
 62
     0
100
AcDbLine
 10
497.1616874451552
 20
97.64635607475597
 30
0.0
 11
503.07102735465
 21
103.5556959842506
 31
0.0
  0
LINE
  5
7F6D
330
7F3F
100
AcDbEntity
  8
0
 62
     0
100
AcDbLine
 10
500.697221351088
 20
97.64635607475597
 30
0.0
 11
503.07102735465
 21
100.0201620783178
 31
0.0
  0
ENDBLK
  5
7F6F
330
7F3F
100
AcDbEntity
  8
0
100
AcDbBlockEnd
  0
ENDSEC
  0
SECTION
  2
ENTITIES
  0
INSERT
  5
107
330
18
100
AcDbEntity
  8
MITTELLINIE
100
AcDbBlockReference
  2
PROTO
 10
191.203180816766
 20
97.61368935402813
 30
0.0
  0
TEXT
  5
1157
330
18
100
AcDbEntity
  8
5
100
AcDbText
 10
151.3036720483299
 20
173.100330500662
 30
0.0
 40
3.5
  1
 
  7
ROMANS
100
AcDbText
  0
TEXT
  5
1158
330
18
100
AcDbEntity
  8
5
100
AcDbText
 10
129.8729906754903
 20
216.6426036892462
 30
0.0
 40
3.5
  1
 
  7
ROMANS
100
AcDbText
  0
MTEXT
  5
1183
330
18
100
AcDbEntity
  8
OBJEKT
100
AcDbMText
 10
259.2524242957761
 20
169.4252122649925
 30
0.0
 40
3.5
 41
107.5464
 71
     1
 72
     5
  1

 73
     1
 44
1.0
  0
MTEXT
  5
11C8
330
18
100
AcDbEntity
  8
SCHRAFFUR
100
AcDbMText
 10
311.5979966260216
 20
90.00452114891199
 30
0.0
 40
3.5
 41
84.22880000000002
 71
     1
 72
     5
  1

  7
ISOCP
 73
     1
 44
1.0
  0
DIMENSION
  5
3035
330
18
100
AcDbEntity
  8
5
100
AcDbDimension
  2
*D11
 10
366.5907880966406
 20
167.9931659995495
 30
0.0
 11
356.7907880966405
 21
138.9931674995495
 31
0.0
 70
    32
  1
d
 71
     5
 42
57.99999700000002
  3
ISOCP-2000-1-1
100
AcDbAlignedDimension
 13
335.2735744776554
 23
109.9931689995495
 33
0.0
 14
335.2735744776554
 24
167.9931659995495
 34
0.0
 50
90.0
100
AcDbRotatedDimension
1001
ACAD
1000
DSTYLE
1002
{
1070
    40
1040
2.799999999999998
1070
   340
1005
102
1002
}
  0
DIMENSION
  5
3036
330
18
100
AcDbEntity
  8
5
100
AcDbDimension
  2
*D12
 10
396.2442119696227
 20
64.99316899954949
 30
0.0
 11
386.4442119696226
 21
138.9931674995495
 31
0.0
 70
    32
  1
D1
 71
     5
 42
147.999997
  3
ISOCP-2000-1-1
100
AcDbAlignedDimension
 13
276.5755591853571
 23
212.9931659995496
 33
0.0
 14
276.5755591853571
 24
64.99316899954954
 34
0.0
 50
90.0
100
AcDbRotatedDimension
1001
ACAD
1000
DSTYLE
1002
{
1070
    40
1040
2.799999999999998
1070
   340
1005
102
1002
}
  0
LINE
  5
3038
102
{ACAD_REACTORS
330
8085
102
}
330
18
100
AcDbEntity
  8
OBJEKT
100
AcDbLine
 10
276.5755591853571
 20
-169.5068310004504
 30
0.0
 11
276.5755591853571
 21
-41.00683250045024
 31
0.0
  0
LINE
  5
3039
102
{ACAD_REACTORS
330
8085
102
}
330
18
100
AcDbEntity
  8
OBJEKT
100
AcDbLine
 10
126.5755591853571
 20
109.9931689995495
 30
0.0
 11
126.5755591853571
 21
-169.5068310004504
 31
0.0
  0
SPLINE
  5
303D
102
{ACAD_REACTORS
330
8085
102
}
330
18
100
AcDbEntity
  8
SCHRAFFUR
100
AcDbSpline
210
0.0
220
0.0
230
1.0
 70
     8
 71
     3
 72
    11
 73
     7
 74
     5
 42
0.0000000001
 43
0.0000000001
 44
0.0000000001
 40
0.0
 40
0.0
 40
0.0
 40
0.0
 40
23.60116297354895
 40
71.92919331732497
 40
125.0953642675956
 40
151.135482151574
 40
151.135482151574
 40
151.135482151574
 40
151.135482151574
 10
126.5755591853571
 20
-169.5068310004504
 30
0.0
 10
134.3380201056512
 20
-167.8187082979
 30
0.0
 10
157.9956488750379
 20
-162.6738218212801
 30
0.0
 10
199.5848289759344
 20
-176.3394591328479
 30
0.0
 10
241.9990558345093
 20
-161.6636188609872
 30
0.0
 10
268.0206236645426
 20
-167.5662595826777
 30
0.0
 10
276.5755591853571
 20
-169.5068310004504
 30
0.0
 11
126.5755591853571
 21
-169.5068310004504
 31
0.0
 11
149.8904962147625
 21
-165.8423248919988
 31
0.0
 11
197.9789025448402
 21
-170.6489550569146
 31
0.0
 11
250.8761487351484
 21
-165.308254822364
 31
0.0
 11
276.5755591853571
 21
-169.5068310004504
 31
0.0
  0
DIMENSION
  5
303E
330
18
100
AcDbEntity
  8
5
100
AcDbDimension
  2
*D13
 10
126.5755591853571
 20
-196.7446730797349
 30
0.0
 11
201.5755591853571
 21
-186.9446730797349
 31
0.0
 70
    32
  1
L1
 71
     5
 42
150.0
  3
ISOCP-2000-1-1
100
AcDbAlignedDimension
 13
276.5755591853571
 23
-169.5068310004504
 33
0.0
 14
126.5755591853571
 24
-169.5068310004504
 34
0.0
100
AcDbRotatedDimension
1001
ACAD
1000
DSTYLE
1002
{
1070
    40
1040
2.799999999999998
1070
   340
1005
102
1002
}
  0
LINE
  5
304E
102
{ACAD_REACTORS
330
8085
102
}
330
18
100
AcDbEntity
  8
OBJEKT
100
AcDbLine
 10
126.5755591853571
 20
167.9931659995495
 30
0.0
 11
126.5755591853571
 21
447.4931659995495
 31
0.0
  0
LINE
  5
304F
330
18
100
AcDbEntity
  8
OBJEKT
100
AcDbLine
 10
126.5755591853571
 20
212.9931659995495
 30
0.0
 11
276.5755591853571
 21
212.9931659995495
 31
0.0
  0
LINE
  5
3050
330
18
100
AcDbEntity
  8
OBJEKT
100
AcDbLine
 10
335.2735744776554
 20
167.9931659995495
 30
0.0
 11
117.8775438930587
 21
167.9931659995495
 31
0.0
  0
LINE
  5
3051
330
18
100
AcDbEntity
  8
MITTELLINIE
100
AcDbLine
 10
343.1705461036189
 20
138.9931674995495
 30
0.0
 11
109.2088172223674
 21
138.9931674995495
 31
0.0
  0
LINE
  5
3052
330
18
100
AcDbEntity
  8
OBJEKT
100
AcDbLine
 10
335.2735744776554
 20
109.9931689995495
 30
0.0
 11
117.8775438930587
 21
109.9931689995495
 31
0.0
  0
LINE
  5
3053
330
18
100
AcDbEntity
  8
OBJEKT
100
AcDbLine
 10
126.5755591853571
 20
64.99316899954954
 30
0.0
 11
276.5755591853571
 21
64.99316899954954
 31
0.0
  0
LINE
  5
3054
330
18
100
AcDbEntity
  8
SCHRAFFUR
100
AcDbLine
 10
116.8120943823868
 20
137.3465027035882
 30
0.0
 11
115.965062772375
 21
138.1935343135999
 31
0.0
  0
ARC
  5
3055
330
18
100
AcDbEntity
  8
SCHRAFFUR
100
AcDbCircle
 10
195.2257895829528
 20
159.4440375493869
 30
0.0
 40
82.0600189027229
100
AcDbArc
 50
176.9917036817516
 51
199.1268897761051
  0
ARC
  5
3056
330
18
100
AcDbEntity
  8
SCHRAFFUR
100
AcDbCircle
 10
220.5763014609669
 20
154.0133913501793
 30
0.0
 40
105.0942236652629
100
AcDbArc
 50
174.8869392832669
 51
191.7810062091883
  0
ARC
  5
3057
330
18
100
AcDbEntity
  8
SCHRAFFUR
100
AcDbCircle
 10
9.072234754631494
 20
155.6516981034526
 30
0.0
 40
111.0517888467034
100
AcDbArc
 50
347.9965233242428
 51
3.990302906210336
  0
ARC
  5
3058
330
18
100
AcDbEntity
  8
SCHRAFFUR
100
AcDbCircle
 10
-56.56210126768986
 20
182.628586271651
 30
0.0
 40
181.3093813773912
100
AcDbArc
 50
343.9681728106015
 51
348.9237594855977
  0
ARC
  5
3059
330
18
100
AcDbEntity
  8
SCHRAFFUR
100
AcDbCircle
 10
-155.6062703526774
 20
193.3258439399488
 30
0.0
 40
279.9768187073799
100
AcDbArc
 50
343.97529454241
 51
347.46402202006
  0
ARC
  5
305A
330
18
100
AcDbEntity
  8
SCHRAFFUR
100
AcDbCircle
 10
117.8775438930587
 20
114.6068051245495
 30
0.0
 40
4.613636125
100
AcDbArc
 50
234.8762182107156
 51
270.0
  0
ARC
  5
305B
330
18
100
AcDbEntity
  8
SCHRAFFUR
100
AcDbCircle
 10
119.6986874286393
 20
115.1784352790722
 30
0.0
 40
6.23789286328224
100
AcDbArc
 50
170.0054277243054
 51
224.1530313742168
  0
LINE
  5
305C
330
18
100
AcDbEntity
  8
SCHRAFFUR
100
AcDbLine
 10
117.3051624506182
 20
134.5231964997036
 30
0.0
 11
116.9195304515182
 21
134.9088284988035
 31
0.0
  0
LINE
  5
305D
330
18
100
AcDbEntity
  8
SCHRAFFUR
100
AcDbLine
 10
117.5892223005224
 20
133.0740175819725
 30
0.0
 11
117.4818509910191
 21
133.1813888914758
 31
0.0
  0
LINE
  5
305E
330
18
100
AcDbEntity
  8
SCHRAFFUR
100
AcDbLine
 10
117.0466125245117
 20
135.9468654936367
 30
0.0
 11
116.416141005708
 21
136.5773370124404
 31
0.0
  0
LINE
  5
305F
330
18
100
AcDbEntity
  8
SCHRAFFUR
100
AcDbLine
 10
118.296774402187
 20
134.6967036159615
 30
0.0
 11
118.1560008013467
 21
134.8374772168015
 31
0.0
  0
LINE
  5
3060
330
18
100
AcDbEntity
  8
SCHRAFFUR
100
AcDbLine
 10
118.0440953968467
 20
133.7842635534748
 30
0.0
 11
117.9655117790165
 21
133.8628471713052
 31
0.0
  0
LINE
  5
3061
330
18
100
AcDbEntity
  8
SCHRAFFUR
100
AcDbLine
 10
118.789989399892
 20
136.5337267539095
 30
0.0
 11
118.5139202635808
 21
136.8097958902207
 31
0.0
  0
LINE
  5
3062
330
18
100
AcDbEntity
  8
SCHRAFFUR
100
AcDbLine
 10
118.5454179066572
 20
135.6131791793176
 30
0.0
 11
118.3388512305086
 21
135.8197458554665
 31
0.0
  0
LINE
  5
3063
330
18
100
AcDbEntity
  8
SCHRAFFUR
100
AcDbLine
 10
117.7874165323995
 20
132.8758233500954
 30
0.0
 11
117.7675208622514
 21
132.8957190202435
 31
0.0
  0
LINE
  5
3064
330
18
100
AcDbEntity
  8
SCHRAFFUR
100
AcDbLine
 10
119.0304514763733
 20
137.458383745255
 30
0.0
 11
118.6810586291805
 21
137.8077765924479
 31
0.0
  0
LINE
  5
3065
330
18
100
AcDbEntity
  8
SCHRAFFUR
100
AcDbLine
 10
115.5034336064014
 20
156.1319494969738
 30
0.0
 11
113.1716260538741
 21
158.4637570495011
 31
0.0
  0
LINE
  5
3066
330
18
100
AcDbEntity
  8
SCHRAFFUR
100
AcDbLine
 10
115.5324855453258
 20
157.2680166258763
 30
0.0
 11
113.1659917377493
 21
159.6345104334526
 31
0.0
  0
ARC
  5
3067
330
18
100
AcDbEntity
  8
SCHRAFFUR
100
AcDbCircle
 10
55.5043456662455
 20
160.3646421520344
 30
0.0
 40
67.05398504172753
100
AcDbArc
 50
348.3301833460172
 51
2.969794848391003
  0
LINE
  5
3068
330
18
100
AcDbEntity
  8
SCHRAFFUR
100
AcDbLine
 10
122.4883900004382
 20
157.3028265777239
 30
0.0
 11
120.0486493472598
 21
159.7425672309026
 31
0.0
  0
LINE
  5
3069
330
18
100
AcDbEntity
  8
SCHRAFFUR
100
AcDbLine
 10
122.4287125126051
 20
156.1973849977305
 30
0.0
 11
120.0864664979828
 21
158.5396310123527
 31
0.0
  0
LINE
  5
306A
330
18
100
AcDbEntity
  8
SCHRAFFUR
100
AcDbLine
 10
121.1970840596672
 20
146.9247516427693
 30
0.0
 11
119.8767554987747
 21
148.2450802036616
 31
0.0
  0
LINE
  5
306B
330
18
100
AcDbEntity
  8
SCHRAFFUR
100
AcDbLine
 10
121.2006167152707
 20
146.9394091846247
 30
0.0
 11
121.2001259937709
 21
146.9398999061242
 31
0.0
  0
LINE
  5
306C
330
18
100
AcDbEntity
  8
SCHRAFFUR
100
AcDbLine
 10
121.7365425684182
 20
149.8988405349571
 30
0.0
 11
120.0495675967989
 21
151.5858155065763
 31
0.0
  0
LINE
  5
306D
330
18
100
AcDbEntity
  8
SCHRAFFUR
100
AcDbLine
 10
121.3920902117548
 20
147.9130547559671
 30
0.0
 11
119.945623446042
 21
149.3595215216799
 31
0.0
  0
LINE
  5
306E
330
18
100
AcDbEntity
  8
SCHRAFFUR
100
AcDbLine
 10
121.5708658601553
 20
148.8993981753933
 30
0.0
 11
120.0029430372541
 21
150.4673209982945
 31
0.0
  0
LINE
  5
306F
330
18
100
AcDbEntity
  8
SCHRAFFUR
100
AcDbLine
 10
115.5130562829073
 20
151.4618505491613
 30
0.0
 11
113.3740719142195
 21
153.600834917849
 31
0.0
  0
LINE
  5
3070
330
18
100
AcDbEntity
  8
SCHRAFFUR
100
AcDbLine
 10
115.4909336123843
 20
152.649092287511
 30
0.0
 11
113.2947315958976
 21
154.8452943039978
 31
0.0
  0
LINE
  5
3071
330
18
100
AcDbEntity
  8
SCHRAFFUR
100
AcDbLine
 10
115.5490999166726
 20
150.2606878475693
 30
0.0
 11
113.4742385526068
 21
152.335549211635
 31
0.0
  0
LINE
  5
3072
330
18
100
AcDbEntity
  8
SCHRAFFUR
100
AcDbLine
 10
115.6650555407346
 20
147.8144940878539
 30
0.0
 11
113.7418409684636
 21
149.7377086601248
 31
0.0
  0
LINE
  5
3073
330
18
100
AcDbEntity
  8
SCHRAFFUR
100
AcDbLine
 10
115.5995811606448
 20
149.0450875357704
 30
0.0
 11
113.5963964224273
 21
151.0482722739878
 31
0.0
  0
LINE
  5
3074
330
18
100
AcDbEntity
  8
SCHRAFFUR
100
AcDbLine
 10
115.4822504458751
 20
153.8228945218468
 30
0.0
 11
113.2351655199403
 21
156.0699794477816
 31
0.0
  0
LINE
  5
3075
330
18
100
AcDbEntity
  8
SCHRAFFUR
100
AcDbLine
 10
115.4865572620982
 20
154.9837067734506
 30
0.0
 11
113.1944197273664
 21
157.2758443081823
 31
0.0
  0
LINE
  5
3076
330
18
100
AcDbEntity
  8
SCHRAFFUR
100
AcDbLine
 10
120.1697451691792
 20
142.1446853915828
 30
0.0
 11
119.3920607484614
 21
142.9223698123006
 31
0.0
  0
LINE
  5
3077
330
18
100
AcDbEntity
  8
SCHRAFFUR
100
AcDbLine
 10
116.2400750462092
 20
141.4138792432457
 30
0.0
 11
114.876002472662
 21
142.7779518167931
 31
0.0
  0
LINE
  5
3078
330
18
100
AcDbEntity
  8
SCHRAFFUR
100
AcDbLine
 10
116.4099687845693
 20
140.0788664370591
 30
0.0
 11
115.1991245367929
 21
141.2897106848354
 31
0.0
  0
LINE
  5
3079
330
18
100
AcDbEntity
  8
SCHRAFFUR
100
AcDbLine
 10
116.6002795543514
 20
138.7234365994503
 30
0.0
 11
115.560886709476
 21
139.7628294443257
 31
0.0
  0
LINE
  5
307A
330
18
100
AcDbEntity
  8
SCHRAFFUR
100
AcDbLine
 10
119.9504245923134
 20
141.1988869006217
 30
0.0
 11
119.2670706290117
 21
141.8822408639234
 31
0.0
  0
LINE
  5
307B
330
18
100
AcDbEntity
  8
SCHRAFFUR
100
AcDbLine
 10
119.7267931338673
 20
140.2573992912411
 30
0.0
 11
119.1332914881112
 21
140.8509009369972
 31
0.0
  0
LINE
  5
307C
330
18
100
AcDbEntity
  8
SCHRAFFUR
100
AcDbLine
 10
119.4988931141473
 20
139.3201802431343
 30
0.0
 11
118.9909115368458
 21
139.8281618204361
 31
0.0
  0
LINE
  5
307D
330
18
100
AcDbEntity
  8
SCHRAFFUR
100
AcDbLine
 10
119.2667658077756
 20
138.3871884816795
 30
0.0
 11
118.8401101939424
 21
138.8138440955126
 31
0.0
  0
LINE
  5
307E
330
18
100
AcDbEntity
  8
SCHRAFFUR
100
AcDbLine
 10
120.801401994992
 20
145.0083857692499
 30
0.0
 11
119.7122701872064
 21
146.0975175770355
 31
0.0
  0
LINE
  5
307F
330
18
100
AcDbEntity
  8
SCHRAFFUR
100
AcDbLine
 10
120.3847114643598
 20
143.0948381642287
 30
0.0
 11
119.5080642517385
 21
143.97148537685
 31
0.0
  0
LINE
  5
3080
330
18
100
AcDbEntity
  8
SCHRAFFUR
100
AcDbLine
 10
120.5952789623399
 20
144.0493897340753
 30
0.0
 11
119.6148735160824
 21
145.0297951803328
 31
0.0
  0
LINE
  5
3081
330
18
100
AcDbEntity
  8
SCHRAFFUR
100
AcDbLine
 10
116.0896093326586
 20
142.7294640246232
 30
0.0
 11
114.588310938644
 21
144.2307624186378
 31
0.0
  0
LINE
  5
3082
330
18
100
AcDbEntity
  8
SCHRAFFUR
100
AcDbLine
 10
115.9576686890651
 20
144.0265237360433
 30
0.0
 11
114.3332927050882
 21
145.6508997200202
 31
0.0
  0
LINE
  5
3083
330
18
100
AcDbEntity
  8
SCHRAFFUR
100
AcDbLine
 10
121.0030337027091
 20
145.9718731293595
 30
0.0
 11
119.8000244099711
 21
147.1748824220975
 31
0.0
  0
LINE
  5
3084
330
18
100
AcDbEntity
  8
SCHRAFFUR
100
AcDbLine
 10
115.7461216701521
 20
146.5683088906096
 30
0.0
 11
113.912019630225
 21
148.4024109305367
 31
0.0
  0
LINE
  5
3085
330
18
100
AcDbEntity
  8
SCHRAFFUR
100
AcDbLine
 10
115.8434260665034
 20
145.3058854264317
 30
0.0
 11
114.1085580927919
 21
147.0407534001433
 31
0.0
  0
LINE
  5
3086
330
18
100
AcDbEntity
  8
SCHRAFFUR
100
AcDbLine
 10
122.0268368342632
 20
151.9387844047655
 30
0.0
 11
120.1095063660824
 21
153.8561148729463
 31
0.0
  0
LINE
  5
3087
330
18
100
AcDbEntity
  8
SCHRAFFUR
100
AcDbLine
 10
121.8886883036497
 20
150.9118138675523
 30
0.0
 11
120.0851953155176
 21
152.7153068556845
 31
0.0
  0
LINE
  5
3088
330
18
100
AcDbEntity
  8
SCHRAFFUR
100
AcDbLine
 10
122.1504840058341
 20
152.9802563010215
 30
0.0
 11
120.1221613812434
 21
155.0085789256119
 31
0.0
  0
LINE
  5
3089
330
18
100
AcDbEntity
  8
SCHRAFFUR
100
AcDbLine
 10
122.2590834664685
 20
154.0367759082136
 30
0.0
 11
120.1227997609763
 21
156.1730596137058
 31
0.0
  0
LINE
  5
308A
330
18
100
AcDbEntity
  8
SCHRAFFUR
100
AcDbLine
 10
122.3520417388557
 20
155.1089367036531
 30
0.0
 11
120.1110377843755
 21
157.3499406581333
 31
0.0
  0
LINE
  5
308B
330
18
100
AcDbEntity
  8
SCHRAFFUR
100
AcDbLine
 10
117.930480019926
 20
165.3560937617163
 30
0.0
 11
115.7917936871721
 21
167.4947800944699
 31
0.0
  0
LINE
  5
308C
330
18
100
AcDbEntity
  8
SCHRAFFUR
100
AcDbLine
 10
116.9800671477395
 20
165.141387566076
 30
0.0
 11
115.0761557693266
 21
167.0452989444888
 31
0.0
  0
LINE
  5
308D
330
18
100
AcDbEntity
  8
SCHRAFFUR
100
AcDbLine
 10
116.3371415008713
 20
164.6191941451175
 30
0.0
 11
114.4683087269132
 21
166.4880269190756
 31
0.0
  0
LINE
  5
308E
330
18
100
AcDbEntity
  8
SCHRAFFUR
100
AcDbLine
 10
115.5733434028847
 20
158.3922778361439
 30
0.0
 11
113.1767906014587
 21
160.7888306375699
 31
0.0
  0
LINE
  5
308F
330
18
100
AcDbEntity
  8
SCHRAFFUR
100
AcDbLine
 10
115.6256597413174
 20
159.505080565538
 30
0.0
 11
113.203355524722
 21
161.9273847821335
 31
0.0
  0
LINE
  5
3090
330
18
100
AcDbEntity
  8
SCHRAFFUR
100
AcDbLine
 10
115.7633786489269
 20
161.6975997935819
 30
0.0
 11
113.3261522615438
 21
164.1348261809651
 31
0.0
  0
LINE
  5
3091
330
18
100
AcDbEntity
  8
SCHRAFFUR
100
AcDbLine
 10
115.6891075547506
 20
160.6067518199315
 30
0.0
 11
113.2450719848278
 21
163.0507873898543
 31
0.0
  0
ARC
  5
3092
330
18
100
AcDbEntity
  8
SCHRAFFUR
100
AcDbCircle
 10
117.8775438930587
 20
163.3795298745495
 30
0.0
 40
1.977272624999999
100
AcDbArc
 50
0.0000000000032569
 51
180.0
  0
LINE
  5
3093
330
18
100
AcDbEntity
  8
SCHRAFFUR
100
AcDbLine
 10
115.8481821840656
 20
162.7779153262698
 30
0.0
 11
113.5767065167846
 21
165.049390993551
 31
0.0
  0
LINE
  5
3094
330
18
100
AcDbEntity
  8
SCHRAFFUR
100
AcDbLine
 10
115.9539771535463
 20
163.8372394246158
 30
0.0
 11
113.9656791835337
 21
165.8255373946285
 31
0.0
  0
LINE
  5
3095
330
18
100
AcDbEntity
  8
SCHRAFFUR
100
AcDbLine
 10
122.5303011632089
 20
158.42603448278
 30
0.0
 11
119.9971195118713
 21
160.9592161341173
 31
0.0
  0
LINE
  5
3096
330
18
100
AcDbEntity
  8
SCHRAFFUR
100
AcDbLine
 10
122.5535965586936
 20
159.5678581551219
 30
0.0
 11
119.9313768981254
 21
162.19007781569
 31
0.0
  0
LINE
  5
3097
330
18
100
AcDbEntity
  8
SCHRAFFUR
100
AcDbLine
 10
122.5573395036416
 20
160.7292342780006
 30
0.0
 11
119.8541077802255
 21
163.4324660014167
 31
0.0
  0
LINE
  5
3098
330
18
100
AcDbEntity
  8
SCHRAFFUR
100
AcDbLine
 10
122.5019049767865
 20
163.114906940509
 30
0.0
 11
117.6302768028932
 21
167.9865351144023
 31
0.0
  0
LINE
  5
3099
330
18
100
AcDbEntity
  8
SCHRAFFUR
100
AcDbLine
 10
122.5404931520232
 20
161.9111996974458
 30
0.0
 11
116.6303110494556
 21
167.8213818000134
 31
0.0
  0
LINE
  5
309A
330
18
100
AcDbEntity
  8
SCHRAFFUR
100
AcDbLine
 10
122.3754284443497
 20
164.4065025407727
 30
0.0
 11
118.9045165592819
 21
167.8774144258404
 31
0.0
  0
ARC
  5
309B
330
18
100
AcDbEntity
  8
SCHRAFFUR
100
AcDbCircle
 10
117.8775438930587
 20
163.3795298745495
 30
0.0
 40
4.613636125
100
AcDbArc
 50
359.8231386107112
 51
178.7877214017903
  0
ARC
  5
309C
330
18
100
AcDbEntity
  8
SCHRAFFUR
100
AcDbCircle
 10
509.7132196384044
 20
95.35774872744793
 30
0.0
 40
181.3093813773912
100
AcDbArc
 50
163.9681728106015
 51
168.9237594855976
  0
ARC
  5
309D
330
18
100
AcDbEntity
  8
SCHRAFFUR
100
AcDbCircle
 10
257.9253287877612
 20
118.542297449712
 30
0.0
 40
82.0600189027229
100
AcDbArc
 50
356.9917036817516
 51
19.12688977610508
  0
ARC
  5
309E
330
18
100
AcDbEntity
  8
SCHRAFFUR
100
AcDbCircle
 10
232.5748169097472
 20
123.9729436489196
 30
0.0
 40
105.0942236652629
100
AcDbArc
 50
354.8869392832669
 51
11.78100620918833
  0
ARC
  5
309F
330
18
100
AcDbEntity
  8
SCHRAFFUR
100
AcDbCircle
 10
444.0788836160826
 20
122.3346368956463
 30
0.0
 40
111.0517888467034
100
AcDbArc
 50
167.9965233242428
 51
183.9903029062103
  0
LINE
  5
30EA
330
18
100
AcDbEntity
  8
SCHRAFFUR
100
AcDbLine
 10
337.5777749678294
 20
119.5940571629551
 30
0.0
 11
339.9743277692554
 21
117.1975043615291
 31
0.0
  0
LINE
  5
30EB
330
18
100
AcDbEntity
  8
SCHRAFFUR
100
AcDbLine
 10
337.5254586293967
 20
118.4812544335611
 30
0.0
 11
339.9477628459923
 21
116.0589502169654
 31
0.0
  0
LINE
  5
30EC
330
18
100
AcDbEntity
  8
SCHRAFFUR
100
AcDbLine
 10
330.5975218120206
 20
118.4184768439771
 30
0.0
 11
333.2197414725887
 21
115.7962571834089
 31
0.0
  0
LINE
  5
30ED
330
18
100
AcDbEntity
  8
SCHRAFFUR
100
AcDbLine
 10
330.6627283702759
 20
120.6835084213751
 30
0.0
 11
333.1024690234546
 21
118.2437677681965
 31
0.0
  0
LINE
  5
30EE
330
18
100
AcDbEntity
  8
SCHRAFFUR
100
AcDbLine
 10
330.6208172075054
 20
119.560300516319
 30
0.0
 11
333.1539988588428
 21
117.0271188649816
 31
0.0
  0
ARC
  5
30EF
330
18
100
AcDbEntity
  8
SCHRAFFUR
100
AcDbCircle
 10
397.6467727044688
 20
117.6216928470646
 30
0.0
 40
67.05398504172753
100
AcDbArc
 50
168.3301833460171
 51
182.969794848391
  0
LINE
  5
30F0
330
18
100
AcDbEntity
  8
SCHRAFFUR
100
AcDbLine
 10
330.5937788670725
 20
117.2571007210984
 30
0.0
 11
333.2970105904887
 21
114.5538689976823
 31
0.0
  0
LINE
  5
30F1
330
18
100
AcDbEntity
  8
SCHRAFFUR
100
AcDbLine
 10
330.6106252186912
 20
116.0751353016532
 30
0.0
 11
336.5208073212587
 21
110.1649531990856
 31
0.0
  0
LINE
  5
30F2
330
18
100
AcDbEntity
  8
SCHRAFFUR
100
AcDbLine
 10
330.6492133939276
 20
114.8714280585901
 30
0.0
 11
335.5208415678211
 21
109.9997998846967
 31
0.0
  0
LINE
  5
30F3
330
18
100
AcDbEntity
  8
SCHRAFFUR
100
AcDbLine
 10
330.7756899263647
 20
113.5798324583263
 30
0.0
 11
334.2466018114322
 21
110.1089205732586
 31
0.0
  0
ARC
  5
30F4
330
18
100
AcDbEntity
  8
SCHRAFFUR
100
AcDbCircle
 10
335.2735744776554
 20
114.6068051245495
 30
0.0
 40
4.613636125
100
AcDbArc
 50
179.8231386107111
 51
358.7877214017904
  0
LINE
  5
30F5
330
18
100
AcDbEntity
  8
SCHRAFFUR
100
AcDbLine
 10
337.1971412171678
 20
114.1490955744833
 30
0.0
 11
339.1854391871806
 21
112.1607976044705
 31
0.0
  0
LINE
  5
30F6
330
18
100
AcDbEntity
  8
SCHRAFFUR
100
AcDbLine
 10
337.4620108159636
 20
117.3795831791675
 30
0.0
 11
339.9060463858863
 21
114.9355476092447
 31
0.0
  0
LINE
  5
30F7
330
18
100
AcDbEntity
  8
SCHRAFFUR
100
AcDbLine
 10
337.3877397217874
 20
116.2887352055172
 30
0.0
 11
339.8249661091705
 21
113.8515088181339
 31
0.0
  0
LINE
  5
30F8
330
18
100
AcDbEntity
  8
SCHRAFFUR
100
AcDbLine
 10
337.3029361866486
 20
115.2084196728293
 30
0.0
 11
339.5744118539298
 21
112.9369440055481
 31
0.0
  0
LINE
  5
30F9
330
18
100
AcDbEntity
  8
SCHRAFFUR
100
AcDbLine
 10
336.8139768698428
 20
113.3671408539815
 30
0.0
 11
338.6828096438011
 21
111.4983080800234
 31
0.0
  0
LINE
  5
30FA
330
18
100
AcDbEntity
  8
SCHRAFFUR
100
AcDbLine
 10
336.1710512229746
 20
112.8449474330231
 30
0.0
 11
338.0749626013875
 21
110.9410360546101
 31
0.0
  0
LINE
  5
30FB
330
18
100
AcDbEntity
  8
SCHRAFFUR
100
AcDbLine
 10
335.2206383507884
 20
112.6302412373826
 30
0.0
 11
337.359324683542
 21
110.4915549046291
 31
0.0
  0
ARC
  5
30FC
330
18
100
AcDbEntity
  8
SCHRAFFUR
100
AcDbCircle
 10
335.2735744776554
 20
114.6068051245495
 30
0.0
 40
1.977272624999999
100
AcDbArc
 50
180.0000000000032
 51
0.0
  0
LINE
  5
30FD
330
18
100
AcDbEntity
  8
SCHRAFFUR
100
AcDbLine
 10
332.3497163757223
 20
132.977949229849
 30
0.0
 11
333.4388481835079
 21
131.8888174220635
 31
0.0
  0
LINE
  5
30FE
330
18
100
AcDbEntity
  8
SCHRAFFUR
100
AcDbLine
 10
332.148084668005
 20
132.0144618697394
 30
0.0
 11
333.351093960743
 21
130.8114525770015
 31
0.0
  0
LINE
  5
30FF
330
18
100
AcDbEntity
  8
SCHRAFFUR
100
AcDbLine
 10
331.9540343110469
 20
131.0615833563298
 30
0.0
 11
333.2743628719394
 21
129.7412547954373
 31
0.0
  0
LINE
  5
3100
330
18
100
AcDbEntity
  8
SCHRAFFUR
100
AcDbLine
 10
332.5558394083745
 20
133.9369452650235
 30
0.0
 11
333.536244854632
 21
132.9565398187662
 31
0.0
  0
LINE
  5
3101
330
18
100
AcDbEntity
  8
SCHRAFFUR
100
AcDbLine
 10
332.9813732015351
 20
135.8416496075163
 30
0.0
 11
333.759057622253
 21
135.0639651867984
 31
0.0
  0
LINE
  5
3102
330
18
100
AcDbEntity
  8
SCHRAFFUR
100
AcDbLine
 10
332.7664069063543
 20
134.8914968348704
 30
0.0
 11
333.6430541189756
 21
134.0148496222491
 31
0.0
  0
LINE
  5
3103
330
18
100
AcDbEntity
  8
SCHRAFFUR
100
AcDbLine
 10
331.0006343648803
 20
125.0060786980775
 30
0.0
 11
333.0289569894707
 21
122.9777560734871
 31
0.0
  0
LINE
  5
3104
330
18
100
AcDbEntity
  8
SCHRAFFUR
100
AcDbLine
 10
331.1242815364511
 20
126.0475505943335
 30
0.0
 11
333.0416120046319
 21
124.1302201261528
 31
0.0
  0
LINE
  5
3105
330
18
100
AcDbEntity
  8
SCHRAFFUR
100
AcDbLine
 10
330.7224058581093
 20
121.7889500013685
 30
0.0
 11
333.0646518727316
 21
119.4467039867463
 31
0.0
  0
LINE
  5
3106
330
18
100
AcDbEntity
  8
SCHRAFFUR
100
AcDbLine
 10
330.7990766318586
 20
122.8773982954458
 30
0.0
 11
333.0400805863386
 21
120.6363943409657
 31
0.0
  0
LINE
  5
3107
330
18
100
AcDbEntity
  8
SCHRAFFUR
100
AcDbLine
 10
330.8920349042459
 20
123.9495590908853
 30
0.0
 11
333.0283186097378
 21
121.8132753853933
 31
0.0
  0
LINE
  5
3108
330
18
100
AcDbEntity
  8
SCHRAFFUR
100
AcDbLine
 10
331.2624300670644
 20
127.0745211315467
 30
0.0
 11
333.0659230551968
 21
125.2710281434144
 31
0.0
  0
LINE
  5
3109
330
18
100
AcDbEntity
  8
SCHRAFFUR
100
AcDbLine
 10
331.4145758022959
 20
128.0874944641419
 30
0.0
 11
333.1015507739152
 21
126.4005194925226
 31
0.0
  0
LINE
  5
310A
330
18
100
AcDbEntity
  8
SCHRAFFUR
100
AcDbLine
 10
331.580252510559
 20
129.0869368237057
 30
0.0
 11
333.14817533346
 21
127.5190140008044
 31
0.0
  0
LINE
  5
310B
330
18
100
AcDbEntity
  8
SCHRAFFUR
100
AcDbLine
 10
331.7590281589595
 20
130.0732802431319
 30
0.0
 11
333.2054949246721
 21
128.626813477419
 31
0.0
  0
LINE
  5
310C
330
18
100
AcDbEntity
  8
SCHRAFFUR
100
AcDbLine
 10
331.9505016554434
 20
131.0469258144744
 30
0.0
 11
331.9509923769432
 21
131.0464350929748
 31
0.0
  0
LINE
  5
310D
330
18
100
AcDbEntity
  8
SCHRAFFUR
100
AcDbLine
 10
336.9110433245049
 20
136.5724557558533
 30
0.0
 11
338.2751158980521
 21
135.2083831823059
 31
0.0
  0
LINE
  5
310E
330
18
100
AcDbEntity
  8
SCHRAFFUR
100
AcDbLine
 10
337.0615090380555
 20
135.2568709744758
 30
0.0
 11
338.5628074320702
 21
133.7555725804612
 31
0.0
  0
LINE
  5
310F
330
18
100
AcDbEntity
  8
SCHRAFFUR
100
AcDbLine
 10
337.3076923042107
 20
132.6804495726672
 30
0.0
 11
339.0425602779223
 21
130.9455815989557
 31
0.0
  0
LINE
  5
3110
330
18
100
AcDbEntity
  8
SCHRAFFUR
100
AcDbLine
 10
337.404996700562
 20
131.4180261084894
 30
0.0
 11
339.2390987404891
 21
129.5839240685622
 31
0.0
  0
LINE
  5
3111
330
18
100
AcDbEntity
  8
SCHRAFFUR
100
AcDbLine
 10
337.1934496816491
 20
133.9598112630556
 30
0.0
 11
338.817825665626
 21
132.3354352790788
 31
0.0
  0
LINE
  5
3112
330
18
100
AcDbEntity
  8
SCHRAFFUR
100
AcDbLine
 10
333.4243252368468
 20
137.7289357078578
 30
0.0
 11
334.0178268826029
 21
137.1354340621017
 31
0.0
  0
LINE
  5
3113
330
18
100
AcDbEntity
  8
SCHRAFFUR
100
AcDbLine
 10
333.2006937784007
 20
136.7874480984774
 30
0.0
 11
333.8840477417026
 21
136.1040941351755
 31
0.0
  0
LINE
  5
3114
330
18
100
AcDbEntity
  8
SCHRAFFUR
100
AcDbLine
 10
336.7411495861451
 20
137.9074685620398
 30
0.0
 11
337.9519938339212
 21
136.6966243142636
 31
0.0
  0
LINE
  5
3115
330
18
100
AcDbEntity
  8
SCHRAFFUR
100
AcDbLine
 10
337.638062087807
 20
126.5244844499377
 30
0.0
 11
339.7770464564946
 21
124.38550008125
 31
0.0
  0
LINE
  5
3116
330
18
100
AcDbEntity
  8
SCHRAFFUR
100
AcDbLine
 10
337.66018475833
 20
125.3372427115881
 30
0.0
 11
339.8563867748165
 21
123.1410406951012
 31
0.0
  0
LINE
  5
3117
330
18
100
AcDbEntity
  8
SCHRAFFUR
100
AcDbLine
 10
337.6476847643129
 20
121.8543855021251
 30
0.0
 11
339.97949231684
 21
119.5225779495978
 31
0.0
  0
LINE
  5
3118
330
18
100
AcDbEntity
  8
SCHRAFFUR
100
AcDbLine
 10
337.6645611086162
 20
123.0026282256485
 30
0.0
 11
339.956698643348
 21
120.7104906909166
 31
0.0
  0
LINE
  5
3119
330
18
100
AcDbEntity
  8
SCHRAFFUR
100
AcDbLine
 10
337.6186328253885
 20
120.7183183732227
 30
0.0
 11
339.985126632965
 21
118.3518245656463
 31
0.0
  0
LINE
  5
311A
330
18
100
AcDbEntity
  8
SCHRAFFUR
100
AcDbLine
 10
337.668867924839
 20
124.1634404772522
 30
0.0
 11
339.9159528507738
 21
121.9163555513174
 31
0.0
  0
LINE
  5
311B
330
18
100
AcDbEntity
  8
SCHRAFFUR
100
AcDbLine
 10
337.6020184540414
 20
127.7256471515297
 30
0.0
 11
339.6768798181073
 21
125.6507857874638
 31
0.0
  0
LINE
  5
311C
330
18
100
AcDbEntity
  8
SCHRAFFUR
100
AcDbLine
 10
337.5515372100693
 20
128.9412474633287
 30
0.0
 11
339.5547219482868
 21
126.9380627251112
 31
0.0
  0
LINE
  5
311D
330
18
100
AcDbEntity
  8
SCHRAFFUR
100
AcDbLine
 10
337.4860628299797
 20
130.1718409112451
 30
0.0
 11
339.4092774022505
 21
128.2486263389742
 31
0.0
  0
ARC
  5
3154
330
18
100
AcDbEntity
  8
SCHRAFFUR
100
AcDbCircle
 10
608.7573887233912
 20
84.66049105915026
 30
0.0
 40
279.9768187073799
100
AcDbArc
 50
163.9752945424099
 51
167.46402202006
  0
LINE
  5
3155
330
18
100
AcDbEntity
  8
SCHRAFFUR
100
AcDbLine
 10
334.6057004640569
 20
142.3731558197814
 30
0.0
 11
334.8122671402056
 21
142.1665891436325
 31
0.0
  0
LINE
  5
3156
330
18
100
AcDbEntity
  8
SCHRAFFUR
100
AcDbLine
 10
334.3611289708221
 20
141.4526082451895
 30
0.0
 11
334.6371981071333
 21
141.1765391088783
 31
0.0
  0
LINE
  5
3157
330
18
100
AcDbEntity
  8
SCHRAFFUR
100
AcDbLine
 10
334.1206668943408
 20
140.5279512538439
 30
0.0
 11
334.4700597415339
 21
140.1785584066511
 31
0.0
  0
LINE
  5
3158
330
18
100
AcDbEntity
  8
SCHRAFFUR
100
AcDbLine
 10
336.1045058462027
 20
142.0394695054622
 30
0.0
 11
336.7349773650063
 21
141.4089979866586
 31
0.0
  0
LINE
  5
3159
330
18
100
AcDbEntity
  8
SCHRAFFUR
100
AcDbLine
 10
333.8843525629385
 20
139.5991465174196
 30
0.0
 11
334.3110081767717
 21
139.1724909035864
 31
0.0
  0
LINE
  5
315A
330
18
100
AcDbEntity
  8
SCHRAFFUR
100
AcDbLine
 10
333.6522252565668
 20
138.6661547559647
 30
0.0
 11
334.1602068338685
 21
138.1581731786629
 31
0.0
  0
LINE
  5
315B
330
18
100
AcDbEntity
  8
SCHRAFFUR
100
AcDbLine
 10
335.3637018383146
 20
145.1105116490036
 30
0.0
 11
335.3835975084629
 21
145.0906159788555
 31
0.0
  0
LINE
  5
315C
330
18
100
AcDbEntity
  8
SCHRAFFUR
100
AcDbLine
 10
335.5618960701917
 20
144.9123174171265
 30
0.0
 11
335.669267379695
 21
144.8049461076232
 31
0.0
  0
LINE
  5
315D
330
18
100
AcDbEntity
  8
SCHRAFFUR
100
AcDbLine
 10
334.8543439685274
 20
143.2896313831375
 30
0.0
 11
334.9951175693677
 21
143.1488577822975
 31
0.0
  0
LINE
  5
315E
330
18
100
AcDbEntity
  8
SCHRAFFUR
100
AcDbLine
 10
335.8459559200964
 20
143.4631384993954
 30
0.0
 11
336.2315879191962
 21
143.0775065002955
 31
0.0
  0
LINE
  5
315F
330
18
100
AcDbEntity
  8
SCHRAFFUR
100
AcDbLine
 10
335.1070229738674
 20
144.2020714456242
 30
0.0
 11
335.1856065916976
 21
144.1234878277939
 31
0.0
  0
LINE
  5
3160
330
18
100
AcDbEntity
  8
SCHRAFFUR
100
AcDbLine
 10
336.3390239883273
 20
140.6398322955107
 30
0.0
 11
337.1860555983393
 21
139.7928006854991
 31
0.0
  0
LINE
  5
3161
330
18
100
AcDbEntity
  8
SCHRAFFUR
100
AcDbLine
 10
336.5508388163629
 20
139.2628983996488
 30
0.0
 11
337.5902316612384
 21
138.2235055547732
 31
0.0
  0
ARC
  5
3162
330
18
100
AcDbEntity
  8
SCHRAFFUR
100
AcDbCircle
 10
335.2735744776554
 20
163.3795298745495
 30
0.0
 40
4.613636125
100
AcDbArc
 50
54.87621821071552
 51
90.0
  0
ARC
  5
3163
330
18
100
AcDbEntity
  8
SCHRAFFUR
100
AcDbCircle
 10
333.4524309420749
 20
162.8078997200268
 30
0.0
 40
6.23789286328224
100
AcDbArc
 50
350.0054277243053
 51
44.1530313742168
  0
SPLINE
  5
3175
102
{ACAD_REACTORS
330
8085
102
}
330
18
100
AcDbEntity
  8
SCHRAFFUR
100
AcDbSpline
210
0.0
220
0.0
230
1.0
 70
     8
 71
     3
 72
    11
 73
     7
 74
     5
 42
0.0000000001
 43
0.0000000001
 44
0.0000000001
 40
0.0
 40
0.0
 40
0.0
 40
0.0
 40
23.60116297354897
 40
71.92919331732497
 40
125.0953642675956
 40
151.135482151574
 40
151.135482151574
 40
151.135482151574
 40
151.135482151574
 10
126.5755591853571
 20
447.4931659995495
 30
0.0
 10
134.3380201056512
 20
445.805043296999
 30
0.0
 10
157.9956488750378
 20
440.660156820379
 30
0.0
 10
199.5848289759344
 20
454.3257941319467
 30
0.0
 10
241.9990558345093
 20
439.6499538600862
 30
0.0
 10
268.0206236645426
 20
445.5525945817767
 30
0.0
 10
276.5755591853571
 20
447.4931659995495
 30
0.0
 11
126.5755591853571
 21
447.4931659995495
 31
0.0
 11
149.8904962147625
 21
443.8286598910978
 31
0.0
 11
197.9789025448402
 21
448.6352900560135
 31
0.0
 11
250.8761487351484
 21
443.294589821463
 31
0.0
 11
276.5755591853571
 21
447.4931659995495
 31
0.0
  0
LINE
  5
3177
102
{ACAD_REACTORS
330
8085
102
}
330
18
100
AcDbEntity
  8
OBJEKT
100
AcDbLine
 10
126.5755591853571
 20
217.9931659995495
 30
0.0
 11
276.5755591853571
 21
217.9931659995494
 31
0.0
  0
LINE
  5
7A60
330
18
100
AcDbEntity
  8
1
100
AcDbLine
 10
276.5755591853571
 20
298.9931674995495
 30
0.0
 11
276.5755591853571
 21
167.9931659995495
 31
0.0
  0
LINE
  5
7A62
330
18
100
AcDbEntity
  8
1
100
AcDbLine
 10
281.5755591853569
 20
320.9931674995494
 30
0.0
 11
281.5755591853569
 21
318.9931674995494
 31
0.0
  0
LINE
  5
7A63
102
{ACAD_REACTORS
330
7EB1
102
}
330
18
100
AcDbEntity
  8
1
100
AcDbLine
 10
291.5755591853571
 20
285.4931674995494
 30
0.0
 11
291.575559185357
 21
233.9931674995495
 31
0.0
  0
LINE
  5
7A69
102
{ACAD_REACTORS
330
7EB1
102
}
330
18
100
AcDbEntity
  8
1
100
AcDbLine
 10
281.5755591853569
 20
238.9931674995488
 30
0.0
 11
286.5755591853571
 21
233.9931674995493
 31
0.0
  0
LINE
  5
7A6A
102
{ACAD_REACTORS
330
7EB1
102
}
330
18
100
AcDbEntity
  8
1
100
AcDbLine
 10
291.5755591853568
 20
297.9022584086404
 30
0.0
 11
281.5755591853569
 21
296.9931674995495
 31
0.0
  0
LINE
  5
7A6B
330
18
100
AcDbEntity
  8
1
100
AcDbLine
 10
291.5755591853568
 20
320.0840765904585
 30
0.0
 11
281.5755591853569
 21
320.9931674995494
 31
0.0
  0
LINE
  5
7A7A
330
18
100
AcDbEntity
  8
1
100
AcDbLine
 10
286.5755591853571
 20
383.9931674995495
 30
0.0
 11
291.5755591853571
 21
383.9931674995495
 31
0.0
  0
LINE
  5
7A7C
102
{ACAD_REACTORS
330
7EB1
102
}
330
18
100
AcDbEntity
  8
1
100
AcDbLine
 10
291.5755591853571
 20
383.9931674995495
 30
0.0
 11
291.5755591853571
 21
285.4931674995494
 31
0.0
  0
LINE
  5
7A7D
330
18
100
AcDbEntity
  8
1
100
AcDbLine
 10
281.5755591853573
 20
378.9931674995498
 30
0.0
 11
281.5755591853572
 21
318.9931674995493
 31
0.0
  0
LINE
  5
7A7F
102
{ACAD_REACTORS
330
7EB1
102
}
330
18
100
AcDbEntity
  8
1
100
AcDbLine
 10
286.5755591853571
 20
233.9931674995495
 30
0.0
 11
291.5755591853571
 21
233.9931674995495
 31
0.0
  0
LINE
  5
7A80
330
18
100
AcDbEntity
  8
MITTELLINIE
100
AcDbLine
 10
204.2147749841006
 20
308.9931674995494
 30
0.0
 11
317.7736032249222
 21
308.9931674995494
 31
0.0
  0
LINE
  5
7A81
102
{ACAD_REACTORS
330
8085
102
}
330
18
100
AcDbEntity
  8
1
100
AcDbLine
 10
266.5755591853571
 20
393.9931674995494
 30
0.0
 11
276.5755591853571
 21
393.9931674995494
 31
0.0
  0
LINE
  5
7A82
330
18
100
AcDbEntity
  8
1
100
AcDbLine
 10
276.5755591853571
 20
393.9931674995494
 30
0.0
 11
276.5755591853571
 21
318.9931674995493
 31
0.0
  0
LINE
  5
7A83
330
18
100
AcDbEntity
  8
1
100
AcDbLine
 10
281.5755591853569
 20
298.9931674995495
 30
0.0
 11
281.5755591853569
 21
296.9931674995495
 31
0.0
  0
LINE
  5
7A87
330
18
100
AcDbEntity
  8
1
100
AcDbLine
 10
281.5755591853571
 20
378.9931674995495
 30
0.0
 11
286.5755591853571
 21
383.9931674995495
 31
0.0
  0
POINT
  5
7A88
330
18
100
AcDbEntity
  8
DEFPOINTS
  6
ByBlock
 62
     0
100
AcDbPoint
 10
291.5755591853571
 20
360.4931674995494
 30
0.0
  0
POINT
  5
7A89
330
18
100
AcDbEntity
  8
DEFPOINTS
  6
ByBlock
 62
     0
100
AcDbPoint
 10
276.5755591853571
 20
393.9931674995494
 30
0.0
  0
LINE
  5
7A96
330
18
100
AcDbEntity
  8
0
  6
ByBlock
 62
     0
100
AcDbLine
 10
276.5755591853571
 20
319.1931674995494
 30
0.0
 11
276.5755591853571
 21
346.8129308386673
 31
0.0
  0
POINT
  5
7A98
330
18
100
AcDbEntity
  8
DEFPOINTS
  6
ByBlock
 62
     0
100
AcDbPoint
 10
266.5755591853571
 20
318.9931674995494
 30
0.0
  0
POINT
  5
7A99
330
18
100
AcDbEntity
  8
DEFPOINTS
  6
ByBlock
 62
     0
100
AcDbPoint
 10
276.5755591853571
 20
343.2129308386674
 30
0.0
  0
POINT
  5
7A9B
330
18
100
AcDbEntity
  8
DEFPOINTS
  6
ByBlock
 62
     0
100
AcDbPoint
 10
276.5755591853571
 20
393.9931674995494
 30
0.0
  0
POINT
  5
7A9C
330
18
100
AcDbEntity
  8
DEFPOINTS
  6
ByBlock
 62
     0
100
AcDbPoint
 10
281.5755591853573
 20
355.4931674995495
 30
0.0
  0
POINT
  5
7A9D
330
18
100
AcDbEntity
  8
DEFPOINTS
  6
ByBlock
 62
     0
100
AcDbPoint
 10
281.5755591853573
 20
355.4931674995495
 30
0.0
  0
POINT
  5
7A9E
330
18
100
AcDbEntity
  8
DEFPOINTS
  6
ByBlock
 62
     0
100
AcDbPoint
 10
291.5755591853571
 20
360.4931674995494
 30
0.0
  0
POINT
  5
7A9F
330
18
100
AcDbEntity
  8
DEFPOINTS
  6
ByBlock
 62
     0
100
AcDbPoint
 10
281.5755591853573
 20
355.4931674995495
 30
0.0
  0
POINT
  5
7AA0
330
18
100
AcDbEntity
  8
DEFPOINTS
  6
ByBlock
 62
     0
100
AcDbPoint
 10
281.5755591853571
 20
355.4931674995494
 30
0.0
  0
POINT
  5
7AB4
330
18
100
AcDbEntity
  8
DEFPOINTS
  6
ByBlock
 62
     0
100
AcDbPoint
 10
276.5755591853571
 20
387.8496125846688
 30
0.0
  0
LINE
  5
7B45
102
{ACAD_REACTORS
330
7EB1
102
}
330
18
100
AcDbEntity
  8
1
100
AcDbLine
 10
281.5755591853573
 20
221.3137141998065
 30
0.0
 11
281.5755591853573
 21
298.9931674995495
 31
0.0
  0
LINE
  5
7B46
330
18
100
AcDbEntity
  8
SCHRAFFUR
100
AcDbLine
 10
281.5755591853571
 20
321.3137141998065
 30
0.0
 11
276.5755591853571
 21
321.3137141998065
 31
0.0
  0
LINE
  5
7B8C
330
18
100
AcDbEntity
  8
SCHRAFFUR
100
AcDbLine
 10
281.5755591853571
 20
331.3137141998065
 30
0.0
 11
276.5755591853571
 21
331.3137141998065
 31
0.0
  0
LINE
  5
7B8D
330
18
100
AcDbEntity
  8
SCHRAFFUR
100
AcDbLine
 10
281.5755591853571
 20
341.3137141998066
 30
0.0
 11
276.5755591853571
 21
341.3137141998066
 31
0.0
  0
LINE
  5
7B8E
330
18
100
AcDbEntity
  8
SCHRAFFUR
100
AcDbLine
 10
281.5755591853571
 20
361.3137141998066
 30
0.0
 11
276.5755591853571
 21
361.3137141998066
 31
0.0
  0
LINE
  5
7B8F
330
18
100
AcDbEntity
  8
SCHRAFFUR
100
AcDbLine
 10
281.5755591853571
 20
371.3137141998065
 30
0.0
 11
276.5755591853571
 21
371.3137141998065
 31
0.0
  0
LINE
  5
7B90
330
18
100
AcDbEntity
  8
SCHRAFFUR
100
AcDbLine
 10
281.5755591853571
 20
381.3137141998065
 30
0.0
 11
276.5755591853571
 21
381.3137141998065
 31
0.0
  0
LINE
  5
7B91
330
18
100
AcDbEntity
  8
SCHRAFFUR
100
AcDbLine
 10
281.5755591853571
 20
391.3137141998065
 30
0.0
 11
276.5755591853571
 21
391.3137141998065
 31
0.0
  0
LINE
  5
7B92
330
18
100
AcDbEntity
  8
SCHRAFFUR
100
AcDbLine
 10
281.5755591853571
 20
401.3137141998065
 30
0.0
 11
276.5755591853571
 21
401.3137141998065
 31
0.0
  0
LINE
  5
7B93
330
18
100
AcDbEntity
  8
SCHRAFFUR
100
AcDbLine
 10
281.5755591853571
 20
411.3137141998064
 30
0.0
 11
276.5755591853571
 21
411.3137141998064
 31
0.0
  0
LINE
  5
7B94
330
18
100
AcDbEntity
  8
SCHRAFFUR
100
AcDbLine
 10
281.5755591853571
 20
421.3137141998065
 30
0.0
 11
276.5755591853571
 21
421.3137141998065
 31
0.0
  0
LINE
  5
7B95
330
18
100
AcDbEntity
  8
SCHRAFFUR
100
AcDbLine
 10
281.5755591853573
 20
407.8137141998062
 30
0.0
 11
276.5755591853574
 21
407.8137141998062
 31
0.0
  0
SOLID
  5
7B96
330
18
100
AcDbEntity
  8
SCHRAFFUR
100
AcDbTrace
 10
276.5755591853571
 20
321.3137141998065
 30
0.0
 11
276.5755591853571
 21
331.3137141998065
 31
0.0
 12
281.5755591853571
 22
321.3137141998065
 32
0.0
 13
281.5755591853571
 23
331.3137141998065
 33
0.0
  0
SOLID
  5
7B97
330
18
100
AcDbEntity
  8
SCHRAFFUR
100
AcDbTrace
 10
276.5755591853571
 20
361.3137141998066
 30
0.0
 11
276.5755591853571
 21
371.3137141998065
 31
0.0
 12
281.5755591853571
 22
361.3137141998066
 32
0.0
 13
281.5755591853571
 23
371.3137141998065
 33
0.0
  0
SOLID
  5
7B98
330
18
100
AcDbEntity
  8
SCHRAFFUR
100
AcDbTrace
 10
276.5755591853571
 20
381.3137141998065
 30
0.0
 11
281.5755591853571
 21
381.3137141998065
 31
0.0
 12
276.5755591853571
 22
391.3137141998065
 32
0.0
 13
281.5755591853571
 23
391.3137141998065
 33
0.0
  0
SOLID
  5
7B99
330
18
100
AcDbEntity
  8
SCHRAFFUR
100
AcDbTrace
 10
276.5755591853571
 20
401.3137141998065
 30
0.0
 11
276.5755591853571
 21
411.3137141998064
 31
0.0
 12
281.5755591853571
 22
401.3137141998065
 32
0.0
 13
281.5755591853571
 23
411.3137141998064
 33
0.0
  0
LINE
  5
7B9A
330
18
100
AcDbEntity
  8
SCHRAFFUR
100
AcDbLine
 10
281.5755591853573
 20
417.8137141998065
 30
0.0
 11
276.5755591853574
 21
417.8137141998065
 31
0.0
  0
SOLID
  5
7B9B
330
18
100
AcDbEntity
  8
SCHRAFFUR
100
AcDbTrace
 10
276.5755591853575
 20
397.8137141998066
 30
0.0
 11
276.5755591853575
 21
407.8137141998062
 31
0.0
 12
281.5755591853575
 22
397.8137141998066
 32
0.0
 13
281.5755591853575
 23
407.8137141998062
 33
0.0
  0
SOLID
  5
7B9C
330
18
100
AcDbEntity
  8
SCHRAFFUR
100
AcDbTrace
 10
276.5755591853575
 20
417.8137141998065
 30
0.0
 11
276.6303205222139
 21
427.4274750656068
 31
0.0
 12
281.5755591853575
 22
417.8137141998065
 32
0.0
 13
281.5755591853575
 23
425.2640092018522
 33
0.0
  0
SOLID
  5
7B9D
330
18
100
AcDbEntity
  8
SCHRAFFUR
100
AcDbTrace
 10
276.5755591853571
 20
341.3137141998066
 30
0.0
 11
276.5755591853571
 21
351.3137141998066
 31
0.0
 12
281.5755591853571
 22
341.3137141998066
 32
0.0
 13
281.5755591853571
 23
351.3137141998066
 33
0.0
  0
LINE
  5
7B9E
102
{ACAD_REACTORS
330
8085
102
}
330
18
100
AcDbEntity
  8
1
100
AcDbLine
 10
276.5755591853574
 20
370.4931674995494
 30
0.0
 11
276.5755591853571
 21
447.4931659995495
 31
0.0
  0
SOLID
  5
7B9F
330
18
100
AcDbEntity
  8
SCHRAFFUR
100
AcDbTrace
 10
276.5755591853571
 20
261.3137141998066
 30
0.0
 11
276.5755591853571
 21
271.3137141998065
 31
0.0
 12
281.5755591853571
 22
261.3137141998066
 32
0.0
 13
281.5755591853571
 23
271.3137141998065
 33
0.0
  0
LINE
  5
7BA0
330
18
100
AcDbEntity
  8
SCHRAFFUR
100
AcDbLine
 10
281.5755591853571
 20
261.3137141998066
 30
0.0
 11
276.5755591853571
 21
261.3137141998066
 31
0.0
  0
SOLID
  5
7BA1
330
18
100
AcDbEntity
  8
SCHRAFFUR
100
AcDbTrace
 10
276.5755591853571
 20
281.3137141998065
 30
0.0
 11
276.5755591853571
 21
291.3137141998065
 31
0.0
 12
281.5755591853571
 22
281.3137141998065
 32
0.0
 13
281.5755591853571
 23
291.3137141998065
 33
0.0
  0
LINE
  5
7BA2
330
18
100
AcDbEntity
  8
SCHRAFFUR
100
AcDbLine
 10
281.5755591853571
 20
271.3137141998065
 30
0.0
 11
276.5755591853571
 21
271.3137141998065
 31
0.0
  0
LINE
  5
7BA3
330
18
100
AcDbEntity
  8
SCHRAFFUR
100
AcDbLine
 10
281.5755591853571
 20
281.3137141998065
 30
0.0
 11
276.5755591853571
 21
281.3137141998065
 31
0.0
  0
POINT
  5
7BA4
330
18
100
AcDbEntity
  8
SCHRAFFUR
100
AcDbPoint
 10
276.5755591853571
 20
278.9931674995494
 30
0.0
  0
LINE
  5
7BA5
330
18
100
AcDbEntity
  8
SCHRAFFUR
100
AcDbLine
 10
281.5755591853571
 20
291.3137141998065
 30
0.0
 11
276.5755591853571
 21
291.3137141998065
 31
0.0
  0
SOLID
  5
7BA6
330
18
100
AcDbEntity
  8
SCHRAFFUR
100
AcDbTrace
 10
276.5755591853568
 20
241.3137141998066
 30
0.0
 11
276.5755591853568
 21
251.3137141998066
 31
0.0
 12
281.5755591853569
 22
241.3137141998066
 32
0.0
 13
281.5755591853569
 23
251.3137141998066
 33
0.0
  0
LINE
  5
7BA7
330
18
100
AcDbEntity
  8
SCHRAFFUR
100
AcDbLine
 10
281.5755591853569
 20
231.3137141998065
 30
0.0
 11
276.5755591853568
 21
231.3137141998065
 31
0.0
  0
LINE
  5
7BA8
330
18
100
AcDbEntity
  8
1
100
AcDbLine
 10
281.5755591853569
 20
221.3137141998065
 30
0.0
 11
276.5755591853568
 21
221.3137141998065
 31
0.0
  0
SOLID
  5
7BA9
330
18
100
AcDbEntity
  8
SCHRAFFUR
100
AcDbTrace
 10
276.5755591853568
 20
221.3137141998065
 30
0.0
 11
276.5755591853568
 21
231.3137141998065
 31
0.0
 12
281.5755591853569
 22
221.3137141998065
 32
0.0
 13
281.5755591853569
 23
231.3137141998065
 33
0.0
  0
LINE
  5
7BAB
330
18
100
AcDbEntity
  8
SCHRAFFUR
100
AcDbLine
 10
281.5755591853569
 20
241.3137141998066
 30
0.0
 11
276.5755591853568
 21
241.3137141998066
 31
0.0
  0
LINE
  5
7BAC
330
18
100
AcDbEntity
  8
SCHRAFFUR
100
AcDbLine
 10
281.5755591853569
 20
251.3137141998066
 30
0.0
 11
276.5755591853568
 21
251.3137141998066
 31
0.0
  0
ARC
  5
7BAD
330
18
100
AcDbEntity
  8
1
100
AcDbCircle
 10
299.9115350678173
 20
322.1891770816869
 30
0.0
 40
7.164024117539552
100
AcDbArc
 50
322.1211205082803
 51
37.87887949171967
  0
LINE
  5
7BAE
330
18
100
AcDbEntity
  8
1
100
AcDbLine
 10
307.0755591853568
 20
317.7905072209744
 30
0.0
 11
307.0755591853568
 21
295.7971579174116
 31
0.0
  0
LINE
  5
7BAF
330
18
100
AcDbEntity
  8
1
100
AcDbLine
 10
296.0755591853569
 20
326.5878469423995
 30
0.0
 11
305.5661743147674
 21
326.5878469423995
 31
0.0
  0
LINE
  5
7BB0
330
18
100
AcDbEntity
  8
1
100
AcDbLine
 10
296.0755591853569
 20
317.7905072209744
 30
0.0
 11
305.5661743147674
 21
317.7905072209744
 31
0.0
  0
LINE
  5
7BB1
330
18
100
AcDbEntity
  8
1
100
AcDbLine
 10
296.0755591853569
 20
300.1958277781242
 30
0.0
 11
305.5661743147674
 21
300.1958277781242
 31
0.0
  0
LINE
  5
7BB2
330
18
100
AcDbEntity
  8
1
100
AcDbLine
 10
296.0755591853569
 20
291.3984880566991
 30
0.0
 11
305.5661743147676
 21
291.3984880566992
 31
0.0
  0
ARC
  5
7BB3
330
18
100
AcDbEntity
  8
1
100
AcDbCircle
 10
299.9115350678163
 20
295.7971579174116
 30
0.0
 40
7.164024117540452
100
AcDbArc
 50
322.1211205082862
 51
37.8788794917171
  0
ARC
  5
7BB4
330
18
100
AcDbEntity
  8
1
100
AcDbCircle
 10
280.6835400210827
 20
308.9931674995491
 30
0.0
 40
26.39201916427423
100
AcDbArc
 50
340.5287793655086
 51
19.4712206344918
  0
LINE
  5
7BB5
330
18
100
AcDbEntity
  8
1
100
AcDbLine
 10
307.0755591853568
 20
322.1891770816869
 30
0.0
 11
307.0755591853568
 21
317.7905072209744
 31
0.0
  0
LINE
  5
7BB6
330
18
100
AcDbEntity
  8
1
100
AcDbLine
 10
294.5755591853568
 20
323.9931674995494
 30
0.0
 11
294.5755591853568
 21
293.9931674995494
 31
0.0
  0
LINE
  5
7BB7
330
18
100
AcDbEntity
  8
1
100
AcDbLine
 10
296.0755591853569
 20
326.5878469423995
 30
0.0
 11
296.0755591853569
 21
291.3984880566991
 31
0.0
  0
LINE
  5
7BB8
330
18
100
AcDbEntity
  8
1
100
AcDbLine
 10
296.0755591853569
 20
323.9931674995494
 30
0.0
 11
294.5755591853568
 21
323.9931674995494
 31
0.0
  0
LINE
  5
7BB9
330
18
100
AcDbEntity
  8
1
100
AcDbLine
 10
296.0755591853569
 20
293.9931674995494
 30
0.0
 11
294.5755591853568
 21
293.9931674995494
 31
0.0
  0
LINE
  5
7BBA
330
18
100
AcDbEntity
  8
SCHRAFFUR
100
AcDbLine
 10
291.5755591853568
 20
318.9931674995494
 30
0.0
 11
251.1090591853569
 21
318.9931674995492
 31
0.0
  0
LINE
  5
7BBB
330
18
100
AcDbEntity
  8
1
100
AcDbLine
 10
239.5755591853568
 20
317.4596674995493
 30
0.0
 11
239.5755591853568
 21
300.5266674995495
 31
0.0
  0
LINE
  5
7BBC
330
18
100
AcDbEntity
  8
1
100
AcDbLine
 10
241.1090591853568
 20
318.9931674995492
 30
0.0
 11
241.1090591853568
 21
298.9931674995494
 31
0.0
  0
LINE
  5
7BBD
330
18
100
AcDbEntity
  8
SCHRAFFUR
100
AcDbLine
 10
288.8524592719499
 20
317.4596674995494
 30
0.0
 11
249.5755591853568
 21
317.4596674995493
 31
0.0
  0
LINE
  5
7BBE
330
18
100
AcDbEntity
  8
1
100
AcDbLine
 10
239.5755591853568
 20
317.4596674995493
 30
0.0
 11
241.1090591853568
 21
318.9931674995492
 31
0.0
  0
LINE
  5
7BBF
330
18
100
AcDbEntity
  8
SCHRAFFUR
100
AcDbLine
 10
288.8524592719499
 20
317.4596674995494
 30
0.0
 11
291.5755591853568
 21
318.189319922256
 31
0.0
  0
LINE
  5
7BC0
330
18
100
AcDbEntity
  8
1
100
AcDbLine
 10
288.8524592719499
 20
318.9931674995494
 30
0.0
 11
288.8524592719499
 21
298.9931674995495
 31
0.0
  0
LINE
  5
7BC1
330
18
100
AcDbEntity
  8
SCHRAFFUR
100
AcDbLine
 10
288.85245927195
 20
300.5266674995495
 30
0.0
 11
249.575559185357
 21
300.5266674995495
 31
0.0
  0
LINE
  5
7BC2
330
18
100
AcDbEntity
  8
SCHRAFFUR
100
AcDbLine
 10
291.5755591853568
 20
298.9931674995495
 30
0.0
 11
251.1090591853569
 21
298.9931674995494
 31
0.0
  0
LINE
  5
7BC3
330
18
100
AcDbEntity
  8
1
100
AcDbLine
 10
239.575559185357
 20
300.5266674995495
 30
0.0
 11
241.1090591853569
 21
298.9931674995494
 31
0.0
  0
LINE
  5
7BC4
330
18
100
AcDbEntity
  8
SCHRAFFUR
100
AcDbLine
 10
288.8524592719499
 20
300.5266674995495
 30
0.0
 11
291.5755591853568
 21
299.7970150768428
 31
0.0
  0
LINE
  5
7BC5
330
18
100
AcDbEntity
  8
1
100
AcDbLine
 10
294.5755591853568
 20
327.4931674995494
 30
0.0
 11
294.5755591853568
 21
290.4931674995494
 31
0.0
  0
LINE
  5
7BC6
330
18
100
AcDbEntity
  8
1
100
AcDbLine
 10
291.5755591853568
 20
327.4931674995494
 30
0.0
 11
291.5755591853568
 21
290.4931674995494
 31
0.0
  0
LINE
  5
7BC7
330
18
100
AcDbEntity
  8
1
100
AcDbLine
 10
294.5755591853568
 20
327.4931674995494
 30
0.0
 11
291.5755591853568
 21
327.4931674995494
 31
0.0
  0
LINE
  5
7BC8
330
18
100
AcDbEntity
  8
1
100
AcDbLine
 10
294.5755591853568
 20
290.4931674995494
 30
0.0
 11
291.5755591853568
 21
290.4931674995494
 31
0.0
  0
LINE
  5
7BCD
330
18
100
AcDbEntity
  8
1
100
AcDbLine
 10
281.5755591853572
 20
298.9931674995495
 30
0.0
 11
281.5755591853571
 21
297.4931674995494
 31
0.0
  0
LINE
  5
7D6B
330
18
100
AcDbEntity
  8
1
100
AcDbLine
 10
281.5755591853573
 20
318.9931674995494
 30
0.0
 11
281.5755591853573
 21
425.2640092018522
 31
0.0
  0
DIMENSION
  5
7DDD
330
18
100
AcDbEntity
  8
5
100
AcDbDimension
  2
*D14
 10
425.4445664528828
 20
-116.0068325004503
 30
0.0
 11
415.6445664528828
 21
138.9931674995495
 31
0.0
 70
    32
  1
D5
 71
     5
 42
509.9999999999996
  3
ISOCP-2000-1-1
100
AcDbAlignedDimension
 13
276.5755591853571
 23
393.9931674995494
 33
0.0
 14
276.5755591853571
 24
-116.0068325004503
 34
0.0
 50
90.0
100
AcDbRotatedDimension
1001
ACAD
1000
DSTYLE
1002
{
1070
    40
1040
2.799999999999998
1070
   340
1005
102
1002
}
  0
HATCH
  5
7EA4
330
18
100
AcDbEntity
  8
SCHRAFFUR
100
AcDbHatch
 10
0.0
 20
0.0
 30
0.0
210
0.0
220
0.0
230
1.0
  2
ANSI31
 70
     0
 71
     0
 91
        3
 92
        7
 72
     0
 73
     1
 93
        6
 10
291.575559185357
 20
383.9931674995495
 10
286.5755591853571
 20
383.9931674995495
 10
281.5755591853573
 20
378.9931674995498
 10
281.5755591853573
 20
320.9931674995493
 10
291.5755591853568
 20
320.0840765904585
 10
291.5755591853568
 20
327.4931674995494
 97
        0
 92
        7
 72
     0
 73
     1
 93
        7
 10
291.5755591853575
 20
43.99316749954957
 10
286.5755591853574
 20
43.99316749954956
 10
281.5755591853575
 20
38.99316749955065
 10
281.5755591853575
 20
-19.00683250045046
 10
291.5755591853572
 20
-19.91592340954125
 10
291.5755591853572
 20
-12.50683250045026
 10
291.5755591853575
 20
-7.506832500450315
 97
        0
 92
        7
 72
     0
 73
     1
 93
        5
 10
291.5755591853575
 20
-42.09774159135938
 10
281.5755591853575
 20
-43.00683250045028
 10
281.5755591853575
 20
-101.0068325004504
 10
286.5755591853576
 20
-106.0068325004504
 10
291.5755591853575
 20
-106.0068325004504
 97
        0
 75
     0
 76
     1
 52
90.0
 41
1.0
 77
     0
 78
     1
 53
135.0
 43
0.0
 44
0.0
 45
-2.245064030267287
 46
-2.245064030267287
 79
     0
 47
1.371863900783724
 98
        3
 10
286.7459523281705
 20
362.8015279083673
 10
286.7459523281705
 20
30.81046392718861
 10
288.1184478401895
 20
-61.10441767158931
  0
HATCH
  5
7EB1
330
18
100
AcDbEntity
  8
SCHRAFFUR
100
AcDbHatch
 10
0.0
 20
0.0
 30
0.0
210
0.0
220
0.0
230
1.0
  2
ANSI31
 70
     0
 71
     1
 91
        1
 92
        7
 72
     0
 73
     1
 93
        6
 10
291.5755591853571
 20
285.4931674995494
 10
291.5755591853571
 20
297.9022584086404
 10
281.5755591853575
 20
296.9931674995495
 10
281.5755591853573
 20
238.9931674995482
 10
286.5755591853567
 20
233.9931674995495
 10
291.575559185357
 20
233.9931674995496
 97
        6
330
7A7C
330
7A6A
330
7B45
330
7A69
330
7A7F
330
7A63
 75
     0
 76
     1
 52
90.0
 41
1.0
 77
     0
 78
     1
 53
135.0
 43
0.0
 44
0.0
 45
-2.245064030267287
 46
-2.245064030267287
 79
     0
 47
1.371863900783724
 98
        1
 10
286.7459523281705
 20
264.0273268581864
  0
INSERT
  5
7FD2
330
18
100
AcDbEntity
  8
SCHRAFFUR
100
AcDbBlockReference
  2
*X15
 10
98.92920311060109
 20
-176.5778598551005
 30
0.0
 41
-1.0
 50
270.0
  0
LINE
  5
7FD3
330
18
100
AcDbEntity
  8
1
 62
     7
100
AcDbLine
 10
221.575559185357
 20
300.5266674995494
 30
0.0
 11
266.5755591853571
 21
300.5266674995494
 31
0.0
  0
LINE
  5
7FD4
330
18
100
AcDbEntity
  8
1
 62
     7
100
AcDbLine
 10
221.5755591853571
 20
317.4596674995494
 30
0.0
 11
266.5755591853571
 21
317.4596674995494
 31
0.0
  0
LINE
  5
7FD5
330
18
100
AcDbEntity
  8
1
100
AcDbLine
 10
221.5755591853571
 20
317.4596674995494
 30
0.0
 11
221.5755591853571
 21
318.9931674995494
 31
0.0
  0
LINE
  5
7FD6
330
18
100
AcDbEntity
  8
1
100
AcDbLine
 10
221.575559185357
 20
300.5266674995494
 30
0.0
 11
221.5755591853571
 21
317.4596674995494
 31
0.0
  0
LINE
  5
7FD8
330
18
100
AcDbEntity
  8
1
100
AcDbLine
 10
205.4883727543602
 20
308.9931674995493
 30
0.0
 11
210.575559185357
 21
300.5266674995492
 31
0.0
  0
LINE
  5
7FD9
330
18
100
AcDbEntity
  8
1
100
AcDbLine
 10
205.4883727543602
 20
308.9931674995493
 30
0.0
 11
210.5755591853571
 21
317.4596674995494
 31
0.0
  0
LINE
  5
7FDA
102
{ACAD_REACTORS
330
8085
102
}
330
18
100
AcDbEntity
  8
1
100
AcDbLine
 10
196.5755591853571
 20
326.4931674995493
 30
0.0
 11
266.5755591853571
 21
326.4931674995494
 31
0.0
  0
LINE
  5
7FDB
102
{ACAD_REACTORS
330
8085
102
}
330
18
100
AcDbEntity
  8
1
100
AcDbLine
 10
196.5755591853571
 20
291.4931674995493
 30
0.0
 11
266.5755591853571
 21
291.4931674995494
 31
0.0
  0
LINE
  5
7FDC
102
{ACAD_REACTORS
330
8085
102
}
330
18
100
AcDbEntity
  8
1
100
AcDbLine
 10
196.5755591853571
 20
291.4931674995493
 30
0.0
 11
196.5755591853571
 21
326.4931674995494
 31
0.0
  0
LINE
  5
7FDD
330
18
100
AcDbEntity
  8
1
100
AcDbLine
 10
210.5755591853571
 20
300.5266674995494
 30
0.0
 11
210.5755591853571
 21
317.4596674995493
 31
0.0
  0
LINE
  5
7FDE
330
18
100
AcDbEntity
  8
1
100
AcDbLine
 10
221.575559185357
 20
298.9931674995493
 30
0.0
 11
221.575559185357
 21
300.5266674995494
 31
0.0
  0
LINE
  5
7FDF
330
18
100
AcDbEntity
  8
1
100
AcDbLine
 10
266.5755591853571
 20
318.9931674995494
 30
0.0
 11
266.5755591853571
 21
319.9931674995494
 31
0.0
  0
LINE
  5
7FE0
330
18
100
AcDbEntity
  8
4
 62
     2
100
AcDbLine
 10
221.575559185357
 20
298.9931674995494
 30
0.0
 11
266.5755591853571
 21
298.9931674995494
 31
0.0
  0
LINE
  5
7FE1
330
18
100
AcDbEntity
  8
4
 62
     2
100
AcDbLine
 10
221.5755591853571
 20
318.9931674995494
 30
0.0
 11
266.5755591853571
 21
318.9931674995494
 31
0.0
  0
LINE
  5
7FE2
330
18
100
AcDbEntity
  8
1
 62
     7
100
AcDbLine
 10
210.5755591853571
 20
300.5266674995494
 30
0.0
 11
221.575559185357
 21
300.5266674995494
 31
0.0
  0
LINE
  5
7FE3
330
18
100
AcDbEntity
  8
1
 62
     7
100
AcDbLine
 10
210.5755591853571
 20
317.4596674995494
 30
0.0
 11
221.5755591853571
 21
317.4596674995494
 31
0.0
  0
LINE
  5
7FE5
330
18
100
AcDbEntity
  8
1
100
AcDbLine
 10
266.5755591853571
 20
319.9931674995494
 30
0.0
 11
266.5755591853571
 21
326.4931674995494
 31
0.0
  0
LINE
  5
7FE7
102
{ACAD_REACTORS
330
8085
102
}
330
18
100
AcDbEntity
  8
OBJEKT
100
AcDbLine
 10
266.5755591853571
 20
393.9931674995494
 30
0.0
 11
266.5755591853571
 21
326.4931674995494
 31
0.0
  0
LINE
  5
7FE8
102
{ACAD_REACTORS
330
8085
102
}
330
18
100
AcDbEntity
  8
OBJEKT
100
AcDbLine
 10
266.5755591853571
 20
298.9931674995494
 30
0.0
 11
266.5755591853571
 21
217.9931659995494
 31
0.0
  0
LINE
  5
7FEB
102
{ACAD_REACTORS
330
7FF2
330
8085
102
}
330
18
100
AcDbEntity
  8
1
100
AcDbLine
 10
266.5755591853571
 20
222.4479387210247
 30
0.0
 11
262.1207864638818
 21
217.9931659995494
 31
0.0
  0
LINE
  5
7FEC
102
{ACAD_REACTORS
330
7FF2
102
}
330
18
100
AcDbEntity
  8
1
100
AcDbLine
 10
266.5755591853571
 20
217.9931659995494
 30
0.0
 11
266.5755591853571
 21
222.4479387210247
 31
0.0
  0
LINE
  5
7FED
102
{ACAD_REACTORS
330
7FF2
102
}
330
18
100
AcDbEntity
  8
1
100
AcDbLine
 10
262.1207864638818
 20
217.9931659995494
 30
0.0
 11
266.5755591853571
 21
217.9931659995494
 31
0.0
  0
HATCH
  5
7FF2
330
18
100
AcDbEntity
  8
OBJEKT
100
AcDbHatch
 10
0.0
 20
0.0
 30
0.0
210
0.0
220
0.0
230
1.0
  2
SOLID
 70
     1
 71
     1
 91
        1
 92
        7
 72
     0
 73
     1
 93
        3
 10
266.5755591853571
 20
222.4479387210247
 10
262.1207864638818
 20
217.9931659995494
 10
266.5755591853571
 20
217.9931659995494
 97
        3
330
7FEB
330
7FED
330
7FEC
 75
     0
 76
     1
 47
0.1010149917254375
 98
        1
 10
265.2472760724631
 20
218.8141476830701
450
        0
451
        0
460
0.0
461
0.0
452
        0
462
0.0
453
        0
470

  0
LINE
  5
7FF3
102
{ACAD_REACTORS
330
8085
102
}
330
18
100
AcDbEntity
  8
OBJEKT
100
AcDbLine
 10
126.5755591853571
 20
59.99316899954958
 30
0.0
 11
276.5755591853571
 21
59.99316899954965
 31
0.0
  0
LINE
  5
7FF4
330
18
100
AcDbEntity
  8
1
100
AcDbLine
 10
205.4883727543602
 20
-31.00683250045023
 30
0.0
 11
210.575559185357
 21
-22.54033250045012
 31
0.0
  0
LINE
  5
7FF5
330
18
100
AcDbEntity
  8
1
100
AcDbLine
 10
205.4883727543602
 20
-31.00683250045023
 30
0.0
 11
210.5755591853571
 21
-39.47333250045029
 31
0.0
  0
LINE
  5
7FF6
102
{ACAD_REACTORS
330
8085
102
}
330
18
100
AcDbEntity
  8
1
100
AcDbLine
 10
196.5755591853571
 20
-48.50683250045022
 30
0.0
 11
266.5755591853571
 21
-48.50683250045029
 31
0.0
  0
LINE
  5
7FF7
102
{ACAD_REACTORS
330
8085
102
}
330
18
100
AcDbEntity
  8
1
100
AcDbLine
 10
196.5755591853571
 20
-13.50683250045023
 30
0.0
 11
266.5755591853571
 21
-13.50683250045028
 31
0.0
  0
INSERT
  5
7FF8
330
18
100
AcDbEntity
  8
SCHRAFFUR
100
AcDbBlockReference
  2
*X15
 10
98.92920311060109
 20
454.5641948541994
 30
0.0
 50
270.0
  0
LINE
  5
7FF9
330
18
100
AcDbEntity
  8
MITTELLINIE
100
AcDbLine
 10
204.2147749841006
 20
-31.00683250045029
 30
0.0
 11
317.7736032249222
 21
-31.00683250045029
 31
0.0
  0
LINE
  5
7FFA
330
18
100
AcDbEntity
  8
OBJEKT
100
AcDbLine
 10
126.5755591853571
 20
64.99316899954959
 30
0.0
 11
276.5755591853571
 21
64.99316899954959
 31
0.0
  0
LINE
  5
7FFB
102
{ACAD_REACTORS
330
8085
102
}
330
18
100
AcDbEntity
  8
1
100
AcDbLine
 10
196.5755591853571
 20
-13.50683250045023
 30
0.0
 11
196.5755591853571
 21
-48.50683250045029
 31
0.0
  0
LINE
  5
7FFC
330
18
100
AcDbEntity
  8
1
100
AcDbLine
 10
239.5755591853568
 20
-39.47333250045017
 30
0.0
 11
239.5755591853568
 21
-22.5403325004504
 31
0.0
  0
LINE
  5
7FFD
330
18
100
AcDbEntity
  8
1
100
AcDbLine
 10
241.1090591853568
 20
-41.00683250045017
 30
0.0
 11
241.1090591853568
 21
-21.00683250045029
 31
0.0
  0
LINE
  5
7FFE
330
18
100
AcDbEntity
  8
1
100
AcDbLine
 10
221.575559185357
 20
-22.54033250045035
 30
0.0
 11
221.5755591853571
 21
-39.47333250045036
 31
0.0
  0
LINE
  5
7FFF
330
18
100
AcDbEntity
  8
1
100
AcDbLine
 10
210.5755591853571
 20
-22.54033250045029
 30
0.0
 11
210.5755591853571
 21
-39.47333250045023
 31
0.0
  0
LINE
  5
8000
330
18
100
AcDbEntity
  8
1
100
AcDbLine
 10
291.5755591853568
 20
-49.50683250045027
 30
0.0
 11
291.5755591853568
 21
-12.50683250045028
 31
0.0
  0
LINE
  5
8001
330
18
100
AcDbEntity
  8
1
100
AcDbLine
 10
294.5755591853568
 20
-49.50683250045027
 30
0.0
 11
294.5755591853568
 21
-12.50683250045028
 31
0.0
  0
LINE
  5
8002
330
18
100
AcDbEntity
  8
1
100
AcDbLine
 10
288.8524592719499
 20
-41.00683250045029
 30
0.0
 11
288.8524592719499
 21
-21.0068325004504
 31
0.0
  0
LINE
  5
8003
330
18
100
AcDbEntity
  8
1
100
AcDbLine
 10
296.0755591853569
 20
-48.60151194330035
 30
0.0
 11
296.0755591853569
 21
-13.41215305759999
 31
0.0
  0
LINE
  5
8004
330
18
100
AcDbEntity
  8
1
100
AcDbLine
 10
294.5755591853568
 20
-46.00683250045029
 30
0.0
 11
294.5755591853568
 21
-16.00683250045029
 31
0.0
  0
ARC
  5
8005
330
18
100
AcDbEntity
  8
1
100
AcDbCircle
 10
280.6835400210827
 20
-31.00683250045006
 30
0.0
 40
26.39201916427423
100
AcDbArc
 50
340.5287793655082
 51
19.47122063449141
  0
LINE
  5
8006
330
18
100
AcDbEntity
  8
1
100
AcDbLine
 10
307.0755591853568
 20
-39.80417222187532
 30
0.0
 11
307.0755591853568
 21
-17.81082291831251
 31
0.0
  0
LINE
  5
8007
330
18
100
AcDbEntity
  8
1
100
AcDbLine
 10
291.5755591853571
 20
-106.0068325004504
 30
0.0
 11
291.5755591853571
 21
-7.506832500450342
 31
0.0
  0
LINE
  5
8008
330
18
100
AcDbEntity
  8
SCHRAFFUR
100
AcDbLine
 10
291.5755591853568
 20
-21.0068325004504
 30
0.0
 11
251.1090591853569
 21
-21.00683250045029
 31
0.0
  0
LINE
  5
8009
330
18
100
AcDbEntity
  8
SCHRAFFUR
100
AcDbLine
 10
288.85245927195
 20
-22.5403325004504
 30
0.0
 11
249.575559185357
 21
-22.5403325004504
 31
0.0
  0
LINE
  5
800A
330
18
100
AcDbEntity
  8
1
 62
     7
100
AcDbLine
 10
221.575559185357
 20
-22.54033250045035
 30
0.0
 11
266.5755591853571
 21
-22.54033250045035
 31
0.0
  0
LINE
  5
800B
330
18
100
AcDbEntity
  8
4
 62
     2
100
AcDbLine
 10
221.575559185357
 20
-21.00683250045029
 30
0.0
 11
266.5755591853571
 21
-21.00683250045029
 31
0.0
  0
LINE
  5
800C
330
18
100
AcDbEntity
  8
1
 62
     7
100
AcDbLine
 10
210.5755591853571
 20
-22.54033250045035
 30
0.0
 11
221.575559185357
 21
-22.54033250045035
 31
0.0
  0
LINE
  5
800D
330
18
100
AcDbEntity
  8
1
100
AcDbLine
 10
221.575559185357
 20
-21.00683250045023
 30
0.0
 11
221.575559185357
 21
-22.54033250045035
 31
0.0
  0
LINE
  5
800E
330
18
100
AcDbEntity
  8
1
100
AcDbLine
 10
239.575559185357
 20
-22.5403325004504
 30
0.0
 11
241.1090591853569
 21
-21.00683250045029
 31
0.0
  0
LINE
  5
800F
102
{ACAD_REACTORS
330
8085
102
}
330
18
100
AcDbEntity
  8
OBJEKT
100
AcDbLine
 10
266.5755591853571
 20
-21.00683250045029
 30
0.0
 11
266.5755591853571
 21
59.99316899954965
 31
0.0
  0
HATCH
  5
8010
330
18
100
AcDbEntity
  8
OBJEKT
100
AcDbHatch
 10
0.0
 20
0.0
 30
0.0
210
0.0
220
0.0
230
1.0
  2
SOLID
 70
     1
 71
     0
 91
        1
 92
        7
 72
     0
 73
     1
 93
        3
 10
266.5755591853571
 20
55.5383962780744
 10
262.1207864638818
 20
59.99316899954965
 10
266.5755591853571
 20
59.99316899954965
 97
        0
 75
     0
 76
     1
 47
0.1010149917254375
 98
        1
 10
265.2472760724631
 20
59.17218731602896
450
        0
451
        0
460
0.0
461
0.0
452
        0
462
0.0
453
        0
470

  0
LINE
  5
8011
102
{ACAD_REACTORS
330
8085
102
}
330
18
100
AcDbEntity
  8
1
100
AcDbLine
 10
266.5755591853571
 20
55.5383962780744
 30
0.0
 11
262.1207864638818
 21
59.99316899954965
 31
0.0
  0
LINE
  5
8012
330
18
100
AcDbEntity
  8
1
100
AcDbLine
 10
266.5755591853571
 20
59.99316899954965
 30
0.0
 11
266.5755591853571
 21
55.5383962780744
 31
0.0
  0
LINE
  5
8013
330
18
100
AcDbEntity
  8
1
100
AcDbLine
 10
262.1207864638818
 20
59.99316899954965
 30
0.0
 11
266.5755591853571
 21
59.99316899954965
 31
0.0
  0
LINE
  5
8014
330
18
100
AcDbEntity
  8
1
100
AcDbLine
 10
266.5755591853571
 20
-20.00683250045029
 30
0.0
 11
266.5755591853571
 21
-21.00683250045029
 31
0.0
  0
LINE
  5
8017
330
18
100
AcDbEntity
  8
1
100
AcDbLine
 10
291.5755591853571
 20
-7.506832500450342
 30
0.0
 11
291.575559185357
 21
43.99316749954954
 31
0.0
  0
LINE
  5
8018
330
18
100
AcDbEntity
  8
1
100
AcDbLine
 10
281.5755591853571
 20
-19.0068325004504
 30
0.0
 11
281.5755591853573
 21
56.67262079929254
 31
0.0
  0
SOLID
  5
801B
330
18
100
AcDbEntity
  8
SCHRAFFUR
100
AcDbTrace
 10
276.5755591853568
 20
56.67262079929254
 30
0.0
 11
276.5755591853568
 21
46.67262079929254
 31
0.0
 12
281.5755591853569
 22
56.67262079929254
 32
0.0
 13
281.5755591853569
 23
46.67262079929254
 33
0.0
  0
LINE
  5
801C
330
18
100
AcDbEntity
  8
1
100
AcDbLine
 10
281.5755591853569
 20
56.67262079929254
 30
0.0
 11
276.5755591853568
 21
56.67262079929254
 31
0.0
  0
LINE
  5
801D
330
18
100
AcDbEntity
  8
SCHRAFFUR
100
AcDbLine
 10
281.5755591853569
 20
46.67262079929254
 30
0.0
 11
276.5755591853568
 21
46.67262079929254
 31
0.0
  0
LINE
  5
801E
330
18
100
AcDbEntity
  8
1
100
AcDbLine
 10
281.5755591853569
 20
38.99316749955028
 30
0.0
 11
286.5755591853571
 21
43.99316749954983
 31
0.0
  0
SOLID
  5
801F
330
18
100
AcDbEntity
  8
SCHRAFFUR
100
AcDbTrace
 10
276.5755591853568
 20
36.67262079929253
 30
0.0
 11
276.5755591853568
 21
26.67262079929253
 31
0.0
 12
281.5755591853569
 22
36.67262079929253
 32
0.0
 13
281.5755591853569
 23
26.67262079929253
 33
0.0
  0
LINE
  5
8020
330
18
100
AcDbEntity
  8
SCHRAFFUR
100
AcDbLine
 10
281.5755591853569
 20
36.67262079929253
 30
0.0
 11
276.5755591853568
 21
36.67262079929253
 31
0.0
  0
LINE
  5
8021
330
18
100
AcDbEntity
  8
SCHRAFFUR
100
AcDbLine
 10
281.5755591853569
 20
26.67262079929253
 30
0.0
 11
276.5755591853568
 21
26.67262079929253
 31
0.0
  0
LINE
  5
8022
330
18
100
AcDbEntity
  8
1
100
AcDbLine
 10
286.5755591853571
 20
43.99316749954954
 30
0.0
 11
291.5755591853571
 21
43.99316749954954
 31
0.0
  0
LINE
  5
8023
330
18
100
AcDbEntity
  8
1
100
AcDbLine
 10
294.5755591853568
 20
-12.50683250045028
 30
0.0
 11
291.5755591853568
 21
-12.50683250045028
 31
0.0
  0
SOLID
  5
8024
330
18
100
AcDbEntity
  8
SCHRAFFUR
100
AcDbTrace
 10
276.5755591853571
 20
-3.327379200707468
 30
0.0
 11
276.5755591853571
 21
-13.32737920070747
 31
0.0
 12
281.5755591853571
 22
-3.327379200707468
 32
0.0
 13
281.5755591853571
 23
-13.32737920070747
 33
0.0
  0
LINE
  5
8025
330
18
100
AcDbEntity
  8
SCHRAFFUR
100
AcDbLine
 10
281.5755591853571
 20
6.672620799292531
 30
0.0
 11
276.5755591853571
 21
6.672620799292531
 31
0.0
  0
LINE
  5
8026
330
18
100
AcDbEntity
  8
SCHRAFFUR
100
AcDbLine
 10
281.5755591853571
 20
16.67262079929253
 30
0.0
 11
276.5755591853571
 21
16.67262079929253
 31
0.0
  0
SOLID
  5
8027
330
18
100
AcDbEntity
  8
SCHRAFFUR
100
AcDbTrace
 10
276.5755591853571
 20
16.67262079929253
 30
0.0
 11
276.5755591853571
 21
6.672620799292531
 31
0.0
 12
281.5755591853571
 22
16.67262079929253
 32
0.0
 13
281.5755591853571
 23
6.672620799292531
 33
0.0
  0
LINE
  5
8028
330
18
100
AcDbEntity
  8
SCHRAFFUR
100
AcDbLine
 10
281.5755591853571
 20
-3.327379200707468
 30
0.0
 11
276.5755591853571
 21
-3.327379200707468
 31
0.0
  0
POINT
  5
8029
330
18
100
AcDbEntity
  8
SCHRAFFUR
100
AcDbPoint
 10
276.5755591853571
 20
-1.006832500450285
 30
0.0
  0
LINE
  5
802A
330
18
100
AcDbEntity
  8
1
100
AcDbLine
 10
291.5755591853568
 20
-19.91592340954128
 30
0.0
 11
281.5755591853569
 21
-19.0068325004504
 31
0.0
  0
LINE
  5
802B
330
18
100
AcDbEntity
  8
SCHRAFFUR
100
AcDbLine
 10
281.5755591853571
 20
-13.32737920070747
 30
0.0
 11
276.5755591853571
 21
-13.32737920070747
 31
0.0
  0
LINE
  5
802C
330
18
100
AcDbEntity
  8
1
100
AcDbLine
 10
281.5755591853572
 20
-21.0068325004504
 30
0.0
 11
281.5755591853571
 21
-19.50683250045034
 31
0.0
  0
LINE
  5
802D
330
18
100
AcDbEntity
  8
1
100
AcDbLine
 10
281.5755591853569
 20
-21.0068325004504
 30
0.0
 11
281.5755591853569
 21
-19.0068325004504
 31
0.0
  0
LINE
  5
802E
330
18
100
AcDbEntity
  8
SCHRAFFUR
100
AcDbLine
 10
288.8524592719499
 20
-22.5403325004504
 30
0.0
 11
291.5755591853568
 21
-21.81068007774377
 31
0.0
  0
LINE
  5
802F
330
18
100
AcDbEntity
  8
1
100
AcDbLine
 10
296.0755591853569
 20
-13.41215305759999
 30
0.0
 11
305.5661743147676
 21
-13.41215305760011
 31
0.0
  0
LINE
  5
8030
330
18
100
AcDbEntity
  8
1
100
AcDbLine
 10
296.0755591853569
 20
-22.20949277902514
 30
0.0
 11
305.5661743147674
 21
-22.20949277902514
 31
0.0
  0
LINE
  5
8031
330
18
100
AcDbEntity
  8
1
100
AcDbLine
 10
296.0755591853569
 20
-16.00683250045029
 30
0.0
 11
294.5755591853568
 21
-16.00683250045029
 31
0.0
  0
ARC
  5
8032
330
18
100
AcDbEntity
  8
1
100
AcDbCircle
 10
299.9115350678163
 20
-17.81082291831251
 30
0.0
 40
7.164024117540452
100
AcDbArc
 50
322.121120508283
 51
37.87887949171383
  0
LINE
  5
8033
330
18
100
AcDbEntity
  8
SCHRAFFUR
100
AcDbLine
 10
288.8524592719499
 20
-39.47333250045029
 30
0.0
 11
249.5755591853568
 21
-39.47333250045017
 31
0.0
  0
LINE
  5
8034
330
18
100
AcDbEntity
  8
SCHRAFFUR
100
AcDbLine
 10
291.5755591853568
 20
-41.00683250045029
 30
0.0
 11
251.1090591853569
 21
-41.00683250045017
 31
0.0
  0
LINE
  5
8035
102
{ACAD_REACTORS
330
8085
102
}
330
18
100
AcDbEntity
  8
1
100
AcDbLine
 10
266.5755591853571
 20
-116.0068325004503
 30
0.0
 11
276.5755591853571
 21
-116.0068325004503
 31
0.0
  0
LINE
  5
8036
330
18
100
AcDbEntity
  8
1
 62
     7
100
AcDbLine
 10
221.5755591853571
 20
-39.47333250045036
 30
0.0
 11
266.5755591853571
 21
-39.47333250045036
 31
0.0
  0
LINE
  5
8037
330
18
100
AcDbEntity
  8
4
 62
     2
100
AcDbLine
 10
221.5755591853571
 20
-41.00683250045029
 30
0.0
 11
266.5755591853571
 21
-41.00683250045029
 31
0.0
  0
LINE
  5
8038
330
18
100
AcDbEntity
  8
1
 62
     7
100
AcDbLine
 10
210.5755591853571
 20
-39.47333250045036
 30
0.0
 11
221.5755591853571
 21
-39.47333250045036
 31
0.0
  0
LINE
  5
8039
330
18
100
AcDbEntity
  8
1
100
AcDbLine
 10
221.5755591853571
 20
-39.47333250045036
 30
0.0
 11
221.5755591853571
 21
-41.00683250045029
 31
0.0
  0
LINE
  5
803A
330
18
100
AcDbEntity
  8
1
100
AcDbLine
 10
239.5755591853568
 20
-39.47333250045017
 30
0.0
 11
241.1090591853568
 21
-41.00683250045017
 31
0.0
  0
LINE
  5
803B
102
{ACAD_REACTORS
330
8085
102
}
330
18
100
AcDbEntity
  8
OBJEKT
100
AcDbLine
 10
266.5755591853571
 20
-116.0068325004503
 30
0.0
 11
266.5755591853571
 21
-48.50683250045029
 31
0.0
  0
POINT
  5
803C
330
18
100
AcDbEntity
  8
DEFPOINTS
  6
ByBlock
 62
     0
100
AcDbPoint
 10
266.5755591853571
 20
-41.00683250045029
 30
0.0
  0
LINE
  5
803D
330
18
100
AcDbEntity
  8
1
100
AcDbLine
 10
266.5755591853571
 20
-41.00683250045034
 30
0.0
 11
266.5755591853571
 21
-42.00683250045027
 31
0.0
  0
LINE
  5
803E
330
18
100
AcDbEntity
  8
1
100
AcDbLine
 10
266.5755591853571
 20
-42.00683250045027
 30
0.0
 11
266.5755591853571
 21
-48.50683250045029
 31
0.0
  0
SOLID
  5
803F
330
18
100
AcDbEntity
  8
SCHRAFFUR
100
AcDbTrace
 10
276.5755591853575
 20
-139.8273792007074
 30
0.0
 11
276.6303205222139
 21
-149.4411400665078
 31
0.0
 12
281.5755591853575
 22
-139.8273792007074
 32
0.0
 13
281.5755591853575
 23
-147.2776742027532
 33
0.0
  0
LINE
  5
8040
330
18
100
AcDbEntity
  8
1
100
AcDbLine
 10
281.5755591853573
 20
-41.00683250045029
 30
0.0
 11
281.5755591853573
 21
-147.2776742027532
 31
0.0
  0
LINE
  5
8041
330
18
100
AcDbEntity
  8
1
100
AcDbLine
 10
276.5755591853571
 20
-116.0068325004503
 30
0.0
 11
276.5755591853571
 21
-41.00683250045022
 31
0.0
  0
LINE
  5
8042
330
18
100
AcDbEntity
  8
1
100
AcDbLine
 10
281.5755591853573
 20
-101.0068325004507
 30
0.0
 11
281.5755591853572
 21
-41.00683250045022
 31
0.0
  0
LINE
  5
8043
330
18
100
AcDbEntity
  8
1
100
AcDbLine
 10
294.5755591853568
 20
-49.50683250045027
 30
0.0
 11
291.5755591853568
 21
-49.50683250045027
 31
0.0
  0
SOLID
  5
8044
330
18
100
AcDbEntity
  8
SCHRAFFUR
100
AcDbTrace
 10
276.5755591853571
 20
-63.32737920070746
 30
0.0
 11
276.5755591853571
 21
-73.32737920070747
 31
0.0
 12
281.5755591853571
 22
-63.32737920070746
 32
0.0
 13
281.5755591853571
 23
-73.32737920070747
 33
0.0
  0
LINE
  5
8045
330
18
100
AcDbEntity
  8
0
  6
ByBlock
 62
     0
100
AcDbLine
 10
276.5755591853571
 20
-41.20683250045033
 30
0.0
 11
276.5755591853571
 21
-68.8265958395682
 31
0.0
  0
LINE
  5
8046
330
18
100
AcDbEntity
  8
1
100
AcDbLine
 10
291.5755591853568
 20
-42.09774159135941
 30
0.0
 11
281.5755591853569
 21
-43.00683250045028
 31
0.0
  0
SOLID
  5
8047
330
18
100
AcDbEntity
  8
SCHRAFFUR
100
AcDbTrace
 10
276.5755591853571
 20
-43.32737920070746
 30
0.0
 11
276.5755591853571
 21
-53.32737920070746
 31
0.0
 12
281.5755591853571
 22
-43.32737920070746
 32
0.0
 13
281.5755591853571
 23
-53.32737920070746
 33
0.0
  0
LINE
  5
8048
330
18
100
AcDbEntity
  8
SCHRAFFUR
100
AcDbLine
 10
281.5755591853571
 20
-43.32737920070746
 30
0.0
 11
276.5755591853571
 21
-43.32737920070746
 31
0.0
  0
LINE
  5
8049
330
18
100
AcDbEntity
  8
1
100
AcDbLine
 10
281.5755591853569
 20
-43.00683250045028
 30
0.0
 11
281.5755591853569
 21
-41.00683250045029
 31
0.0
  0
LINE
  5
804A
330
18
100
AcDbEntity
  8
SCHRAFFUR
100
AcDbLine
 10
281.5755591853571
 20
-63.32737920070746
 30
0.0
 11
276.5755591853571
 21
-63.32737920070746
 31
0.0
  0
LINE
  5
804B
330
18
100
AcDbEntity
  8
SCHRAFFUR
100
AcDbLine
 10
281.5755591853571
 20
-53.32737920070746
 30
0.0
 11
276.5755591853571
 21
-53.32737920070746
 31
0.0
  0
POINT
  5
804C
330
18
100
AcDbEntity
  8
DEFPOINTS
  6
ByBlock
 62
     0
100
AcDbPoint
 10
276.5755591853571
 20
-65.22659583956829
 30
0.0
  0
LINE
  5
804D
330
18
100
AcDbEntity
  8
SCHRAFFUR
100
AcDbLine
 10
288.8524592719499
 20
-39.47333250045029
 30
0.0
 11
291.5755591853568
 21
-40.20298492315689
 31
0.0
  0
POINT
  5
804E
330
18
100
AcDbEntity
  8
DEFPOINTS
  6
ByBlock
 62
     0
100
AcDbPoint
 10
281.5755591853571
 20
-77.50683250045034
 30
0.0
  0
POINT
  5
804F
330
18
100
AcDbEntity
  8
DEFPOINTS
  6
ByBlock
 62
     0
100
AcDbPoint
 10
281.5755591853573
 20
-77.50683250045044
 30
0.0
  0
POINT
  5
8050
330
18
100
AcDbEntity
  8
DEFPOINTS
  6
ByBlock
 62
     0
100
AcDbPoint
 10
281.5755591853573
 20
-77.50683250045044
 30
0.0
  0
POINT
  5
8051
330
18
100
AcDbEntity
  8
DEFPOINTS
  6
ByBlock
 62
     0
100
AcDbPoint
 10
281.5755591853573
 20
-77.50683250045044
 30
0.0
  0
SOLID
  5
8052
330
18
100
AcDbEntity
  8
SCHRAFFUR
100
AcDbTrace
 10
276.5755591853571
 20
-83.32737920070746
 30
0.0
 11
276.5755591853571
 21
-93.32737920070746
 31
0.0
 12
281.5755591853571
 22
-83.32737920070746
 32
0.0
 13
281.5755591853571
 23
-93.32737920070746
 33
0.0
  0
LINE
  5
8053
330
18
100
AcDbEntity
  8
SCHRAFFUR
100
AcDbLine
 10
281.5755591853571
 20
-93.32737920070746
 30
0.0
 11
276.5755591853571
 21
-93.32737920070746
 31
0.0
  0
LINE
  5
8054
330
18
100
AcDbEntity
  8
SCHRAFFUR
100
AcDbLine
 10
281.5755591853571
 20
-83.32737920070746
 30
0.0
 11
276.5755591853571
 21
-83.32737920070746
 31
0.0
  0
POINT
  5
8055
330
18
100
AcDbEntity
  8
DEFPOINTS
  6
ByBlock
 62
     0
100
AcDbPoint
 10
291.5755591853571
 20
-82.50683250045034
 30
0.0
  0
POINT
  5
8056
330
18
100
AcDbEntity
  8
DEFPOINTS
  6
ByBlock
 62
     0
100
AcDbPoint
 10
291.5755591853571
 20
-82.50683250045034
 30
0.0
  0
LINE
  5
8057
330
18
100
AcDbEntity
  8
1
100
AcDbLine
 10
296.0755591853569
 20
-39.80417222187532
 30
0.0
 11
305.5661743147674
 21
-39.80417222187532
 31
0.0
  0
LINE
  5
8058
330
18
100
AcDbEntity
  8
1
100
AcDbLine
 10
296.0755591853569
 20
-48.60151194330035
 30
0.0
 11
305.5661743147674
 21
-48.60151194330035
 31
0.0
  0
LINE
  5
8059
330
18
100
AcDbEntity
  8
1
100
AcDbLine
 10
296.0755591853569
 20
-46.00683250045029
 30
0.0
 11
294.5755591853568
 21
-46.00683250045029
 31
0.0
  0
LINE
  5
805A
330
18
100
AcDbEntity
  8
1
100
AcDbLine
 10
307.0755591853568
 20
-44.20284208258784
 30
0.0
 11
307.0755591853568
 21
-39.80417222187532
 31
0.0
  0
ARC
  5
805B
330
18
100
AcDbEntity
  8
1
100
AcDbCircle
 10
299.9115350678173
 20
-44.20284208258784
 30
0.0
 40
7.164024117539552
100
AcDbArc
 50
322.1211205082803
 51
37.87887949171968
  0
SOLID
  5
805C
330
18
100
AcDbEntity
  8
SCHRAFFUR
100
AcDbTrace
 10
276.5755591853575
 20
-119.8273792007075
 30
0.0
 11
276.5755591853575
 21
-129.8273792007074
 31
0.0
 12
281.5755591853575
 22
-119.8273792007075
 32
0.0
 13
281.5755591853575
 23
-129.8273792007074
 33
0.0
  0
LINE
  5
805D
330
18
100
AcDbEntity
  8
1
100
AcDbLine
 10
281.5755591853571
 20
-101.0068325004504
 30
0.0
 11
286.5755591853571
 21
-106.0068325004504
 31
0.0
  0
SOLID
  5
805E
330
18
100
AcDbEntity
  8
SCHRAFFUR
100
AcDbTrace
 10
276.5755591853571
 20
-103.3273792007074
 30
0.0
 11
281.5755591853571
 21
-103.3273792007074
 31
0.0
 12
276.5755591853571
 22
-113.3273792007075
 32
0.0
 13
281.5755591853571
 23
-113.3273792007075
 33
0.0
  0
LINE
  5
805F
330
18
100
AcDbEntity
  8
SCHRAFFUR
100
AcDbLine
 10
281.5755591853571
 20
-103.3273792007074
 30
0.0
 11
276.5755591853571
 21
-103.3273792007074
 31
0.0
  0
LINE
  5
8060
330
18
100
AcDbEntity
  8
SCHRAFFUR
100
AcDbLine
 10
281.5755591853571
 20
-113.3273792007075
 30
0.0
 11
276.5755591853571
 21
-113.3273792007075
 31
0.0
  0
POINT
  5
8061
330
18
100
AcDbEntity
  8
DEFPOINTS
  6
ByBlock
 62
     0
100
AcDbPoint
 10
276.5755591853571
 20
-109.8632775855697
 30
0.0
  0
POINT
  5
8062
330
18
100
AcDbEntity
  8
DEFPOINTS
  6
ByBlock
 62
     0
100
AcDbPoint
 10
276.5755591853571
 20
-116.0068325004503
 30
0.0
  0
POINT
  5
8063
330
18
100
AcDbEntity
  8
DEFPOINTS
  6
ByBlock
 62
     0
100
AcDbPoint
 10
276.5755591853571
 20
-116.0068325004503
 30
0.0
  0
LINE
  5
8064
330
18
100
AcDbEntity
  8
1
100
AcDbLine
 10
286.5755591853571
 20
-106.0068325004504
 30
0.0
 11
291.5755591853571
 21
-106.0068325004504
 31
0.0
  0
SOLID
  5
8065
330
18
100
AcDbEntity
  8
SCHRAFFUR
100
AcDbTrace
 10
276.5755591853571
 20
-123.3273792007074
 30
0.0
 11
276.5755591853571
 21
-133.3273792007074
 31
0.0
 12
281.5755591853571
 22
-123.3273792007074
 32
0.0
 13
281.5755591853571
 23
-133.3273792007074
 33
0.0
  0
LINE
  5
8066
330
18
100
AcDbEntity
  8
SCHRAFFUR
100
AcDbLine
 10
281.5755591853573
 20
-129.8273792007074
 30
0.0
 11
276.5755591853574
 21
-129.8273792007074
 31
0.0
  0
LINE
  5
8067
330
18
100
AcDbEntity
  8
SCHRAFFUR
100
AcDbLine
 10
281.5755591853571
 20
-133.3273792007074
 30
0.0
 11
276.5755591853571
 21
-133.3273792007074
 31
0.0
  0
LINE
  5
8068
330
18
100
AcDbEntity
  8
SCHRAFFUR
100
AcDbLine
 10
281.5755591853571
 20
-123.3273792007074
 30
0.0
 11
276.5755591853571
 21
-123.3273792007074
 31
0.0
  0
LINE
  5
8069
330
18
100
AcDbEntity
  8
SCHRAFFUR
100
AcDbLine
 10
281.5755591853573
 20
-139.8273792007074
 30
0.0
 11
276.5755591853574
 21
-139.8273792007074
 31
0.0
  0
LINE
  5
806A
330
18
100
AcDbEntity
  8
SCHRAFFUR
100
AcDbLine
 10
281.5755591853571
 20
-143.3273792007074
 30
0.0
 11
276.5755591853571
 21
-143.3273792007074
 31
0.0
  0
HATCH
  5
8085
330
18
100
AcDbEntity
  8
SCHRAFFUR
100
AcDbHatch
 10
0.0
 20
0.0
 30
0.0
210
0.0
220
0.0
230
1.0
  2
ANSI33
 70
     0
 71
     1
 91
        2
 92
        5
 93
       11
 72
     1
 10
126.575559185357
 20
217.9931659995495
 11
262.1207864638819
 21
217.9931659995494
 72
     1
 10
262.1207864638819
 20
217.9931659995494
 11
266.5755591853571
 21
222.4479387210247
 72
     1
 10
266.5755591853571
 20
222.4479387210247
 11
266.5755591853571
 21
291.4931674995494
 72
     1
 10
266.5755591853571
 20
291.4931674995494
 11
196.575559185357
 21
291.4931674995493
 72
     1
 10
196.575559185357
 20
291.4931674995493
 11
196.5755591853571
 21
326.4931674995493
 72
     1
 10
196.5755591853571
 20
326.4931674995493
 11
266.5755591853571
 21
326.4931674995494
 72
     1
 10
266.5755591853571
 20
326.4931674995494
 11
266.5755591853571
 21
393.9931674995494
 72
     1
 10
266.5755591853571
 20
393.9931674995494
 11
276.5755591853574
 21
393.9931674995493
 72
     1
 10
276.5755591853574
 20
393.9931674995493
 11
276.575559185357
 21
447.4931659995495
 72
     4
 94
        3
 73
     0
 74
     0
 95
       11
 96
        7
 40
0.0
 40
0.0
 40
0.0
 40
0.0
 40
26.04011788397838
 40
79.20628883424895
 40
127.534319178025
 40
151.135482151574
 40
151.135482151574
 40
151.135482151574
 40
151.135482151574
 10
276.5755591853571
 20
447.4931659995495
 10
268.0206236645426
 20
445.5525945817766
 10
241.9990558345092
 20
439.6499538600862
 10
199.5848289759345
 20
454.325794131947
 10
157.9956488750378
 20
440.660156820379
 10
134.3380201056511
 20
445.8050432969989
 10
126.5755591853571
 20
447.4931659995495
 72
     1
 10
126.5755591853571
 20
447.4931659995495
 11
126.575559185357
 21
217.9931659995495
 97
       11
330
7A81
330
7B9E
330
3175
330
304E
330
3177
330
7FEB
330
7FE8
330
7FDB
330
7FDC
330
7FDA
330
7FE7
 92
        5
 93
       11
 72
     4
 94
        3
 73
     0
 74
     0
 95
       11
 96
        7
 40
0.0
 40
0.0
 40
0.0
 40
0.0
 40
23.60116297354899
 40
71.92919331732506
 40
125.0953642675956
 40
151.135482151574
 40
151.135482151574
 40
151.135482151574
 40
151.135482151574
 10
126.5755591853571
 20
-169.5068310004504
 10
134.3380201056512
 20
-167.8187082979
 10
157.9956488750379
 20
-162.6738218212802
 10
199.5848289759344
 20
-176.3394591328479
 10
241.9990558345092
 20
-161.6636188609872
 10
268.0206236645426
 20
-167.5662595826778
 10
276.5755591853571
 20
-169.5068310004504
 72
     1
 10
276.575559185357
 20
-169.5068310004505
 11
276.5755591853571
 21
-116.0068325004503
 72
     1
 10
276.5755591853571
 20
-116.0068325004503
 11
266.5755591853571
 21
-116.0068325004503
 72
     1
 10
266.5755591853571
 20
-116.0068325004503
 11
266.5755591853571
 21
-48.50683250045029
 72
     1
 10
266.5755591853571
 20
-48.50683250045029
 11
196.575559185357
 21
-48.50683250045022
 72
     1
 10
196.575559185357
 20
-48.50683250045022
 11
196.5755591853571
 21
-13.50683250045023
 72
     1
 10
196.5755591853571
 20
-13.50683250045023
 11
266.5755591853571
 21
-13.50683250045028
 72
     1
 10
266.5755591853571
 20
-13.50683250045028
 11
266.5755591853571
 21
55.53839627807434
 72
     1
 10
266.5755591853571
 20
55.53839627807435
 11
262.1207864638818
 21
59.99316899954965
 72
     1
 10
262.1207864638818
 20
59.99316899954965
 11
126.5755591853571
 21
59.99316899954958
 72
     1
 10
126.5755591853571
 20
59.99316899954958
 11
126.5755591853571
 21
-169.5068310004505
 97
       11
330
8011
330
7FF3
330
3039
330
303D
330
3038
330
8035
330
803B
330
7FF6
330
7FFB
330
7FF7
330
800F
 75
     0
 76
     1
 52
90.0
 41
2.0
 77
     0
 78
     2
 53
135.0
 43
0.0
 44
0.0
 45
-8.98025612106915
 46
-8.98025612106915
 79
     0
 53
135.0
 43
0.0000000000000005
 44
8.980260000000003
 45
-8.98025612106915
 46
-8.98025612106915
 79
     2
 49
6.349999999999997
 49
-3.174999999999998
 47
1.502906325956235
 98
        2
 10
145.9572232977498
 20
371.5689807152353
 10
138.4392344450934
 20
31.91214964856704
  0
HATCH
  5
809E
330
18
100
AcDbEntity
  8
SCHRAFFUR
100
AcDbHatch
 10
0.0
 20
0.0
 30
0.0
210
0.0
220
0.0
230
1.0
  2
ANSI31
 70
     0
 71
     0
 91
        2
 92
        7
 72
     0
 73
     1
 93
        4
 10
276.5755591853571
 20
212.9931659995495
 10
276.5755591853571
 20
217.9931659995494
 10
126.5755591853571
 20
217.9931659995495
 10
126.5755591853571
 20
212.9931659995495
 97
        0
 92
        7
 72
     0
 73
     1
 93
        4
 10
126.5755591853571
 20
64.99316899954959
 10
126.5755591853571
 20
59.99316899954958
 10
276.5755591853571
 20
59.99316899954965
 10
276.5755591853571
 20
64.99316899954959
 97
        0
 75
     0
 76
     1
 52
0.0
 41
1.0
 77
     0
 78
     1
 53
45.0
 43
0.0
 44
0.0
 45
-2.245064030267287
 46
2.245064030267287
 79
     0
 47
1.418846977301281
 98
        2
 10
253.4209711479543
 20
214.7834094845848
 10
233.5479801361253
 20
62.96678281720801
  0
HATCH
  5
80BA
330
18
100
AcDbEntity
  8
SCHRAFFUR
100
AcDbHatch
 10
0.0
 20
0.0
 30
0.0
210
0.0
220
0.0
230
1.0
  2
ANSI31
 70
     0
 71
     0
 91
        4
 92
        7
 72
     0
 73
     1
 93
        7
 10
266.5755591853571
 20
326.4931674995494
 10
266.5755591853571
 20
319.9931674995494
 10
266.5755591853571
 20
318.9931674995494
 10
276.5755591853571
 20
318.9931674995494
 10
276.5755591853571
 20
346.8129308386673
 10
276.5755591853571
 20
393.9931674995494
 10
266.5755591853571
 20
393.9931674995494
 97
        0
 92
        7
 72
     0
 73
     1
 93
        4
 10
276.5755591853571
 20
298.9931674995494
 10
266.5755591853571
 20
298.9931674995494
 10
266.5755591853571
 20
217.9931659995494
 10
276.5755591853571
 20
217.9931659995494
 97
        0
 92
        7
 72
     0
 73
     1
 93
        5
 10
276.5755591853571
 20
59.99316899954965
 10
266.5755591853571
 20
59.99316899954964
 10
266.5755591853571
 20
55.5383962780744
 10
266.5755591853571
 20
-21.00683250045033
 10
276.5755591853571
 20
-21.00683250045036
 97
        0
 92
        7
 72
     0
 73
     1
 93
        6
 10
276.5755591853571
 20
-41.00683250045024
 10
266.575559185357
 20
-41.00683250045022
 10
266.5755591853571
 20
-42.00683250045027
 10
266.5755591853571
 20
-48.50683250045029
 10
266.5755591853571
 20
-116.0068325004503
 10
276.5755591853571
 20
-116.0068325004503
 97
        0
 75
     0
 76
     1
 52
0.0
 41
1.0
 77
     0
 78
     1
 53
45.0
 43
0.0
 44
0.0
 45
-2.245064030267287
 46
2.245064030267287
 79
     0
 47
1.281259081178095
 98
        4
 10
270.3646342040451
 20
379.2375392895847
 10
271.6464826125835
 20
280.5805902936496
 10
271.6464826125835
 20
5.109887839140355
 10
271.6464826125835
 20
-67.9218800744843
  0
LINE
  5
80BB
102
{ACAD_REACTORS
330
80BC
102
}
330
18
100
AcDbEntity
  8
1
100
AcDbLine
 10
266.575559185357
 20
330.9479402210247
 30
0.0
 11
262.1207864638817
 21
326.4931674995494
 31
0.0
  0
HATCH
  5
80BC
330
18
100
AcDbEntity
  8
OBJEKT
100
AcDbHatch
 10
0.0
 20
0.0
 30
0.0
210
0.0
220
0.0
230
1.0
  2
SOLID
 70
     1
 71
     1
 91
        1
 92
        7
 72
     0
 73
     1
 93
        3
 10
266.575559185357
 20
326.4931674995494
 10
266.575559185357
 20
330.9479402210247
 10
262.1207864638817
 20
326.4931674995494
 97
        3
330
80BB
330
80BE
330
80BD
 75
     0
 76
     1
 47
0.1010149917254375
 98
        1
 10
265.2472760724631
 20
327.3141491830701
450
        0
451
        0
460
0.0
461
0.0
452
        0
462
0.0
453
        0
470

  0
LINE
  5
80BD
102
{ACAD_REACTORS
330
80BC
102
}
330
18
100
AcDbEntity
  8
1
100
AcDbLine
 10
266.575559185357
 20
326.4931674995494
 30
0.0
 11
266.575559185357
 21
330.9479402210247
 31
0.0
  0
LINE
  5
80BE
102
{ACAD_REACTORS
330
80BC
102
}
330
18
100
AcDbEntity
  8
1
100
AcDbLine
 10
262.1207864638817
 20
326.4931674995494
 30
0.0
 11
266.575559185357
 21
326.4931674995494
 31
0.0
  0
HATCH
  5
80BF
330
18
100
AcDbEntity
  8
OBJEKT
100
AcDbHatch
 10
0.0
 20
0.0
 30
0.0
210
0.0
220
0.0
230
1.0
  2
SOLID
 70
     1
 71
     0
 91
        1
 92
        7
 72
     0
 73
     1
 93
        3
 10
262.1207864638817
 20
291.4931674995494
 10
266.575559185357
 20
287.0383947780741
 10
266.575559185357
 20
291.4931674995493
 97
        0
 75
     0
 76
     1
 47
0.1010149917254375
 98
        1
 10
265.2472760724631
 20
290.6721858160286
450
        0
451
        0
460
0.0
461
0.0
452
        0
462
0.0
453
        0
470

  0
LINE
  5
80C0
330
18
100
AcDbEntity
  8
1
100
AcDbLine
 10
266.575559185357
 20
291.4931674995493
 30
0.0
 11
266.575559185357
 21
287.0383947780741
 31
0.0
  0
LINE
  5
80C1
330
18
100
AcDbEntity
  8
1
100
AcDbLine
 10
266.575559185357
 20
287.0383947780741
 30
0.0
 11
262.1207864638817
 21
291.4931674995493
 31
0.0
  0
HATCH
  5
80C6
330
18
100
AcDbEntity
  8
OBJEKT
100
AcDbHatch
 10
0.0
 20
0.0
 30
0.0
210
0.0
220
0.0
230
1.0
  2
SOLID
 70
     1
 71
     0
 91
        1
 92
        7
 72
     0
 73
     1
 93
        3
 10
262.1207864638817
 20
-13.50683250045028
 10
266.575559185357
 20
-9.052059778974976
 10
266.575559185357
 20
-13.50683250045023
 97
        0
 75
     0
 76
     1
 47
0.1010149917254375
 98
        1
 10
265.2472760724631
 20
-12.68585081692953
450
        0
451
        0
460
0.0
461
0.0
452
        0
462
0.0
453
        0
470

  0
LINE
  5
80C7
330
18
100
AcDbEntity
  8
1
100
AcDbLine
 10
266.575559185357
 20
-9.052059778974976
 30
0.0
 11
262.1207864638817
 21
-13.50683250045023
 31
0.0
  0
LINE
  5
80C8
330
18
100
AcDbEntity
  8
1
100
AcDbLine
 10
266.575559185357
 20
-13.50683250045023
 30
0.0
 11
266.575559185357
 21
-9.052059778974976
 31
0.0
  0
HATCH
  5
80C9
330
18
100
AcDbEntity
  8
OBJEKT
100
AcDbHatch
 10
0.0
 20
0.0
 30
0.0
210
0.0
220
0.0
230
1.0
  2
SOLID
 70
     1
 71
     1
 91
        1
 92
        7
 72
     0
 73
     1
 93
        3
 10
262.1207864638817
 20
-48.50683250045035
 10
266.575559185357
 20
-52.96160522192558
 10
266.5755591853569
 20
-48.50683250045032
 97
        3
330
80CB
330
80CC
330
80CA
 75
     0
 76
     1
 47
0.1010149917254375
 98
        1
 10
265.2472760724631
 20
-49.32781418397104
450
        0
451
        0
460
0.0
461
0.0
452
        0
462
0.0
453
        0
470

  0
LINE
  5
80CA
102
{ACAD_REACTORS
330
80C9
102
}
330
18
100
AcDbEntity
  8
1
100
AcDbLine
 10
266.575559185357
 20
-48.50683250045034
 30
0.0
 11
266.575559185357
 21
-52.96160522192559
 31
0.0
  0
LINE
  5
80CB
102
{ACAD_REACTORS
330
80C9
102
}
330
18
100
AcDbEntity
  8
1
100
AcDbLine
 10
266.575559185357
 20
-52.96160522192559
 30
0.0
 11
262.1207864638817
 21
-48.50683250045034
 31
0.0
  0
LINE
  5
80CC
102
{ACAD_REACTORS
330
80C9
102
}
330
18
100
AcDbEntity
  8
1
100
AcDbLine
 10
262.1207864638817
 20
-48.50683250045034
 30
0.0
 11
266.575559185357
 21
-48.50683250045034
 31
0.0
  0
LINE
  5
80D4
330
18
100
AcDbEntity
  8
OBJEKT
100
AcDbLine
 10
276.5755591853571
 20
-21.00683250045036
 30
0.0
 11
276.5755591853571
 21
109.9931689995495
 31
0.0
  0
VIEWPORT
  5
2593
330
2588
100
AcDbEntity
 67
     1
  8
0
100
AcDbViewport
 10
175.5842976387666
 20
140.9916366262502
 30
0.0
 40
507.8622552467033
 41
273.1404253606623
 68
     1
 69
     1
 12
175.5842976387666
 22
140.9916366262502
 13
0.0
 23
0.0
 14
10.0
 24
10.0
 15
10.0
 25
10.0
 16
0.0
 26
0.0
 36
1.0
 17
0.0
 27
0.0
 37
0.0
 42
50.0
 43
0.0
 44
0.0
 45
273.1404253606623
 50
0.0
 51
0.0
 72
   100
331
2499
 90
    32800
  1

281
     0
 71
     1
 74
     0
110
0.0
120
0.0
130
0.0
111
1.0
121
0.0
131
0.0
112
0.0
122
1.0
132
0.0
 79
     0
146
0.0
170
     0
  0
INSERT
  5
25FF
330
2588
100
AcDbEntity
 67
     1
  8
OBJEKT
100
AcDbBlockReference
 66
     1
  2
Datenblatt 13.02.02
 10
194.7175057884606
 20
78.25021625155795
 30
0.0
  0
ATTRIB
  5
2600
330
25FF
100
AcDbEntity
 67
     1
  8
5
 62
     6
100
AcDbText
 10
39.58657445751223
 20
101.6715726747419
 30
0.0
 40
2.5
  1
.
 51
10.0
  7
ISOCP
100
AcDbAttribute
  2
.
 70
     0
  0
ATTRIB
  5
2601
330
25FF
100
AcDbEntity
 67
     1
  8
5
 62
     6
100
AcDbText
 10
39.58657445751223
 20
94.6715726747419
 30
0.0
 40
2.5
  1
.
 51
10.0
  7
ISOCP
100
AcDbAttribute
  2
.
 70
     0
  0
ATTRIB
  5
2602
330
25FF
100
AcDbEntity
 67
     1
  8
5
 62
     6
100
AcDbText
 10
39.58657445751223
 20
87.67157267474194
 30
0.0
 40
2.5
  1
.
 51
10.0
  7
ISOCP
100
AcDbAttribute
  2
.
 70
     0
  0
ATTRIB
  5
2603
330
25FF
100
AcDbEntity
 67
     1
  8
5
 62
     6
100
AcDbText
 10
39.58657445751223
 20
80.67591499385736
 30
0.0
 40
2.5
  1
.
 51
10.0
  7
ISOCP
100
AcDbAttribute
  2
.
 70
     0
  0
ATTRIB
  5
2604
330
25FF
100
AcDbEntity
 67
     1
  8
5
 62
     6
100
AcDbText
 10
57.11975972362484
 20
96.66395297077317
 30
0.0
 40
2.0
  1
.
 51
10.0
  7
ISOCP
100
AcDbAttribute
  2
.
 70
     0
  0
ATTRIB
  5
2605
330
25FF
100
AcDbEntity
 67
     1
  8
5
 62
     6
100
AcDbText
 10
68.64564975096346
 20
96.66395297077317
 30
0.0
 40
2.0
  1
.
 51
10.0
  7
ISOCP
100
AcDbAttribute
  2
.
 70
     0
  0
ATTRIB
  5
2606
330
25FF
100
AcDbEntity
 67
     1
  8
5
 62
     6
100
AcDbText
 10
82.53367323408431
 20
96.66395297077317
 30
0.0
 40
2.0
  1
.
 51
10.0
  7
ISOCP
100
AcDbAttribute
  2
.
 70
     0
  0
ATTRIB
  5
2607
330
25FF
100
AcDbEntity
 67
     1
  8
5
 62
     6
100
AcDbText
 10
97.33114153037995
 20
96.66395297077317
 30
0.0
 40
2.0
  1
.
 51
10.0
  7
ISOCP
100
AcDbAttribute
  2
.
 70
     0
  0
ATTRIB
  5
2608
330
25FF
100
AcDbEntity
 67
     1
  8
5
 62
     6
100
AcDbText
 10
57.11975972362484
 20
91.06395297077312
 30
0.0
 40
2.0
  1
.
 51
10.0
  7
ISOCP
100
AcDbAttribute
  2
.
 70
     0
  0
ATTRIB
  5
2609
330
25FF
100
AcDbEntity
 67
     1
  8
5
 62
     6
100
AcDbText
 10
68.64564975096346
 20
91.06395297077312
 30
0.0
 40
2.0
  1
.
 51
10.0
  7
ISOCP
100
AcDbAttribute
  2
.
 70
     0
  0
ATTRIB
  5
260A
330
25FF
100
AcDbEntity
 67
     1
  8
5
 62
     6
100
AcDbText
 10
82.53367323408431
 20
91.06395297077312
 30
0.0
 40
2.0
  1
.
 51
10.0
  7
ISOCP
100
AcDbAttribute
  2
.
 70
     0
  0
ATTRIB
  5
260B
330
25FF
100
AcDbEntity
 67
     1
  8
5
 62
     6
100
AcDbText
 10
97.33114153037995
 20
91.06395297077312
 30
0.0
 40
2.0
  1
.
 51
10.0
  7
ISOCP
100
AcDbAttribute
  2
.
 70
     0
  0
ATTRIB
  5
260C
330
25FF
100
AcDbEntity
 67
     1
  8
5
 62
     6
100
AcDbText
 10
57.11975972362484
 20
85.46395297077316
 30
0.0
 40
2.0
  1
.
 51
10.0
  7
ISOCP
100
AcDbAttribute
  2
.
 70
     0
  0
ATTRIB
  5
260D
330
25FF
100
AcDbEntity
 67
     1
  8
5
 62
     6
100
AcDbText
 10
68.64564975096346
 20
85.46395297077316
 30
0.0
 40
2.0
  1
.
 51
10.0
  7
ISOCP
100
AcDbAttribute
  2
.
 70
     0
  0
ATTRIB
  5
260E
330
25FF
100
AcDbEntity
 67
     1
  8
5
 62
     6
100
AcDbText
 10
82.53367323408431
 20
85.46395297077316
 30
0.0
 40
2.0
  1
.
 51
10.0
  7
ISOCP
100
AcDbAttribute
  2
.
 70
     0
  0
ATTRIB
  5
260F
330
25FF
100
AcDbEntity
 67
     1
  8
5
 62
     6
100
AcDbText
 10
97.33114153037995
 20
85.46395297077316
 30
0.0
 40
2.0
  1
.
 51
10.0
  7
ISOCP
100
AcDbAttribute
  2
.
 70
     0
  0
ATTRIB
  5
2610
330
25FF
100
AcDbEntity
 67
     1
  8
5
 62
     6
100
AcDbText
 10
57.11975972362484
 20
79.86829528988858
 30
0.0
 40
2.0
  1
.
 51
10.0
  7
ISOCP
100
AcDbAttribute
  2
.
 70
     0
  0
ATTRIB
  5
2611
330
25FF
100
AcDbEntity
 67
     1
  8
5
 62
     6
100
AcDbText
 10
68.64564975096346
 20
79.86829528988858
 30
0.0
 40
2.0
  1
.
 51
10.0
  7
ISOCP
100
AcDbAttribute
  2
.
 70
     0
  0
ATTRIB
  5
2612
330
25FF
100
AcDbEntity
 67
     1
  8
5
 62
     6
100
AcDbText
 10
82.53367323408431
 20
79.86829528988858
 30
0.0
 40
2.0
  1
.
 51
10.0
  7
ISOCP
100
AcDbAttribute
  2
.
 70
     0
  0
ATTRIB
  5
2613
330
25FF
100
AcDbEntity
 67
     1
  8
5
 62
     6
100
AcDbText
 10
97.33114153037995
 20
79.86829528988858
 30
0.0
 40
2.0
  1
.
 51
10.0
  7
ISOCP
100
AcDbAttribute
  2
.
 70
     0
  0
ATTRIB
  5
2614
330
25FF
100
AcDbEntity
 67
     1
  8
5
 62
     6
100
AcDbText
 10
134.151234292897
 20
102.480395475859
 30
0.0
 40
2.5
  1
.
 51
10.0
  7
ISOCP
100
AcDbAttribute
  2
.
 70
     0
  0
ATTRIB
  5
2615
330
25FF
100
AcDbEntity
 67
     1
  8
5
 62
     6
100
AcDbText
 10
134.151234292897
 20
98.8123634010342
 30
0.0
 40
2.5
  1
.
 51
10.0
  7
ISOCP
100
AcDbAttribute
  2
.
 70
     0
  0
ATTRIB
  5
2616
330
25FF
100
AcDbEntity
 67
     1
  8
5
 62
     6
100
AcDbText
 10
134.151234292897
 20
95.55929145199479
 30
0.0
 40
2.5
  1
.
 51
10.0
  7
ISOCP
100
AcDbAttribute
  2
.
 70
     0
  0
ATTRIB
  5
2617
330
25FF
100
AcDbEntity
 67
     1
  8
5
 62
     6
100
AcDbText
 10
125.8630372077832
 20
92.31805433147131
 30
0.0
 40
2.5
  1
.
 51
10.0
  7
ISOCP
100
AcDbAttribute
  2
.
 70
     0
  0
ATTRIB
  5
2618
330
25FF
100
AcDbEntity
 67
     1
  8
5
 62
     6
100
AcDbText
 10
145.87294750983
 20
92.31805433147131
 30
0.0
 40
2.5
  1
.
 51
10.0
  7
ISOCP
100
AcDbAttribute
  2
.
 70
     0
  0
ATTRIB
  5
2619
330
25FF
100
AcDbEntity
 67
     1
  8
5
 62
     6
100
AcDbText
 10
127.5098850943911
 20
82.99458115582751
 30
0.0
 40
2.5
  1
.
 51
10.0
  7
ISOCP
100
AcDbAttribute
  2
.
 70
     0
  0
ATTRIB
  5
261A
330
25FF
100
AcDbEntity
 67
     1
  8
5
 62
     6
100
AcDbText
 10
134.9358939079375
 20
79.4578741532382
 30
0.0
 40
2.5
  1
.
 51
10.0
  7
ISOCP
100
AcDbAttribute
  2
.
 70
     0
  0
SEQEND
  5
261B
330
25FF
100
AcDbEntity
 67
     1
  8
OBJEKT
  0
INSERT
  5
261C
330
2588
100
AcDbEntity
 67
     1
  8
OBJEKT
100
AcDbBlockReference
  2
Toleranz1000
 10
97.3175057884606
 20
44.25021625155795
 30
0.0
  0
INSERT
  5
261D
330
2588
100
AcDbEntity
 67
     1
  8
OBJEKT
100
AcDbBlockReference
 66
     1
  2
schriftfeld-31.01.02
 10
194.7175057884606
 20
6.000216251557955
 30
0.0
  0
ATTRIB
  5
261E
330
261D
100
AcDbEntity
 67
     1
  8
TEXTE
 62
     6
370
    35
100
AcDbText
 10
152.138479988802
 20
33.41868783398286
 30
0.0
 40
3.5
  1

  7
ISOCP
 72
     1
 11
152.138479988802
 21
33.41868783398286
 31
0.0
100
AcDbAttribute
  2
BENENNUNG
 70
     0
  0
ATTRIB
  5
261F
330
261D
100
AcDbEntity
 67
     1
  8
TEXTE
100
AcDbText
 10
112.8295725145258
 20
22.52558733619935
 30
0.0
 40
3.5
  1
4
  7
ISOCP
100
AcDbAttribute
  2
A?
 70
     0
  0
ATTRIB
  5
2620
330
261D
100
AcDbEntity
 67
     1
  8
TEXTE
 62
     6
370
    35
100
AcDbText
 10
149.8485878259398
 20
22.61333637146947
 30
0.0
 40
3.5
  1
 
  7
ISOCP
 72
     1
 11
150.5485878259398
 21
22.61333637146947
 31
0.0
100
AcDbAttribute
  2
ZNR
 70
     0
  0
ATTRIB
  5
2621
330
261D
100
AcDbEntity
 67
     1
  8
TEXTE
100
AcDbText
 10
109.0052621480974
 20
15.13702454785834
 30
0.0
 40
3.5
  1
 
 41
61.22303117168799
  7
ISOCP
 72
     5
 11
194.7175057884606
 21
15.13702454785834
 31
0.0
100
AcDbAttribute
  2
KL.NR.
 70
     0
  0
ATTRIB
  5
2622
330
261D
100
AcDbEntity
 67
     1
  8
TEXTE
100
AcDbText
 10
64.67498943747307
 20
24.06889258289368
 30
0.0
 40
2.5
  1
 
  7
ISOCP
100
AcDbAttribute
  2
CADDAT
 70
     0
  0
ATTRIB
  5
2623
330
261D
100
AcDbEntity
 67
     1
  8
TEXTE
100
AcDbText
 10
80.22550705188859
 20
24.06889258289368
 30
0.0
 40
2.5
  1
 
  7
ISOCP
100
AcDbAttribute
  2
BEARBNAME
 70
     0
  0
ATTRIB
  5
2624
330
261D
100
AcDbEntity
 67
     1
  8
TEXTE
100
AcDbText
 10
64.67498943747313
 20
36.81889258289368
 30
0.0
 40
2.5
  1
 
  7
ISOCP
100
AcDbAttribute
  2
BEARBDAT
 70
     0
  0
ATTRIB
  5
2625
330
261D
100
AcDbEntity
 67
     1
  8
TEXTE
100
AcDbText
 10
80.22550705188859
 20
36.81889258289368
 30
0.0
 40
2.5
  1
 
  7
ISOCP
100
AcDbAttribute
  2
BEARBNAME
 70
     0
  0
ATTRIB
  5
2626
330
261D
100
AcDbEntity
 67
     1
  8
TEXTE
100
AcDbText
 10
64.67498943747313
 20
32.56889258289368
 30
0.0
 40
2.5
  1
 
  7
ISOCP
100
AcDbAttribute
  2
GEPR-DAT
 70
     0
  0
ATTRIB
  5
2627
330
261D
100
AcDbEntity
 67
     1
  8
TEXTE
100
AcDbText
 10
80.22550705188859
 20
32.56889258289368
 30
0.0
 40
2.5
  1

  7
ISOCP
100
AcDbAttribute
  2
GEPÜNAME
 70
     0
  0
ATTRIB
  5
2628
330
261D
100
AcDbEntity
 67
     1
  8
TEXTE
100
AcDbText
 10
64.67498943747307
 20
28.31889258289368
 30
0.0
 40
2.5
  1

  7
ISOCP
100
AcDbAttribute
  2
NORMBDAT
 70
     0
  0
ATTRIB
  5
2629
330
261D
100
AcDbEntity
 67
     1
  8
TEXTE
100
AcDbText
 10
80.22550705188859
 20
28.31889258289368
 30
0.0
 40
2.5
  1
 
  7
ISOCP
100
AcDbAttribute
  2
BEARBNAME
 70
     0
  0
ATTRIB
  5
262A
330
261D
100
AcDbEntity
 67
     1
  8
TEXTE
100
AcDbText
 10
87.88205838204664
 20
70.81889258289362
 30
0.0
 40
2.5
  1
.
  7
ISOCP
 72
     1
 11
88.25705838204664
 21
70.81889258289362
 31
0.0
100
AcDbAttribute
  2
MAßSTAB1
 70
     0
  0
ATTRIB
  5
262B
330
261D
100
AcDbEntity
 67
     1
  8
TEXTE
100
AcDbText
 10
88.0974940344225
 20
66.56889258289362
 30
0.0
 40
2.5
  1
 
  7
ISOCP
 72
     1
 11
88.59749403442249
 21
66.56889258289362
 31
0.0
100
AcDbAttribute
  2
MAßSTAB2
 70
     0
  0
ATTRIB
  5
262C
330
261D
100
AcDbEntity
 67
     1
  8
TEXTE
100
AcDbText
 10
88.0974940344225
 20
62.31889258289363
 30
0.0
 40
2.5
  1
 
  7
ISOCP
 72
     1
 11
88.59749403442249
 21
62.31889258289363
 31
0.0
100
AcDbAttribute
  2
MAßSTAB3
 70
     0
  0
ATTRIB
  5
262D
330
261D
100
AcDbEntity
 67
     1
  8
TEXTE
100
AcDbText
 10
64.67498943747319
 20
7.068892582893681
 30
0.0
 40
2.5
  1
.
  7
ISOCP
100
AcDbAttribute
  2
URSPRUNG
 70
     0
  0
ATTRIB
  5
262E
330
261D
100
AcDbEntity
 67
     1
  8
TEXTE
100
AcDbText
 10
108.8749894374732
 20
7.068892582893681
 30
0.0
 40
2.5
  1
.
  7
ISOCP
100
AcDbAttribute
  2
ERSETZTFÜR
 70
     0
  0
ATTRIB
  5
262F
330
261D
100
AcDbEntity
 67
     1
  8
TEXTE
100
AcDbText
 10
157.574989437473
 20
7.068892582893622
 30
0.0
 40
2.5
  1
.
  7
ISOCP
100
AcDbAttribute
  2
ERSTELLTFÜR
 70
     0
  0
ATTRIB
  5
2630
330
261D
100
AcDbEntity
 67
     1
  8
TEXTE
100
AcDbText
 10
8.674989437473129
 20
11.31889258289368
 30
0.0
 40
2.5
  1
 
  7
ISOCP
100
AcDbAttribute
  2
ZUST.
 70
     0
  0
ATTRIB
  5
2631
330
261D
100
AcDbEntity
 67
     1
  8
TEXTE
100
AcDbText
 10
16.81928398878085
 20
11.31889258289368
 30
0.0
 40
2.5
  1
 
  7
ISOCP
100
AcDbAttribute
  2
ÄND.
 70
     0
  0
ATTRIB
  5
2632
330
261D
100
AcDbEntity
 67
     1
  8
TEXTE
100
AcDbText
 10
29.97470998072612
 20
11.2278962600335
 30
0.0
 40
2.5
  1
 
 41
5.874999999999996
  7
ISOCP
 72
     5
 11
35.84970998072612
 21
11.2278962600335
 31
0.0
100
AcDbAttribute
  2
DAT
 70
     0
  0
ATTRIB
  5
2633
330
261D
100
AcDbEntity
 67
     1
  8
TEXTE
100
AcDbText
 10
42.55640405010382
 20
11.2278962600335
 30
0.0
 40
2.5
  1
 
  7
ISOCP
100
AcDbAttribute
  2
NAME
 70
     0
  0
ATTRIB
  5
2634
330
261D
100
AcDbEntity
 67
     1
  8
TEXTE
100
AcDbText
 10
8.674989437473129
 20
15.56889258289368
 30
0.0
 40
2.5
  1
 
  7
ISOCP
100
AcDbAttribute
  2
ZUST.
 70
     0
  0
ATTRIB
  5
2635
330
261D
100
AcDbEntity
 67
     1
  8
TEXTE
100
AcDbText
 10
16.81928398878085
 20
15.56889258289368
 30
0.0
 40
2.5
  1
 
  7
ISOCP
100
AcDbAttribute
  2
ÄND.
 70
     0
  0
ATTRIB
  5
2636
330
261D
100
AcDbEntity
 67
     1
  8
TEXTE
100
AcDbText
 10
29.97470998072612
 20
15.4778962600335
 30
0.0
 40
2.5
  1
 
 41
5.874999999999996
  7
ISOCP
 72
     5
 11
35.84970998072612
 21
15.4778962600335
 31
0.0
100
AcDbAttribute
  2
DAT
 70
     0
  0
ATTRIB
  5
2637
330
261D
100
AcDbEntity
 67
     1
  8
TEXTE
100
AcDbText
 10
42.55640405010382
 20
15.4778962600335
 30
0.0
 40
2.5
  1
 
  7
ISOCP
100
AcDbAttribute
  2
NAME
 70
     0
  0
ATTRIB
  5
2638
330
261D
100
AcDbEntity
 67
     1
  8
TEXTE
100
AcDbText
 10
8.674989437473129
 20
19.81889258289368
 30
0.0
 40
2.5
  1
 
  7
ISOCP
100
AcDbAttribute
  2
ZUST.
 70
     0
  0
ATTRIB
  5
2639
330
261D
100
AcDbEntity
 67
     1
  8
TEXTE
100
AcDbText
 10
16.81928398878085
 20
19.81889258289368
 30
0.0
 40
2.5
  1
 
  7
ISOCP
100
AcDbAttribute
  2
ÄND.
 70
     0
  0
ATTRIB
  5
263A
330
261D
100
AcDbEntity
 67
     1
  8
TEXTE
100
AcDbText
 10
29.97470998072612
 20
19.7278962600335
 30
0.0
 40
2.5
  1
 
 41
5.874999999999996
  7
ISOCP
 72
     5
 11
35.84970998072612
 21
19.7278962600335
 31
0.0
100
AcDbAttribute
  2
DAT
 70
     0
  0
ATTRIB
  5
263B
330
261D
100
AcDbEntity
 67
     1
  8
TEXTE
100
AcDbText
 10
42.55640405010382
 20
19.7278962600335
 30
0.0
 40
2.5
  1
 
  7
ISOCP
100
AcDbAttribute
  2
NAME
 70
     0
  0
ATTRIB
  5
263C
330
261D
100
AcDbEntity
 67
     1
  8
TEXTE
100
AcDbText
 10
8.674989437473129
 20
24.06889258289368
 30
0.0
 40
2.5
  1
 
  7
ISOCP
100
AcDbAttribute
  2
ZUST.
 70
     0
  0
ATTRIB
  5
263D
330
261D
100
AcDbEntity
 67
     1
  8
TEXTE
100
AcDbText
 10
16.81928398878085
 20
24.06889258289368
 30
0.0
 40
2.5
  1
 
  7
ISOCP
100
AcDbAttribute
  2
ÄND.
 70
     0
  0
ATTRIB
  5
263E
330
261D
100
AcDbEntity
 67
     1
  8
TEXTE
100
AcDbText
 10
29.97470998072612
 20
23.97789626003349
 30
0.0
 40
2.5
  1
 
 41
5.874999999999996
  7
ISOCP
 72
     5
 11
35.84970998072612
 21
23.97789626003349
 31
0.0
100
AcDbAttribute
  2
DAT
 70
     0
  0
ATTRIB
  5
263F
330
261D
100
AcDbEntity
 67
     1
  8
TEXTE
100
AcDbText
 10
42.55640405010382
 20
23.97789626003349
 30
0.0
 40
2.5
  1

  7
ISOCP
100
AcDbAttribute
  2
NAME
 70
     0
  0
ATTRIB
  5
2640
330
261D
100
AcDbEntity
 67
     1
  8
TEXTE
100
AcDbText
 10
8.674989437473129
 20
28.31889258289368
 30
0.0
 40
2.5
  1

  7
ISOCP
100
AcDbAttribute
  2
ZUST.
 70
     0
  0
ATTRIB
  5
2641
330
261D
100
AcDbEntity
 67
     1
  8
TEXTE
100
AcDbText
 10
16.81928398878085
 20
28.31889258289368
 30
0.0
 40
2.5
  1

  7
ISOCP
100
AcDbAttribute
  2
ÄND.
 70
     0
  0
ATTRIB
  5
2642
330
261D
100
AcDbEntity
 67
     1
  8
TEXTE
100
AcDbText
 10
29.97470998072612
 20
28.22789626003351
 30
0.0
 40
2.5
  1

  7
ISOCP
 72
     5
 11
35.84970998072612
 21
28.22789626003351
 31
0.0
100
AcDbAttribute
  2
DAT
 70
     0
  0
ATTRIB
  5
2643
330
261D
100
AcDbEntity
 67
     1
  8
TEXTE
100
AcDbText
 10
42.55640405010382
 20
28.22789626003351
 30
0.0
 40
2.5
  1

  7
ISOCP
100
AcDbAttribute
  2
NAME
 70
     0
  0
ATTRIB
  5
2644
330
261D
100
AcDbEntity
 67
     1
  8
TEXTE
100
AcDbText
 10
8.674989437473129
 20
32.56889258289368
 30
0.0
 40
2.5
  1

  7
ISOCP
100
AcDbAttribute
  2
ZUST.
 70
     0
  0
ATTRIB
  5
2645
330
261D
100
AcDbEntity
 67
     1
  8
TEXTE
100
AcDbText
 10
16.81928398878085
 20
32.56889258289368
 30
0.0
 40
2.5
  1

  7
ISOCP
100
AcDbAttribute
  2
ÄND.
 70
     0
  0
ATTRIB
  5
2646
330
261D
100
AcDbEntity
 67
     1
  8
TEXTE
100
AcDbText
 10
29.97470998072612
 20
32.4778962600335
 30
0.0
 40
2.5
  1

  7
ISOCP
 72
     5
 11
35.84970998072612
 21
32.4778962600335
 31
0.0
100
AcDbAttribute
  2
DAT
 70
     0
  0
ATTRIB
  5
2647
330
261D
100
AcDbEntity
 67
     1
  8
TEXTE
100
AcDbText
 10
42.55640405010382
 20
32.4778962600335
 30
0.0
 40
2.5
  1

  7
ISOCP
100
AcDbAttribute
  2
NAME
 70
     0
  0
ATTRIB
  5
2648
330
261D
100
AcDbEntity
 67
     1
  8
TEXTE
100
AcDbText
 10
8.674989437473129
 20
36.81889258289368
 30
0.0
 40
2.5
  1

  7
ISOCP
100
AcDbAttribute
  2
ZUST.
 70
     0
  0
ATTRIB
  5
2649
330
261D
100
AcDbEntity
 67
     1
  8
TEXTE
100
AcDbText
 10
16.81928398878085
 20
36.81889258289368
 30
0.0
 40
2.5
  1

  7
ISOCP
100
AcDbAttribute
  2
ÄND.
 70
     0
  0
ATTRIB
  5
264A
330
261D
100
AcDbEntity
 67
     1
  8
TEXTE
100
AcDbText
 10
29.97470998072612
 20
36.7278962600335
 30
0.0
 40
2.5
  1

  7
ISOCP
 72
     5
 11
35.84970998072612
 21
36.7278962600335
 31
0.0
100
AcDbAttribute
  2
DAT
 70
     0
  0
ATTRIB
  5
264B
330
261D
100
AcDbEntity
 67
     1
  8
TEXTE
100
AcDbText
 10
42.55640405010382
 20
36.7278962600335
 30
0.0
 40
2.5
  1

  7
ISOCP
100
AcDbAttribute
  2
NAME
 70
     0
  0
ATTRIB
  5
264C
330
261D
100
AcDbEntity
 67
     1
  8
TEXTE
100
AcDbText
 10
8.674989437473129
 20
41.06889258289368
 30
0.0
 40
2.5
  1

  7
ISOCP
100
AcDbAttribute
  2
ZUST.
 70
     0
  0
ATTRIB
  5
264D
330
261D
100
AcDbEntity
 67
     1
  8
TEXTE
100
AcDbText
 10
16.81928398878085
 20
41.06889258289368
 30
0.0
 40
2.5
  1

  7
ISOCP
100
AcDbAttribute
  2
ÄND.
 70
     0
  0
ATTRIB
  5
264E
330
261D
100
AcDbEntity
 67
     1
  8
TEXTE
100
AcDbText
 10
29.97470998072618
 20
40.9778962600335
 30
0.0
 40
2.5
  1

  7
ISOCP
 72
     5
 11
35.84970998072618
 21
40.9778962600335
 31
0.0
100
AcDbAttribute
  2
DAT
 70
     0
  0
ATTRIB
  5
264F
330
261D
100
AcDbEntity
 67
     1
  8
TEXTE
100
AcDbText
 10
42.55640405010382
 20
40.9778962600335
 30
0.0
 40
2.5
  1

  7
ISOCP
100
AcDbAttribute
  2
NAME
 70
     0
  0
ATTRIB
  5
2650
330
261D
100
AcDbEntity
 67
     1
  8
TEXTE
100
AcDbText
 10
8.674989437473129
 20
45.31889258289367
 30
0.0
 40
2.5
  1

  7
ISOCP
100
AcDbAttribute
  2
ZUST.
 70
     0
  0
ATTRIB
  5
2651
330
261D
100
AcDbEntity
 67
     1
  8
TEXTE
100
AcDbText
 10
16.81928398878085
 20
45.31889258289367
 30
0.0
 40
2.5
  1

  7
ISOCP
100
AcDbAttribute
  2
ÄND.
 70
     0
  0
ATTRIB
  5
2652
330
261D
100
AcDbEntity
 67
     1
  8
TEXTE
100
AcDbText
 10
29.97470998072618
 20
45.2278962600335
 30
0.0
 40
2.5
  1

  7
ISOCP
 72
     5
 11
35.84970998072618
 21
45.2278962600335
 31
0.0
100
AcDbAttribute
  2
DAT
 70
     0
  0
ATTRIB
  5
2653
330
261D
100
AcDbEntity
 67
     1
  8
TEXTE
100
AcDbText
 10
42.55640405010382
 20
45.2278962600335
 30
0.0
 40
2.5
  1

  7
ISOCP
100
AcDbAttribute
  2
NAME
 70
     0
  0
ATTRIB
  5
2654
330
261D
100
AcDbEntity
 67
     1
  8
TEXTE
100
AcDbText
 10
8.674989437473129
 20
49.56889258289367
 30
0.0
 40
2.5
  1

  7
ISOCP
100
AcDbAttribute
  2
ZUST.
 70
     0
  0
ATTRIB
  5
2655
330
261D
100
AcDbEntity
 67
     1
  8
TEXTE
100
AcDbText
 10
16.81928398878085
 20
49.56889258289367
 30
0.0
 40
2.5
  1

  7
ISOCP
100
AcDbAttribute
  2
ÄND.
 70
     0
  0
ATTRIB
  5
2656
330
261D
100
AcDbEntity
 67
     1
  8
TEXTE
100
AcDbText
 10
29.97470998072618
 20
49.4778962600335
 30
0.0
 40
2.5
  1

  7
ISOCP
 72
     5
 11
35.84970998072618
 21
49.4778962600335
 31
0.0
100
AcDbAttribute
  2
DAT
 70
     0
  0
ATTRIB
  5
2657
330
261D
100
AcDbEntity
 67
     1
  8
TEXTE
100
AcDbText
 10
42.55640405010382
 20
49.4778962600335
 30
0.0
 40
2.5
  1

  7
ISOCP
100
AcDbAttribute
  2
NAME
 70
     0
  0
ATTRIB
  5
2658
330
261D
100
AcDbEntity
 67
     1
  8
TEXTE
100
AcDbText
 10
8.674989437473129
 20
53.81889258289366
 30
0.0
 40
2.5
  1

  7
ISOCP
100
AcDbAttribute
  2
ZUST.
 70
     0
  0
ATTRIB
  5
2659
330
261D
100
AcDbEntity
 67
     1
  8
TEXTE
100
AcDbText
 10
16.81928398878085
 20
53.81889258289366
 30
0.0
 40
2.5
  1

  7
ISOCP
100
AcDbAttribute
  2
ÄND.
 70
     0
  0
ATTRIB
  5
265A
330
261D
100
AcDbEntity
 67
     1
  8
TEXTE
100
AcDbText
 10
29.97470998072612
 20
53.7278962600335
 30
0.0
 40
2.5
  1

  7
ISOCP
 72
     5
 11
35.84970998072612
 21
53.7278962600335
 31
0.0
100
AcDbAttribute
  2
DAT
 70
     0
  0
ATTRIB
  5
265B
330
261D
100
AcDbEntity
 67
     1
  8
TEXTE
100
AcDbText
 10
42.55640405010382
 20
53.7278962600335
 30
0.0
 40
2.5
  1

  7
ISOCP
100
AcDbAttribute
  2
NAME
 70
     0
  0
ATTRIB
  5
265C
330
261D
100
AcDbEntity
 67
     1
  8
TEXTE
100
AcDbText
 10
8.674989437473129
 20
58.06889258289363
 30
0.0
 40
2.5
  1

  7
ISOCP
100
AcDbAttribute
  2
ZUST.
 70
     0
  0
ATTRIB
  5
265D
330
261D
100
AcDbEntity
 67
     1
  8
TEXTE
100
AcDbText
 10
16.81928398878085
 20
58.06889258289363
 30
0.0
 40
2.5
  1

  7
ISOCP
100
AcDbAttribute
  2
ÄND.
 70
     0
  0
ATTRIB
  5
265E
330
261D
100
AcDbEntity
 67
     1
  8
TEXTE
100
AcDbText
 10
29.97470998072612
 20
57.9778962600335
 30
0.0
 40
2.5
  1

  7
ISOCP
 72
     5
 11
35.84970998072612
 21
57.9778962600335
 31
0.0
100
AcDbAttribute
  2
DAT
 70
     0
  0
ATTRIB
  5
265F
330
261D
100
AcDbEntity
 67
     1
  8
TEXTE
100
AcDbText
 10
42.55640405010382
 20
57.9778962600335
 30
0.0
 40
2.5
  1

  7
ISOCP
100
AcDbAttribute
  2
NAME
 70
     0
  0
SEQEND
  5
2660
330
261D
100
AcDbEntity
 67
     1
  8
OBJEKT
  0
LINE
  5
2661
330
2588
100
AcDbEntity
 67
     1
  8
OBJEKT
100
AcDbLine
 10
194.7175057884606
 20
276.000216251558
 30
0.0
 11
7.517505788460598
 21
276.000216251558
 31
0.0
  0
LINE
  5
2662
330
2588
100
AcDbEntity
 67
     1
  8
OBJEKT
100
AcDbLine
 10
194.7175057884606
 20
6.000216251557955
 30
0.0
 11
7.517505788460598
 21
6.000216251557955
 31
0.0
  0
VIEWPORT
  5
2663
330
2588
100
AcDbEntity
 67
     1
  8
OBJEKT
100
AcDbViewport
 10
101.1175057884606
 20
141.0002162515579
 30
0.0
 40
187.2
 41
270.0
 68
     0
 69
     2
 12
6.842520586879571
 22
-59.68048176154715
 13
0.0
 23
0.0
 14
10.0
 24
10.0
 15
10.0
 25
10.0
 16
0.0
 26
0.0
 36
1.0
 17
0.0
 27
0.0
 37
0.0
 42
50.0
 43
0.0
 44
0.0
 45
269.9999999723559
 50
0.0
 51
0.0
 72
   100
 90
   163872
  1

281
     0
 71
     1
 74
     0
110
0.0
120
0.0
130
0.0
111
1.0
121
0.0
131
0.0
112
0.0
122
1.0
132
0.0
 79
     0
146
0.0
170
     0
  0
LINE
  5
2664
330
2588
100
AcDbEntity
 67
     1
  8
OBJEKT
100
AcDbLine
 10
7.517505788460598
 20
6.000216251557955
 30
0.0
 11
7.517505788460598
 21
274.000216251558
 31
0.0
  0
LINE
  5
2665
330
2588
100
AcDbEntity
 67
     1
  8
OBJEKT
100
AcDbLine
 10
194.7175057884606
 20
6.000216251557955
 30
0.0
 11
194.7175057884605
 21
274.0002162515581
 31
0.0
  0
VIEWPORT
  5
2755
330
2588
100
AcDbEntity
 67
     1
  8
Ansichtsfenster
100
AcDbViewport
 10
101.1175057884606
 20
191.1230450920002
 30
0.0
 40
187.2
 41
169.7543423191154
 68
     3
 69
     3
 12
9.743693412895991
 22
-3.745714603259886
 13
0.0
 23
0.0
 14
10.0
 24
10.0
 15
10.0
 25
10.0
 16
0.0
 26
0.0
 36
1.0
 17
0.0
 27
0.0
 37
0.0
 42
50.0
 43
0.0
 44
0.0
 45
169.7543428937516
 50
0.0
 51
0.0
 72
   100
 90
    32800
  1

281
     0
 71
     1
 74
     0
110
0.0
120
0.0
130
0.0
111
1.0
121
0.0
131
0.0
112
0.0
122
1.0
132
0.0
 79
     0
146
0.0
170
     0
  0
LINE
  5
2933
330
2588
100
AcDbEntity
 67
     1
  8
OBJEKT
100
AcDbLine
 10
150.3091687168215
 20
106.2458739324425
 30
0.0
 11
194.7175057884606
 21
106.2458739324425
 31
0.0
  0
ENDSEC
  0
SECTION
  2
OBJECTS
  0
DICTIONARY
  5
C
330
0
100
AcDbDictionary
281
     1
  3
ACAD_COLOR
350
8154
  3
ACAD_GROUP
350
D
  3
ACAD_LAYOUT
350
144A
  3
ACAD_MATERIAL
350
8153
  3
ACAD_MLINESTYLE
350
1B
  3
ACAD_PLOTSETTINGS
350
144B
  3
ACAD_PLOTSTYLENAME
350
1448
  3
ACDBVARIABLEDICTIONARY
350
20
  0
DICTIONARY
  5
8154
102
{ACAD_REACTORS
330
C
102
}
330
C
100
AcDbDictionary
281
     1
  0
DICTIONARY
  5
D
102
{ACAD_REACTORS
330
C
102
}
330
C
100
AcDbDictionary
281
     1
  0
DICTIONARY
  5
144A
102
{ACAD_REACTORS
330
C
102
}
330
C
100
AcDbDictionary
281
     1
  3
Auftrag A3
350
258D
  3
Auftrag A4
350
2589
  3
Model
350
144C
  3
Projekt A4
350
23BB
  3
Projekte A3
350
23BF
  0
DICTIONARY
  5
8153
102
{ACAD_REACTORS
330
C
102
}
330
C
100
AcDbDictionary
281
     1
  0
DICTIONARY
  5
1B
102
{ACAD_REACTORS
330
C
102
}
330
C
100
AcDbDictionary
281
     1
  3
STANDARD
350
1C
  0
DICTIONARY
  5
144B
102
{ACAD_REACTORS
330
C
102
}
330
C
100
AcDbDictionary
281
     1
  0
ACDBDICTIONARYWDFLT
  5
1448
102
{ACAD_REACTORS
330
C
102
}
330
C
100
AcDbDictionary
281
     1
  3
Normal
350
1449
100
AcDbDictionaryWithDefault
340
1449
  0
DICTIONARY
  5
20
102
{ACAD_REACTORS
330
C
102
}
330
C
100
AcDbDictionary
281
     1
  3
DIMADEC
350
21
  3
DIMASSOC
350
8164
  3
PROJECTNAME
350
8165
  3
SORTENTS
350
1184
  0
LAYOUT
  5
258D
102
{ACAD_REACTORS
330
144A
102
}
330
144A
100
AcDbPlotSettings
  1

  2
\\DOYMAIAS\TE-HPLJ500T
  4
A3
  6

 40
6.085416793823242
 41
6.12772798538208
 42
5.662078857421875
 43
5.53509521484375
 44
296.9683227539062
 45
419.9889831542968
 46
0.0
 47
0.0
 48
0.0
 49
0.0
140
0.0
141
0.0
142
1.0
143
1.0
 70
   688
 72
     1
 73
     1
 74
     5
  7
monochrome.ctb
 75
    16
147
1.0
 76
     0
 77
     2
 78
   300
148
0.0
149
0.0
100
AcDbLayout
  1
Auftrag A3
 70
     1
 71
     2
 10
-5.53509521484375
 20
-6.085416793823242
 11
414.4538879394531
 21
290.882905960083
 12
0.0
 22
0.0
 32
0.0
 14
14.61421102910242
 24
4.670531641252523
 34
0.0
 15
402.614211115104
 25
281.6705316412525
 35
0.0
146
0.0
 13
0.0
 23
0.0
 33
0.0
 16
1.0
 26
0.0
 36
0.0
 17
0.0
 27
1.0
 37
0.0
 76
     0
330
258C
331
266A
  0
LAYOUT
  5
2589
102
{ACAD_REACTORS
330
144A
102
}
330
144A
100
AcDbPlotSettings
  1

  2
\\DOYMAIAS\TE-HPLJ500T
  4
A4
  6

 40
5.873749732971191
 41
5.408092021942136
 42
5.577407836914061
 43
5.069427490234375
 44
209.9733276367186
 45
296.9683227539062
 46
0.0
 47
0.0
 48
0.0
 49
0.0
140
0.0
141
0.0
142
1.0
143
1.0
 70
   688
 72
     1
 73
     0
 74
     5
  7
monochrome.ctb
 75
    16
147
1.0
 76
     0
 77
     2
 78
   300
148
0.0
149
0.0
100
AcDbLayout
  1
Auftrag A4
 70
     1
 71
     1
 10
-5.873749732971191
 20
-5.408092021942136
 11
204.0995779037475
 21
291.5602307319641
 12
0.0
 22
0.0
 32
0.0
 14
7.517505788460598
 24
6.000216251557955
 34
0.0
 15
194.7175057884606
 25
276.000216251558
 35
0.0
146
0.0
 13
0.0
 23
0.0
 33
0.0
 16
1.0
 26
0.0
 36
0.0
 17
0.0
 27
1.0
 37
0.0
 76
     0
330
2588
331
2593
  0
LAYOUT
  5
144C
102
{ACAD_REACTORS
330
144A
102
}
330
144A
100
AcDbPlotSettings
  1

  2
Acrobat PDFWriter
  4
A4
  6

 40
7.143749713897705
 41
7.143741130828857
 42
7.143768310546875
 43
7.143753051757812
 44
297.0530090332031
 45
209.9733276367186
 46
0.0
 47
0.0
 48
91.5754372199599
 49
-215.0769246467398
140
448.4933526833024
141
469.1257991981656
142
1.0
143
2.419682548262978
 70
 11952
 72
     1
 73
     1
 74
     4
  7
monochrome.ctb
 75
     0
147
0.4132773535594044
 76
     0
 77
     2
 78
   300
148
-91.5754372199599
149
215.0769246467398
100
AcDbLayout
  1
Model
 70
     1
 71
     0
 10
0.0
 20
0.0
 11
12.0
 21
9.0
 12
0.0
 22
0.0
 32
0.0
 14
0.0
 24
0.0
 34
0.0
 15
0.0
 25
0.0
 35
0.0
146
0.0
 13
0.0
 23
0.0
 33
0.0
 16
1.0
 26
0.0
 36
0.0
 17
0.0
 27
1.0
 37
0.0
 76
     0
330
18
  0
LAYOUT
  5
23BB
102
{ACAD_REACTORS
330
144A
102
}
330
144A
100
AcDbPlotSettings
  1

  2
\\DOYMAIAS\TE-HPLJ500T
  4
A4
  6

 40
5.873749732971191
 41
5.408092021942136
 42
5.577407836914061
 43
5.069427490234375
 44
209.9733276367186
 45
296.9683227539062
 46
5.0
 47
2.0
 48
1.723579020584336
 49
2.336566218124062
140
194.6156956570862
141
278.9816687777482
142
1.0
143
1.0
 70
   688
 72
     1
 73
     0
 74
     4
  7
monochrome.ctb
 75
    16
147
1.0
 76
     0
 77
     2
 78
   300
148
-1.723579020584336
149
-2.336566218124062
100
AcDbLayout
  1
Projekt A4
 70
     1
 71
     3
 10
-9.15017071238685
 20
-5.071525803818076
 11
200.8231569243319
 21
291.8967969500882
 12
0.0
 22
0.0
 32
0.0
 14
3.463887621238483
 24
4.828902423817311
 34
0.0
 15
192.625094329755
 25
277.8289024238173
 35
0.0
146
0.0
 13
0.0
 23
0.0
 33
0.0
 16
1.0
 26
0.0
 36
0.0
 17
0.0
 27
1.0
 37
0.0
 76
     0
330
23BA
331
23C5
  0
LAYOUT
  5
23BF
102
{ACAD_REACTORS
330
144A
102
}
330
144A
100
AcDbPlotSettings
  1

  2
\\DOYMAIAS\TE-HPLJ500T
  4
A3
  6

 40
6.085416793823242
 41
6.12772798538208
 42
5.662078857421875
 43
5.53509521484375
 44
296.9683227539062
 45
419.9889831542968
 46
0.0
 47
10.0
 48
7.176977667887967
 49
4.541390972050407
140
400.6112441386464
141
284.0396907129682
142
1.0
143
1.0
 70
   688
 72
     1
 73
     1
 74
     4
  7
monochrome.ctb
 75
    16
147
1.0
 76
     0
 77
     2
 78
   300
148
-7.176977667887967
149
-4.541390972050407
100
AcDbLayout
  1
Projekte A3
 70
     1
 71
     4
 10
-8.358117546955782
 20
-1.544025821772834
 11
411.6308656073409
 21
295.4242969321334
 12
0.0
 22
0.0
 32
0.0
 14
3.354302467962611
 24
4.455883883873752
 34
0.0
 15
400.6112441386464
 25
283.5413909720504
 35
0.0
146
0.0
 13
0.0
 23
0.0
 33
0.0
 16
1.0
 26
0.0
 36
0.0
 17
0.0
 27
1.0
 37
0.0
 76
     0
330
23BE
331
24D9
  0
MLINESTYLE
  5
1C
102
{ACAD_REACTORS
330
1B
102
}
330
1B
100
AcDbMlineStyle
  2
STANDARD
 70
     0
  3

 62
   256
 51
90.0
 52
90.0
 71
     2
 49
0.5
 62
   256
  6
BYLAYER
 49
-0.5
 62
   256
  6
BYLAYER
  0
ACDBPLACEHOLDER
  5
1449
102
{ACAD_REACTORS
330
1448
102
}
330
1448
  0
DICTIONARYVAR
  5
21
102
{ACAD_REACTORS
330
20
102
}
330
20
100
DictionaryVariables
280
     0
  1
0
  0
DICTIONARYVAR
  5
8164
102
{ACAD_REACTORS
330
20
102
}
330
20
100
DictionaryVariables
280
     0
  1
1
  0
DICTIONARYVAR
  5
8165
102
{ACAD_REACTORS
330
20
102
}
330
20
100
DictionaryVariables
280
     0
  1

  0
DICTIONARYVAR
  5
1184
102
{ACAD_REACTORS
330
20
102
}
330
20
100
DictionaryVariables
280
     0
  1
96
  0
ENDSEC
  0
EOF
