  0
SECTION
  2
HEADER
  9
$ACADVER
  1
AC1018
  9
$ACADMAINTVER
 70
     0
  9
$DWGCODEPAGE
  3
ANSI_1252
  9
$INSBASE
 10
0.0
 20
0.0
 30
0.0
  9
$EXTMIN
 10
1145.086689592544
 20
-90.3433981859654
 30
0.0
  9
$EXTMAX
 10
1775.530590818252
 20
393.0699279998749
 30
0.0
  9
$LIMMIN
 10
0.0
 20
0.0
  9
$LIMMAX
 10
420.0
 20
297.0
  9
$ORTHOMODE
 70
     0
  9
$REGENMODE
 70
     1
  9
$FILLMODE
 70
     1
  9
$QTEXTMODE
 70
     0
  9
$MIRRTEXT
 70
     1
  9
$LTSCALE
 40
0.3
  9
$ATTMODE
 70
     1
  9
$TEXTSIZE
 40
3.5
  9
$TRACEWID
 40
1.0
  9
$TEXTSTYLE
  7
ISOCP
  9
$CLAYER
  8
OBJEKT
  9
$CELTYPE
  6
BYLAYER
  9
$CECOLOR
 62
   256
  9
$CELTSCALE
 40
1.0
  9
$DISPSILH
 70
     0
  9
$DIMSCALE
 40
1.0
  9
$DIMASZ
 40
3.5
  9
$DIMEXO
 40
0.1
  9
$DIMDLI
 40
7.0
  9
$DIMRND
 40
0.0
  9
$DIMDLE
 40
0.0
  9
$DIMEXE
 40
1.8
  9
$DIMTP
 40
0.0
  9
$DIMTM
 40
0.0
  9
$DIMTXT
 40
3.5
  9
$DIMCEN
 40
1.5
  9
$DIMTSZ
 40
0.0
  9
$DIMTOL
 70
     0
  9
$DIMLIM
 70
     0
  9
$DIMTIH
 70
     0
  9
$DIMTOH
 70
     1
  9
$DIMSE1
 70
     0
  9
$DIMSE2
 70
     0
  9
$DIMTAD
 70
     0
  9
$DIMZIN
 70
     8
  9
$DIMBLK
  1

  9
$DIMASO
 70
     1
  9
$DIMSHO
 70
     1
  9
$DIMPOST
  1

  9
$DIMAPOST
  1

  9
$DIMALT
 70
     0
  9
$DIMALTD
 70
     2
  9
$DIMALTF
 40
25.4
  9
$DIMLFAC
 40
1.0
  9
$DIMTOFL
 70
     1
  9
$DIMTVP
 40
1.0
  9
$DIMTIX
 70
     0
  9
$DIMSOXD
 70
     0
  9
$DIMSAH
 70
     0
  9
$DIMBLK1
  1

  9
$DIMBLK2
  1

  9
$DIMSTYLE
  2
ISOCP-2000-1-1
  9
$DIMCLRD
 70
   256
  9
$DIMCLRE
 70
   256
  9
$DIMCLRT
 70
     7
  9
$DIMTFAC
 40
1.0
  9
$DIMGAP
 40
0.5
  9
$DIMJUST
 70
     0
  9
$DIMSD1
 70
     0
  9
$DIMSD2
 70
     0
  9
$DIMTOLJ
 70
     1
  9
$DIMTZIN
 70
     0
  9
$DIMALTZ
 70
     0
  9
$DIMALTTZ
 70
     0
  9
$DIMUPT
 70
     0
  9
$DIMDEC
 70
     2
  9
$DIMTDEC
 70
     2
  9
$DIMALTU
 70
     8
  9
$DIMALTTD
 70
     2
  9
$DIMTXSTY
  7
ISOCP
  9
$DIMAUNIT
 70
     0
  9
$DIMADEC
 70
     2
  9
$DIMALTRND
 40
0.0
  9
$DIMAZIN
 70
     2
  9
$DIMDSEP
 70
    44
  9
$DIMATFIT
 70
     3
  9
$DIMFRAC
 70
     0
  9
$DIMLDRBLK
  1

  9
$DIMLUNIT
 70
     2
  9
$DIMLWD
 70
    13
  9
$DIMLWE
 70
    13
  9
$DIMTMOVE
 70
     2
  9
$LUNITS
 70
     2
  9
$LUPREC
 70
     4
  9
$SKETCHINC
 40
1.0
  9
$FILLETRAD
 40
0.0
  9
$AUNITS
 70
     0
  9
$AUPREC
 70
     0
  9
$MENU
  1
acad
  9
$ELEVATION
 40
0.0
  9
$PELEVATION
 40
0.0
  9
$THICKNESS
 40
0.0
  9
$LIMCHECK
 70
     0
  9
$CHAMFERA
 40
10.0
  9
$CHAMFERB
 40
10.0
  9
$CHAMFERC
 40
20.0
  9
$CHAMFERD
 40
0.0
  9
$SKPOLY
 70
     0
  9
$TDCREATE
 40
2452583.448650799
  9
$TDUCREATE
 40
2452583.406984132
  9
$TDUPDATE
 40
2453809.389062639
  9
$TDUUPDATE
 40
2453809.347395973
  9
$TDINDWG
 40
0.7094397801
  9
$TDUSRTIMER
 40
0.7094390509
  9
$USRTIMER
 70
     1
  9
$ANGBASE
 50
0.0
  9
$ANGDIR
 70
     0
  9
$PDMODE
 70
     0
  9
$PDSIZE
 40
0.0
  9
$PLINEWID
 40
0.0
  9
$SPLFRAME
 70
     0
  9
$SPLINETYPE
 70
     6
  9
$SPLINESEGS
 70
     8
  9
$HANDSEED
  5
41B8
  9
$SURFTAB1
 70
     6
  9
$SURFTAB2
 70
     6
  9
$SURFTYPE
 70
     6
  9
$SURFU
 70
     6
  9
$SURFV
 70
     6
  9
$UCSBASE
  2

  9
$UCSNAME
  2

  9
$UCSORG
 10
0.0
 20
0.0
 30
0.0
  9
$UCSXDIR
 10
1.0
 20
0.0
 30
0.0
  9
$UCSYDIR
 10
0.0
 20
1.0
 30
0.0
  9
$UCSORTHOREF
  2

  9
$UCSORTHOVIEW
 70
     0
  9
$UCSORGTOP
 10
0.0
 20
0.0
 30
0.0
  9
$UCSORGBOTTOM
 10
0.0
 20
0.0
 30
0.0
  9
$UCSORGLEFT
 10
0.0
 20
0.0
 30
0.0
  9
$UCSORGRIGHT
 10
0.0
 20
0.0
 30
0.0
  9
$UCSORGFRONT
 10
0.0
 20
0.0
 30
0.0
  9
$UCSORGBACK
 10
0.0
 20
0.0
 30
0.0
  9
$PUCSBASE
  2

  9
$PUCSNAME
  2

  9
$PUCSORG
 10
0.0
 20
0.0
 30
0.0
  9
$PUCSXDIR
 10
1.0
 20
0.0
 30
0.0
  9
$PUCSYDIR
 10
0.0
 20
1.0
 30
0.0
  9
$PUCSORTHOREF
  2

  9
$PUCSORTHOVIEW
 70
     0
  9
$PUCSORGTOP
 10
0.0
 20
0.0
 30
0.0
  9
$PUCSORGBOTTOM
 10
0.0
 20
0.0
 30
0.0
  9
$PUCSORGLEFT
 10
0.0
 20
0.0
 30
0.0
  9
$PUCSORGRIGHT
 10
0.0
 20
0.0
 30
0.0
  9
$PUCSORGFRONT
 10
0.0
 20
0.0
 30
0.0
  9
$PUCSORGBACK
 10
0.0
 20
0.0
 30
0.0
  9
$USERI1
 70
     0
  9
$USERI2
 70
     0
  9
$USERI3
 70
     0
  9
$USERI4
 70
     0
  9
$USERI5
 70
     0
  9
$USERR1
 40
0.0
  9
$USERR2
 40
0.0
  9
$USERR3
 40
0.0
  9
$USERR4
 40
0.0
  9
$USERR5
 40
0.0
  9
$WORLDVIEW
 70
     1
  9
$SHADEDGE
 70
     3
  9
$SHADEDIF
 70
    70
  9
$TILEMODE
 70
     1
  9
$MAXACTVP
 70
    48
  9
$PINSBASE
 10
0.0
 20
0.0
 30
0.0
  9
$PLIMCHECK
 70
     0
  9
$PEXTMIN
 10
7.517505788460596
 20
6.000216251557958
 30
0.0
  9
$PEXTMAX
 10
194.7175057884606
 20
276.000216251558
 30
0.0
  9
$PLIMMIN
 10
-5.873749732971191
 20
-5.408092021942138
  9
$PLIMMAX
 10
204.0995779037475
 20
291.5602307319641
  9
$UNITMODE
 70
     0
  9
$VISRETAIN
 70
     1
  9
$PLINEGEN
 70
     0
  9
$PSLTSCALE
 70
     1
  9
$TREEDEPTH
 70
  3020
  9
$CMLSTYLE
  2
STANDARD
  9
$CMLJUST
 70
     0
  9
$CMLSCALE
 40
20.0
  9
$PROXYGRAPHICS
 70
     1
  9
$MEASUREMENT
 70
     1
  9
$CELWEIGHT
370
    -1
  9
$ENDCAPS
280
     0
  9
$JOINSTYLE
280
     0
  9
$LWDISPLAY
290
     0
  9
$INSUNITS
 70
     0
  9
$HYPERLINKBASE
  1

  9
$STYLESHEET
  1
monochrome.ctb
  9
$XEDIT
290
     1
  9
$CEPSNTYPE
380
     0
  9
$PSTYLEMODE
290
     1
  9
$FINGERPRINTGUID
  2
{807DCE7E-07C7-11D5-AD80-00105AD93755}
  9
$VERSIONGUID
  2
{DE449E86-BEF4-4A49-ACE7-AFC2B8B2B838}
  9
$EXTNAMES
290
     1
  9
$PSVPSCALE
 40
0.0
  9
$OLESTARTUP
290
     0
  9
$SORTENTS
280
    96
  9
$INDEXCTL
280
     0
  9
$HIDETEXT
280
     0
  9
$XCLIPFRAME
290
     0
  9
$HALOGAP
280
     0
  9
$OBSCOLOR
 70
   257
  9
$OBSLTYPE
280
     0
  9
$INTERSECTIONDISPLAY
280
     0
  9
$INTERSECTIONCOLOR
 70
   257
  9
$DIMASSOC
280
     1
  9
$PROJECTNAME
  1

  0
ENDSEC
  0
SECTION
  2
CLASSES
  0
CLASS
  1
DICTIONARYVAR
  2
AcDbDictionaryVar
  3
ObjectDBX Classes
 90
        0
 91
        2
280
     0
281
     0
  0
CLASS
  1
ACDBDICTIONARYWDFLT
  2
AcDbDictionaryWithDefault
  3
ObjectDBX Classes
 90
        0
 91
        1
280
     0
281
     0
  0
CLASS
  1
SORTENTSTABLE
  2
AcDbSortentsTable
  3
ObjectDBX Classes
 90
        0
 91
        0
280
     0
281
     0
  0
ENDSEC
  0
SECTION
  2
TABLES
  0
TABLE
  2
VPORT
  5
8
330
0
100
AcDbSymbolTable
 70
     2
  0
VPORT
  5
41B7
330
8
100
AcDbSymbolTableRecord
100
AcDbViewportTableRecord
  2
*Active
 70
     0
 10
0.0
 20
0.0
 11
1.0
 21
1.0
 12
1595.097218075417
 22
220.6796593111117
 13
0.0
 23
0.0
 14
10.0
 24
10.0
 15
10.0
 25
10.0
 16
0.0
 26
0.0
 36
1.0
 17
0.0
 27
0.0
 37
0.0
 40
848.5001013581513
 41
1.557419354838709
 42
50.0
 43
0.0
 44
0.0
 50
0.0
 51
0.0
 71
     0
 72
   100
 73
     1
 74
     1
 75
     0
 76
     0
 77
     0
 78
     0
281
     0
 65
     1
110
0.0
120
0.0
130
0.0
111
1.0
121
0.0
131
0.0
112
0.0
122
1.0
132
0.0
 79
     0
146
0.0
  0
ENDTAB
  0
TABLE
  2
LTYPE
  5
5
330
0
100
AcDbSymbolTable
 70
     4
  0
LTYPE
  5
12
330
5
100
AcDbSymbolTableRecord
100
AcDbLinetypeTableRecord
  2
BYBLOCK
 70
     0
  3

 72
    65
 73
     0
 40
0.0
  0
LTYPE
  5
13
330
5
100
AcDbSymbolTableRecord
100
AcDbLinetypeTableRecord
  2
BYLAYER
 70
     0
  3

 72
    65
 73
     0
 40
0.0
  0
LTYPE
  5
14
330
5
100
AcDbSymbolTableRecord
100
AcDbLinetypeTableRecord
  2
CONTINUOUS
 70
     0
  3
Solid line
 72
    65
 73
     0
 40
0.0
  0
LTYPE
  5
26
330
5
100
AcDbSymbolTableRecord
100
AcDbLinetypeTableRecord
  2
MITTE
 70
     0
  3
Mitte ____ _ ____ _ ____ _ ____ _ ____ _ ____
 72
    65
 73
     4
 40
50.8
 49
31.75
 74
     0
 49
-6.349999999999999
 74
     0
 49
6.349999999999999
 74
     0
 49
-6.349999999999999
 74
     0
  0
LTYPE
  5
1BFE
330
5
100
AcDbSymbolTableRecord
100
AcDbLinetypeTableRecord
  2
STRICHPUNKT
 70
     0
  3
__ . __ . __ . __ . __ . __ . __ . __ . __ . __
 72
    65
 73
     4
 40
1.0
 49
0.5
 74
     0
 49
-0.25
 74
     0
 49
0.0
 74
     0
 49
-0.25
 74
     0
  0
LTYPE
  5
1E27
330
5
100
AcDbSymbolTableRecord
100
AcDbLinetypeTableRecord
  2
MITTE2
 70
     0
  3
Mitte (.5x) ___ _ ___ _ ___ _ ___ _ ___ _ ___
 72
    65
 73
     4
 40
28.575
 49
19.05
 74
     0
 49
-3.174999999999999
 74
     0
 49
3.174999999999999
 74
     0
 49
-3.174999999999999
 74
     0
  0
ENDTAB
  0
TABLE
  2
LAYER
  5
2
330
0
100
AcDbSymbolTable
 70
    15
  0
LAYER
  5
E
330
2
100
AcDbSymbolTableRecord
100
AcDbLayerTableRecord
  2
0
 70
     0
 62
     7
  6
CONTINUOUS
370
    -3
390
1449
  0
LAYER
  5
23
330
2
100
AcDbSymbolTableRecord
100
AcDbLayerTableRecord
  2
OBJEKT
 70
     0
 62
     7
  6
CONTINUOUS
370
    50
390
1449
  0
LAYER
  5
2A
330
2
100
AcDbSymbolTableRecord
100
AcDbLayerTableRecord
  2
MITTELLINIE
 70
     0
 62
     1
  6
MITTE
370
    -3
390
1449
  0
LAYER
  5
2C
330
2
100
AcDbSymbolTableRecord
100
AcDbLayerTableRecord
  2
SCHRAFFUR
 70
     0
 62
     9
  6
CONTINUOUS
370
    -3
390
1449
  0
LAYER
  5
FC
330
2
100
AcDbSymbolTableRecord
100
AcDbLayerTableRecord
  2
1
 70
     0
 62
     7
  6
CONTINUOUS
370
    50
390
1449
  0
LAYER
  5
100
330
2
100
AcDbSymbolTableRecord
100
AcDbLayerTableRecord
  2
5
 70
     0
 62
     4
  6
CONTINUOUS
370
    -3
390
1449
  0
LAYER
  5
101
330
2
100
AcDbSymbolTableRecord
100
AcDbLayerTableRecord
  2
4
 70
     0
 62
     2
  6
CONTINUOUS
370
    -3
390
1449
  0
LAYER
  5
13F5
330
2
100
AcDbSymbolTableRecord
100
AcDbLayerTableRecord
  2
DEFPOINTS
 70
     0
 62
     7
  6
CONTINUOUS
290
     0
370
    -3
390
1449
  0
LAYER
  5
15D3
330
2
100
AcDbSymbolTableRecord
100
AcDbLayerTableRecord
  2
WERKSKANTEN
 70
     0
 62
     7
  6
CONTINUOUS
370
    -3
390
1449
  0
LAYER
  5
1BFF
330
2
100
AcDbSymbolTableRecord
100
AcDbLayerTableRecord
  2
2
 70
     0
 62
     1
  6
STRICHPUNKT
370
    -3
390
1449
  0
LAYER
  5
1E2A
330
2
100
AcDbSymbolTableRecord
100
AcDbLayerTableRecord
  2
SCHRAFUR
 70
     0
 62
     9
  6
CONTINUOUS
370
    -3
390
1449
  0
LAYER
  5
1E2B
330
2
100
AcDbSymbolTableRecord
100
AcDbLayerTableRecord
  2
TEXTE
 70
     0
 62
     2
  6
CONTINUOUS
370
    -3
390
1449
  0
LAYER
  5
2318
330
2
100
AcDbSymbolTableRecord
100
AcDbLayerTableRecord
  2
4-TEXT
 70
     0
 62
     2
  6
CONTINUOUS
370
    13
390
1449
  0
LAYER
  5
2499
330
2
100
AcDbSymbolTableRecord
100
AcDbLayerTableRecord
  2
Ansichtsfenster
 70
     0
 62
     5
  6
CONTINUOUS
370
    -3
390
1449
  0
LAYER
  5
24A5
330
2
100
AcDbSymbolTableRecord
100
AcDbLayerTableRecord
  2
5-BEM
 70
     0
 62
     4
  6
CONTINUOUS
370
    30
390
1449
  0
ENDTAB
  0
TABLE
  2
STYLE
  5
3
330
0
100
AcDbSymbolTable
 70
     3
  0
STYLE
  5
F
330
3
100
AcDbSymbolTableRecord
100
AcDbTextStyleTableRecord
  2
STANDARD
 70
     0
 40
0.0
 41
1.0
 50
0.0
 71
     0
 42
3.5
  3
isocp.shx
  4

  0
STYLE
  5
102
330
3
100
AcDbSymbolTableRecord
100
AcDbTextStyleTableRecord
  2
ROMANS
 70
     0
 40
0.0
 41
1.0
 50
0.0
 71
     0
 42
3.5
  3
romans
  4

  0
STYLE
  5
1128
330
3
100
AcDbSymbolTableRecord
100
AcDbTextStyleTableRecord
  2
ISOCP
 70
     0
 40
0.0
 41
1.0
 50
0.0
 71
     0
 42
3.5
  3
isocpeur.ttf
  4

1001
ACAD
1000
ISOCPEUR
1071
       34
  0
ENDTAB
  0
TABLE
  2
VIEW
  5
6
330
0
100
AcDbSymbolTable
 70
     0
  0
ENDTAB
  0
TABLE
  2
UCS
  5
7
330
0
100
AcDbSymbolTable
 70
     0
  0
ENDTAB
  0
TABLE
  2
APPID
  5
9
330
0
100
AcDbSymbolTable
 70
     4
  0
APPID
  5
10
330
9
100
AcDbSymbolTableRecord
100
AcDbRegAppTableRecord
  2
ACAD
 70
     0
  0
APPID
  5
112B
330
9
100
AcDbSymbolTableRecord
100
AcDbRegAppTableRecord
  2
CONTENTTABDATA
 70
     0
  0
APPID
  5
112C
330
9
100
AcDbSymbolTableRecord
100
AcDbRegAppTableRecord
  2
CONTENTCURRENTTAB
 70
     0
  0
APPID
  5
13A0
330
9
100
AcDbSymbolTableRecord
100
AcDbRegAppTableRecord
  2
CONTENTBLOCKICON
 70
     0
  0
ENDTAB
  0
TABLE
  2
DIMSTYLE
  5
A
330
0
100
AcDbSymbolTable
 70
     2
100
AcDbDimStyleTable
 71
     2
340
24A6
340
1C00
  0
DIMSTYLE
105
1C00
330
A
100
AcDbSymbolTableRecord
100
AcDbDimStyleTableRecord
  2
STANDARD
 70
     0
340
F
  0
DIMSTYLE
105
24A6
102
{ACAD_REACTORS
330
3FBE
330
3EF1
330
3EF2
330
3EFD
330
3EFE
330
3EFF
330
3F05
102
}
330
A
100
AcDbSymbolTableRecord
100
AcDbDimStyleTableRecord
  2
ISOCP-2000-1-1
 70
     0
 41
3.5
 42
0.1
 43
7.0
 44
1.8
 73
     0
 78
     8
 79
     2
140
3.5
141
1.5
145
1.0
147
0.5
172
     1
176
   256
177
   256
178
     7
179
     2
271
     2
272
     2
273
     8
278
    44
279
     2
340
1128
371
    13
372
    13
  0
ENDTAB
  0
TABLE
  2
BLOCK_RECORD
  5
1
330
0
100
AcDbSymbolTable
 70
    18
  0
BLOCK_RECORD
  5
18
330
1
100
AcDbSymbolTableRecord
100
AcDbBlockTableRecord
  2
*MODEL_SPACE
340
144C
  0
BLOCK_RECORD
  5
2588
330
1
100
AcDbSymbolTableRecord
100
AcDbBlockTableRecord
  2
*Paper_Space
340
2589
  0
BLOCK_RECORD
  5
103
330
1
100
AcDbSymbolTableRecord
100
AcDbBlockTableRecord
  2
PROTO
340
0
310
280000002000000020000000010004000000000000020000000000000000000000000000000000000000000000008000008000000080800080000000800080008080000080808000C0C0C0000000FF0000FF000000FFFF00FF000000FF00FF00FFFF0000FFFFFF00FFFFFFFFFFFFFFFFFFFFFFFFFFFFFFFFFFFFFFFFFFFFFF
310
FFFFFFFFFFFFFFFFFFFFFFFFFFFFFFFFFFFFFFFFFFFFFFFFFFFFFFFFFFFFFFFFFFFFFFFFFFFFFFFFFFFFFFFFFFFFFFFFFFFFFFFFFFFFFFFFFFFFFFFFFFFFFFFFFFFFFFFFFFFFFFFFFFFFFFFFFFFFFFFFFFFFFFFFFFFFFFFFFFFFFFFFFFFFFFFFFFFFFFFFFFFFFFFFFFFFFFFFFFFFFFFFFFFFFFFFFFFFFFFFFFFFFFFFFFFFFF
310
FFFFFFFFFFFFFFFFFFFFFFFFFFFFFFFFFFFFFFFFFFFFFFFFFFFFFFFFFFFFFFFFFFFFFFFFFFFFFFFFFFFFFFFFFFFFFFFFFFFFFFFFFFFFFFFFFFFFFFFFFFFFFFFFFFFFFFFFFFFFFFFFFFFFFFFFFFFFFFFFFFFFFFFFFFFFFFFFFFFFFFFFFFFFFFFFFFFFFFFFFFFFFFFFFFFFFFFFFFFFFFFFFFFFFFFFFFFFFFFFFFFFFFFFFFFFFF
310
FFFFFFFFFFFFFFFFFFFFFFFFFFFFFFFFFFFFFFFFFFFFFFFFFFFFFFFFFFFFFFFFFFFFFFFFFFFFFFFFFFFFFFFFFFFFFFFFFFFFFFFFFFFFFFFFFFFFFFFFFFFFFFFFFFFFFFFFFFFFFFFFFFFFFFFFFFFFFFFFFFFFFFFFFFFFFFFFFFFFFFFFFFFFFFFFFFFFFFFFFFFFFFFFFFFFFFFFFFFFFFFFFFFFFFFFFFFFFFFFFFFFFFFFFFFFFF
310
FFFFFFFFFFFFFFFFFFFFFFFFFFFFFFFFFFFFFFFFFFFFFFFFFFFFFFFFFFFFFFFFFFFFFFFFFFFFFFFFFFFFFFFFFFFFFFFFFFFFFFFFFFFFFFFFFFFFFFFFFFFFFFFFFFFFFFFFFFFFFFFFFFFFFFFFFFFFFFFFFFFFFFFFFFFFFFFFFFFFFFFFFFFFFFFFFFFFFFFFFFFFFFFFFFFFFFFF
102
{BLKREFS
331
107
102
}
  0
BLOCK_RECORD
  5
1EC7
330
1
100
AcDbSymbolTableRecord
100
AcDbBlockTableRecord
  2
schriftfeld-31.01.02
340
0
102
{BLKREFS
331
244F
331
253E
331
261D
331
26F8
102
}
  0
BLOCK_RECORD
  5
2319
330
1
100
AcDbSymbolTableRecord
100
AcDbBlockTableRecord
  2
Toleranz1000
340
0
102
{BLKREFS
331
261C
331
273C
102
}
  0
BLOCK_RECORD
  5
232F
330
1
100
AcDbSymbolTableRecord
100
AcDbBlockTableRecord
  2
Datenblatt 13.02.02
340
0
102
{BLKREFS
331
25FF
331
26D6
102
}
  0
BLOCK_RECORD
  5
258C
330
1
100
AcDbSymbolTableRecord
100
AcDbBlockTableRecord
  2
*Paper_Space4
340
258D
  0
BLOCK_RECORD
  5
24A7
330
1
100
AcDbSymbolTableRecord
100
AcDbBlockTableRecord
  2
oberfläche_nach_1302
340
0
102
{BLKREFS
331
24AD
331
2585
102
}
1001
ACAD
1000
DesignCenter Data
1002
{
1070
     1
1070
     4
1002
}
  0
BLOCK_RECORD
  5
24AE
330
1
100
AcDbSymbolTableRecord
100
AcDbBlockTableRecord
  2
Allgemeintoleranzen1
340
0
102
{BLKREFS
331
24B4
331
2582
102
}
  0
BLOCK_RECORD
  5
24DA
330
1
100
AcDbSymbolTableRecord
100
AcDbBlockTableRecord
  2
A3ra
340
0
102
{BLKREFS
331
24E3
102
}
  0
BLOCK_RECORD
  5
23BE
330
1
100
AcDbSymbolTableRecord
100
AcDbBlockTableRecord
  2
*Paper_Space8
340
23BF
  0
BLOCK_RECORD
  5
23BA
330
1
100
AcDbSymbolTableRecord
100
AcDbBlockTableRecord
  2
*Paper_Space9
340
23BB
  0
BLOCK_RECORD
  5
28F8
330
1
100
AcDbSymbolTableRecord
100
AcDbBlockTableRecord
  2
Werkstückkanten
340
0
102
{BLKREFS
331
290E
331
2922
102
}
  0
BLOCK_RECORD
  5
40B2
330
1
100
AcDbSymbolTableRecord
100
AcDbBlockTableRecord
  2
*D11
340
0
  0
BLOCK_RECORD
  5
40C0
330
1
100
AcDbSymbolTableRecord
100
AcDbBlockTableRecord
  2
*D12
340
0
  0
BLOCK_RECORD
  5
40CC
330
1
100
AcDbSymbolTableRecord
100
AcDbBlockTableRecord
  2
*D13
340
0
  0
BLOCK_RECORD
  5
40D8
330
1
100
AcDbSymbolTableRecord
100
AcDbBlockTableRecord
  2
*D14
340
0
  0
BLOCK_RECORD
  5
40E4
330
1
100
AcDbSymbolTableRecord
100
AcDbBlockTableRecord
  2
*D15
340
0
  0
BLOCK_RECORD
  5
40F0
330
1
100
AcDbSymbolTableRecord
100
AcDbBlockTableRecord
  2
*D16
340
0
  0
BLOCK_RECORD
  5
40FC
330
1
100
AcDbSymbolTableRecord
100
AcDbBlockTableRecord
  2
*D17
340
0
  0
ENDTAB
  0
ENDSEC
  0
SECTION
  2
BLOCKS
  0
BLOCK
  5
19
330
18
100
AcDbEntity
  8
0
100
AcDbBlockBegin
  2
*MODEL_SPACE
 70
     0
 10
0.0
 20
0.0
 30
0.0
  3
*MODEL_SPACE
  1

  0
ENDBLK
  5
1A
330
18
100
AcDbEntity
  8
0
100
AcDbBlockEnd
  0
BLOCK
  5
258A
330
2588
100
AcDbEntity
 67
     1
  8
0
100
AcDbBlockBegin
  2
*Paper_Space
 70
     0
 10
0.0
 20
0.0
 30
0.0
  3
*Paper_Space
  1

  0
ENDBLK
  5
258B
330
2588
100
AcDbEntity
 67
     1
  8
0
100
AcDbBlockEnd
  0
BLOCK
  5
104
330
103
100
AcDbEntity
  8
0
100
AcDbBlockBegin
  2
PROTO
 70
     0
 10
0.0
 20
0.0
 30
0.0
  3
PROTO
  1

  0
ENDBLK
  5
105
330
103
100
AcDbEntity
  8
0
100
AcDbBlockEnd
  0
BLOCK
  5
1F5E
330
1EC7
100
AcDbEntity
  8
0
100
AcDbBlockBegin
  2
schriftfeld-31.01.02
 70
     2
 10
0.0
 20
0.0
 30
0.0
  3
schriftfeld-31.01.02
  1

  0
ATTDEF
  5
1EC8
330
1EC7
100
AcDbEntity
  8
TEXTE
 62
     6
370
    35
100
AcDbText
 10
-42.57902579965855
 20
27.41847158242493
 30
0.0
 40
3.5
  1

  7
ISOCP
 72
     1
 11
-42.57902579965855
 21
27.41847158242493
 31
0.0
100
AcDbAttributeDefinition
  3
Benennung
  2
BENENNUNG
 70
     0
  0
ATTDEF
  5
1EC9
330
1EC7
100
AcDbEntity
  8
TEXTE
100
AcDbText
 10
-81.88793327393478
 20
16.52537108464139
 30
0.0
 40
3.5
  1

  7
ISOCP
100
AcDbAttributeDefinition
  3
A?
  2
A?
 70
     0
  0
ATTDEF
  5
1ECA
330
1EC7
100
AcDbEntity
  8
TEXTE
 62
     6
370
    35
100
AcDbText
 10
-44.16891796252076
 20
16.6131201199115
 30
0.0
 40
3.5
  1

  7
ISOCP
 72
     1
 11
-44.16891796252076
 21
16.6131201199115
 31
0.0
100
AcDbAttributeDefinition
  3
Zeichnungsnummer
  2
ZNR
 70
     0
  0
ATTDEF
  5
1ECB
330
1EC7
100
AcDbEntity
  8
TEXTE
100
AcDbText
 10
-85.71224364036311
 20
9.136808296300372
 30
0.0
 40
3.5
  1

 41
6.802559019076436
  7
ISOCP
 72
     5
 11
0.0
 21
9.136808296300369
 31
0.0
100
AcDbAttributeDefinition
  3
Klassifizierungsnr.
  2
KL.NR.
 70
     0
  0
TEXT
  5
1ECC
330
1EC7
100
AcDbEntity
  8
TEXTE
100
AcDbText
 10
-140.6
 20
18.0000000000001
 30
0.0
 40
2.5
  1
CAD
  7
ISOCP
100
AcDbText
  0
ATTDEF
  5
1ECD
330
1EC7
100
AcDbEntity
  8
TEXTE
100
AcDbText
 10
-130.0425163509875
 20
18.06867633133571
 30
0.0
 40
2.5
  1

  7
ISOCP
100
AcDbAttributeDefinition
  3
CAD Datum
  2
CADDAT
 70
     0
  0
ATTDEF
  5
1ECE
330
1EC7
100
AcDbEntity
  8
TEXTE
100
AcDbText
 10
-114.491998736572
 20
18.06867633133571
 30
0.0
 40
2.5
  1

  7
ISOCP
100
AcDbAttributeDefinition
  3
Bearb. Name
  2
BEARBNAME
 70
     0
  0
TEXT
  5
1ECF
330
1EC7
100
AcDbEntity
  8
TEXTE
100
AcDbText
 10
-140.6
 20
30.75000000000005
 30
0.0
 40
2.5
  1
Bearb.
  7
ISOCP
100
AcDbText
  0
ATTDEF
  5
1ED0
330
1EC7
100
AcDbEntity
  8
TEXTE
100
AcDbText
 10
-130.0425163509874
 20
30.81867633133571
 30
0.0
 40
2.5
  1

  7
ISOCP
100
AcDbAttributeDefinition
  3
Bearb. Datum
  2
BEARBDAT
 70
     0
  0
ATTDEF
  5
1ED1
330
1EC7
100
AcDbEntity
  8
TEXTE
100
AcDbText
 10
-114.491998736572
 20
30.81867633133571
 30
0.0
 40
2.5
  1

  7
ISOCP
100
AcDbAttributeDefinition
  3
Bearb. Name
  2
BEARBNAME
 70
     0
  0
TEXT
  5
1ED2
330
1EC7
100
AcDbEntity
  8
TEXTE
100
AcDbText
 10
-140.6
 20
26.5000000000001
 30
0.0
 40
2.5
  1
Gepr.
  7
ISOCP
100
AcDbText
  0
ATTDEF
  5
1ED3
330
1EC7
100
AcDbEntity
  8
TEXTE
100
AcDbText
 10
-130.0425163509874
 20
26.56867633133571
 30
0.0
 40
2.5
  1

  7
ISOCP
100
AcDbAttributeDefinition
  3
Geprüftes Datum
  2
GEPR-DAT
 70
     0
  0
ATTDEF
  5
1ED4
330
1EC7
100
AcDbEntity
  8
TEXTE
100
AcDbText
 10
-114.491998736572
 20
26.56867633133571
 30
0.0
 40
2.5
  1

  7
ISOCP
100
AcDbAttributeDefinition
  3
Geprüft Name
  2
GEPÜNAME
 70
     0
  0
TEXT
  5
1ED5
330
1EC7
100
AcDbEntity
  8
TEXTE
100
AcDbText
 10
-140.6
 20
22.25000000000004
 30
0.0
 40
2.5
  1
Norm
  7
ISOCP
100
AcDbText
  0
ATTDEF
  5
1ED6
330
1EC7
100
AcDbEntity
  8
TEXTE
100
AcDbText
 10
-130.0425163509875
 20
22.31867633133571
 30
0.0
 40
2.5
  1

  7
ISOCP
100
AcDbAttributeDefinition
  3
NORM Datum
  2
NORMBDAT
 70
     0
  0
ATTDEF
  5
1ED7
330
1EC7
100
AcDbEntity
  8
TEXTE
100
AcDbText
 10
-114.491998736572
 20
22.31867633133571
 30
0.0
 40
2.5
  1

  7
ISOCP
100
AcDbAttributeDefinition
  3
Bearb. Name
  2
BEARBNAME
 70
     0
  0
ATTDEF
  5
1ED8
330
1EC7
100
AcDbEntity
  8
TEXTE
100
AcDbText
 10
-106.4604474064139
 20
64.81867633133567
 30
0.0
 40
2.5
  1

  7
ISOCP
 72
     1
 11
-106.4604474064139
 21
64.81867633133567
 31
0.0
100
AcDbAttributeDefinition
  3
Maßstab1
  2
MAßSTAB1
 70
     0
  0
ATTDEF
  5
1ED9
330
1EC7
100
AcDbEntity
  8
TEXTE
100
AcDbText
 10
-106.1200117540381
 20
60.56867633133567
 30
0.0
 40
2.5
  1

  7
ISOCP
 72
     1
 11
-106.1200117540381
 21
60.56867633133567
 31
0.0
100
AcDbAttributeDefinition
  3
Maßstab2
  2
MAßSTAB2
 70
     0
  0
ATTDEF
  5
1EDA
330
1EC7
100
AcDbEntity
  8
TEXTE
100
AcDbText
 10
-106.1200117540381
 20
56.31867633133566
 30
0.0
 40
2.5
  1

  7
ISOCP
 72
     1
 11
-106.1200117540381
 21
56.31867633133566
 31
0.0
100
AcDbAttributeDefinition
  3
maßstab3
  2
MAßSTAB3
 70
     0
  0
ATTDEF
  5
1EDB
330
1EC7
100
AcDbEntity
  8
TEXTE
100
AcDbText
 10
-130.0425163509874
 20
1.068676331335709
 30
0.0
 40
2.5
  1

  7
ISOCP
100
AcDbAttributeDefinition
  3
URSPRUNG
  2
URSPRUNG
 70
     0
  0
ATTDEF
  5
1EDC
330
1EC7
100
AcDbEntity
  8
TEXTE
100
AcDbText
 10
-85.84251635098741
 20
1.068676331335694
 30
0.0
 40
2.5
  1

  7
ISOCP
100
AcDbAttributeDefinition
  3
Esetztfuer
  2
ERSETZTFÜR
 70
     0
  0
ATTDEF
  5
1EDD
330
1EC7
100
AcDbEntity
  8
TEXTE
100
AcDbText
 10
-37.14251635098742
 20
1.06867633133568
 30
0.0
 40
2.5
  1

  7
ISOCP
100
AcDbAttributeDefinition
  3
Erstelltfür
  2
ERSTELLTFÜR
 70
     0
  0
TEXT
  5
1EDE
330
1EC7
100
AcDbEntity
  8
TEXTE
100
AcDbText
 10
-186.2
 20
1.000000000000056
 30
0.0
 40
2.5
  1
Zust.
  7
ISOCP
100
AcDbText
  0
TEXT
  5
1EDF
330
1EC7
100
AcDbEntity
  8
TEXTE
100
AcDbText
 10
-177.9345499795853
 20
1.000000000000056
 30
0.0
 40
2.5
  1
Änd.
  7
ISOCP
100
AcDbText
  0
TEXT
  5
1EE0
330
1EC7
100
AcDbEntity
  8
TEXTE
100
AcDbText
 10
-164.900279456747
 20
0.909003677139907
 30
0.0
 40
2.5
  1
Datum
  7
ISOCP
100
AcDbText
  0
TEXT
  5
1EE1
330
1EC7
100
AcDbEntity
  8
TEXTE
100
AcDbText
 10
-152.0797376658415
 20
0.909003677139907
 30
0.0
 40
2.5
  1
Name
  7
ISOCP
100
AcDbText
  0
ATTDEF
  5
1EE2
330
1EC7
100
AcDbEntity
  8
TEXTE
100
AcDbText
 10
-186.0425163509874
 20
5.318676331335709
 30
0.0
 40
2.5
  1

  7
ISOCP
100
AcDbAttributeDefinition
  3
Zustand
  2
ZUST.
 70
     0
  0
ATTDEF
  5
1EE3
330
1EC7
100
AcDbEntity
  8
TEXTE
100
AcDbText
 10
-177.8982217996797
 20
5.318676331335709
 30
0.0
 40
2.5
  1

  7
ISOCP
100
AcDbAttributeDefinition
  3
Änderung
  2
ÄND.
 70
     0
  0
ATTDEF
  5
1EE4
330
1EC7
100
AcDbEntity
  8
TEXTE
100
AcDbText
 10
-164.7427958077344
 20
5.227680008475559
 30
0.0
 40
2.5
  1

 41
0.9791666666666666
  7
ISOCP
 72
     5
 11
-158.8677958077344
 21
5.227680008475559
 31
0.0
100
AcDbAttributeDefinition
  3
Bearb. Datum
  2
DAT
 70
     0
  0
ATTDEF
  5
1EE5
330
1EC7
100
AcDbEntity
  8
TEXTE
100
AcDbText
 10
-152.1611017383567
 20
5.227680008475559
 30
0.0
 40
2.5
  1

  7
ISOCP
100
AcDbAttributeDefinition
  3
Bearb. NAME
  2
NAME
 70
     0
  0
ATTDEF
  5
1EE6
330
1EC7
100
AcDbEntity
  8
TEXTE
100
AcDbText
 10
-186.0425163509874
 20
9.568676331335709
 30
0.0
 40
2.5
  1

  7
ISOCP
100
AcDbAttributeDefinition
  3
Zustand
  2
ZUST.
 70
     0
  0
ATTDEF
  5
1EE7
330
1EC7
100
AcDbEntity
  8
TEXTE
100
AcDbText
 10
-177.8982217996797
 20
9.568676331335709
 30
0.0
 40
2.5
  1

  7
ISOCP
100
AcDbAttributeDefinition
  3
Änderung
  2
ÄND.
 70
     0
  0
ATTDEF
  5
1EE8
330
1EC7
100
AcDbEntity
  8
TEXTE
100
AcDbText
 10
-164.7427958077344
 20
9.477680008475545
 30
0.0
 40
2.5
  1

 41
0.9791666666666666
  7
ISOCP
 72
     5
 11
-158.8677958077344
 21
9.477680008475545
 31
0.0
100
AcDbAttributeDefinition
  3
Bearb. Datum
  2
DAT
 70
     0
  0
ATTDEF
  5
1EE9
330
1EC7
100
AcDbEntity
  8
TEXTE
100
AcDbText
 10
-152.1611017383567
 20
9.477680008475559
 30
0.0
 40
2.5
  1

  7
ISOCP
100
AcDbAttributeDefinition
  3
Bearb. NAME
  2
NAME
 70
     0
  0
ATTDEF
  5
1EEA
330
1EC7
100
AcDbEntity
  8
TEXTE
100
AcDbText
 10
-186.0425163509874
 20
13.81867633133571
 30
0.0
 40
2.5
  1

  7
ISOCP
100
AcDbAttributeDefinition
  3
Zustand
  2
ZUST.
 70
     0
  0
ATTDEF
  5
1EEB
330
1EC7
100
AcDbEntity
  8
TEXTE
100
AcDbText
 10
-177.8982217996797
 20
13.81867633133571
 30
0.0
 40
2.5
  1

  7
ISOCP
100
AcDbAttributeDefinition
  3
Änderung
  2
ÄND.
 70
     0
  0
ATTDEF
  5
1EEC
330
1EC7
100
AcDbEntity
  8
TEXTE
100
AcDbText
 10
-164.7427958077344
 20
13.72768000847554
 30
0.0
 40
2.5
  1

 41
0.9791666666666666
  7
ISOCP
 72
     5
 11
-158.8677958077344
 21
13.72768000847554
 31
0.0
100
AcDbAttributeDefinition
  3
Bearb. Datum
  2
DAT
 70
     0
  0
ATTDEF
  5
1EED
330
1EC7
100
AcDbEntity
  8
TEXTE
100
AcDbText
 10
-152.1611017383567
 20
13.72768000847556
 30
0.0
 40
2.5
  1

  7
ISOCP
100
AcDbAttributeDefinition
  3
Bearb. NAME
  2
NAME
 70
     0
  0
ATTDEF
  5
1EEE
330
1EC7
100
AcDbEntity
  8
TEXTE
100
AcDbText
 10
-186.0425163509874
 20
18.06867633133571
 30
0.0
 40
2.5
  1

  7
ISOCP
100
AcDbAttributeDefinition
  3
Zustand
  2
ZUST.
 70
     0
  0
ATTDEF
  5
1EEF
330
1EC7
100
AcDbEntity
  8
TEXTE
100
AcDbText
 10
-177.8982217996797
 20
18.06867633133571
 30
0.0
 40
2.5
  1

  7
ISOCP
100
AcDbAttributeDefinition
  3
Änderung
  2
ÄND.
 70
     0
  0
ATTDEF
  5
1EF0
330
1EC7
100
AcDbEntity
  8
TEXTE
100
AcDbText
 10
-164.7427958077344
 20
17.97768000847554
 30
0.0
 40
2.5
  1

 41
0.9791666666666666
  7
ISOCP
 72
     5
 11
-158.8677958077344
 21
17.97768000847554
 31
0.0
100
AcDbAttributeDefinition
  3
Bearb. Datum
  2
DAT
 70
     0
  0
ATTDEF
  5
1EF1
330
1EC7
100
AcDbEntity
  8
TEXTE
100
AcDbText
 10
-152.1611017383567
 20
17.97768000847556
 30
0.0
 40
2.5
  1

  7
ISOCP
100
AcDbAttributeDefinition
  3
Bearb. NAME
  2
NAME
 70
     0
  0
ATTDEF
  5
1EF2
330
1EC7
100
AcDbEntity
  8
TEXTE
100
AcDbText
 10
-186.0425163509874
 20
22.31867633133571
 30
0.0
 40
2.5
  1

  7
ISOCP
100
AcDbAttributeDefinition
  3
Zustand
  2
ZUST.
 70
     0
  0
ATTDEF
  5
1EF3
330
1EC7
100
AcDbEntity
  8
TEXTE
100
AcDbText
 10
-177.8982217996797
 20
22.31867633133571
 30
0.0
 40
2.5
  1

  7
ISOCP
100
AcDbAttributeDefinition
  3
Änderung
  2
ÄND.
 70
     0
  0
ATTDEF
  5
1EF4
330
1EC7
100
AcDbEntity
  8
TEXTE
100
AcDbText
 10
-164.7427958077344
 20
22.22768000847555
 30
0.0
 40
2.5
  1

 41
0.9791666666666666
  7
ISOCP
 72
     5
 11
-158.8677958077344
 21
22.22768000847555
 31
0.0
100
AcDbAttributeDefinition
  3
Bearb. Datum
  2
DAT
 70
     0
  0
ATTDEF
  5
1EF5
330
1EC7
100
AcDbEntity
  8
TEXTE
100
AcDbText
 10
-152.1611017383567
 20
22.22768000847556
 30
0.0
 40
2.5
  1

  7
ISOCP
100
AcDbAttributeDefinition
  3
Bearb. NAME
  2
NAME
 70
     0
  0
ATTDEF
  5
1EF6
330
1EC7
100
AcDbEntity
  8
TEXTE
100
AcDbText
 10
-186.0425163509874
 20
26.56867633133571
 30
0.0
 40
2.5
  1

  7
ISOCP
100
AcDbAttributeDefinition
  3
Zustand
  2
ZUST.
 70
     0
  0
ATTDEF
  5
1EF7
330
1EC7
100
AcDbEntity
  8
TEXTE
100
AcDbText
 10
-177.8982217996797
 20
26.56867633133571
 30
0.0
 40
2.5
  1

  7
ISOCP
100
AcDbAttributeDefinition
  3
Änderung
  2
ÄND.
 70
     0
  0
ATTDEF
  5
1EF8
330
1EC7
100
AcDbEntity
  8
TEXTE
100
AcDbText
 10
-164.7427958077344
 20
26.47768000847555
 30
0.0
 40
2.5
  1

 41
0.9791666666666666
  7
ISOCP
 72
     5
 11
-158.8677958077344
 21
26.47768000847555
 31
0.0
100
AcDbAttributeDefinition
  3
Bearb. Datum
  2
DAT
 70
     0
  0
ATTDEF
  5
1EF9
330
1EC7
100
AcDbEntity
  8
TEXTE
100
AcDbText
 10
-152.1611017383567
 20
26.47768000847556
 30
0.0
 40
2.5
  1

  7
ISOCP
100
AcDbAttributeDefinition
  3
Bearb. NAME
  2
NAME
 70
     0
  0
ATTDEF
  5
1EFA
330
1EC7
100
AcDbEntity
  8
TEXTE
100
AcDbText
 10
-186.0425163509874
 20
30.81867633133571
 30
0.0
 40
2.5
  1

  7
ISOCP
100
AcDbAttributeDefinition
  3
Zustand
  2
ZUST.
 70
     0
  0
ATTDEF
  5
1EFB
330
1EC7
100
AcDbEntity
  8
TEXTE
100
AcDbText
 10
-177.8982217996797
 20
30.81867633133571
 30
0.0
 40
2.5
  1

  7
ISOCP
100
AcDbAttributeDefinition
  3
Änderung
  2
ÄND.
 70
     0
  0
ATTDEF
  5
1EFC
330
1EC7
100
AcDbEntity
  8
TEXTE
100
AcDbText
 10
-164.7427958077344
 20
30.72768000847555
 30
0.0
 40
2.5
  1

 41
0.9791666666666666
  7
ISOCP
 72
     5
 11
-158.8677958077344
 21
30.72768000847555
 31
0.0
100
AcDbAttributeDefinition
  3
Bearb. Datum
  2
DAT
 70
     0
  0
ATTDEF
  5
1EFD
330
1EC7
100
AcDbEntity
  8
TEXTE
100
AcDbText
 10
-152.1611017383567
 20
30.72768000847556
 30
0.0
 40
2.5
  1

  7
ISOCP
100
AcDbAttributeDefinition
  3
Bearb. NAME
  2
NAME
 70
     0
  0
ATTDEF
  5
1EFE
330
1EC7
100
AcDbEntity
  8
TEXTE
100
AcDbText
 10
-186.0425163509874
 20
35.06867633133571
 30
0.0
 40
2.5
  1

  7
ISOCP
100
AcDbAttributeDefinition
  3
Zustand
  2
ZUST.
 70
     0
  0
ATTDEF
  5
1EFF
330
1EC7
100
AcDbEntity
  8
TEXTE
100
AcDbText
 10
-177.8982217996797
 20
35.06867633133571
 30
0.0
 40
2.5
  1

  7
ISOCP
100
AcDbAttributeDefinition
  3
Änderung
  2
ÄND.
 70
     0
  0
ATTDEF
  5
1F00
330
1EC7
100
AcDbEntity
  8
TEXTE
100
AcDbText
 10
-164.7427958077344
 20
34.97768000847556
 30
0.0
 40
2.5
  1

 41
0.9791666666666666
  7
ISOCP
 72
     5
 11
-158.8677958077344
 21
34.97768000847556
 31
0.0
100
AcDbAttributeDefinition
  3
Bearb. Datum
  2
DAT
 70
     0
  0
ATTDEF
  5
1F01
330
1EC7
100
AcDbEntity
  8
TEXTE
100
AcDbText
 10
-152.1611017383567
 20
34.97768000847556
 30
0.0
 40
2.5
  1

  7
ISOCP
100
AcDbAttributeDefinition
  3
Bearb. NAME
  2
NAME
 70
     0
  0
ATTDEF
  5
1F02
330
1EC7
100
AcDbEntity
  8
TEXTE
100
AcDbText
 10
-186.0425163509874
 20
39.31867633133571
 30
0.0
 40
2.5
  1

  7
ISOCP
100
AcDbAttributeDefinition
  3
Zustand
  2
ZUST.
 70
     0
  0
ATTDEF
  5
1F03
330
1EC7
100
AcDbEntity
  8
TEXTE
100
AcDbText
 10
-177.8982217996797
 20
39.31867633133571
 30
0.0
 40
2.5
  1

  7
ISOCP
100
AcDbAttributeDefinition
  3
Änderung
  2
ÄND.
 70
     0
  0
ATTDEF
  5
1F04
330
1EC7
100
AcDbEntity
  8
TEXTE
100
AcDbText
 10
-164.7427958077344
 20
39.22768000847555
 30
0.0
 40
2.5
  1

 41
0.9791666666666666
  7
ISOCP
 72
     5
 11
-158.8677958077344
 21
39.22768000847555
 31
0.0
100
AcDbAttributeDefinition
  3
Bearb. Datum
  2
DAT
 70
     0
  0
ATTDEF
  5
1F05
330
1EC7
100
AcDbEntity
  8
TEXTE
100
AcDbText
 10
-152.1611017383567
 20
39.22768000847556
 30
0.0
 40
2.5
  1

  7
ISOCP
100
AcDbAttributeDefinition
  3
Bearb. NAME
  2
NAME
 70
     0
  0
ATTDEF
  5
1F06
330
1EC7
100
AcDbEntity
  8
TEXTE
100
AcDbText
 10
-186.0425163509874
 20
43.5686763313357
 30
0.0
 40
2.5
  1

  7
ISOCP
100
AcDbAttributeDefinition
  3
Zustand
  2
ZUST.
 70
     0
  0
ATTDEF
  5
1F07
330
1EC7
100
AcDbEntity
  8
TEXTE
100
AcDbText
 10
-177.8982217996797
 20
43.5686763313357
 30
0.0
 40
2.5
  1

  7
ISOCP
100
AcDbAttributeDefinition
  3
Änderung
  2
ÄND.
 70
     0
  0
ATTDEF
  5
1F08
330
1EC7
100
AcDbEntity
  8
TEXTE
100
AcDbText
 10
-164.7427958077344
 20
43.47768000847555
 30
0.0
 40
2.5
  1

 41
0.9791666666666666
  7
ISOCP
 72
     5
 11
-158.8677958077344
 21
43.47768000847555
 31
0.0
100
AcDbAttributeDefinition
  3
Bearb. Datum
  2
DAT
 70
     0
  0
ATTDEF
  5
1F09
330
1EC7
100
AcDbEntity
  8
TEXTE
100
AcDbText
 10
-152.1611017383567
 20
43.47768000847556
 30
0.0
 40
2.5
  1

  7
ISOCP
100
AcDbAttributeDefinition
  3
Bearb. NAME
  2
NAME
 70
     0
  0
ATTDEF
  5
1F0A
330
1EC7
100
AcDbEntity
  8
TEXTE
100
AcDbText
 10
-186.0425163509874
 20
47.81867633133571
 30
0.0
 40
2.5
  1

  7
ISOCP
100
AcDbAttributeDefinition
  3
Zustand
  2
ZUST.
 70
     0
  0
ATTDEF
  5
1F0B
330
1EC7
100
AcDbEntity
  8
TEXTE
100
AcDbText
 10
-177.8982217996797
 20
47.81867633133571
 30
0.0
 40
2.5
  1

  7
ISOCP
100
AcDbAttributeDefinition
  3
Änderung
  2
ÄND.
 70
     0
  0
ATTDEF
  5
1F0C
330
1EC7
100
AcDbEntity
  8
TEXTE
100
AcDbText
 10
-164.7427958077344
 20
47.72768000847555
 30
0.0
 40
2.5
  1

 41
0.9791666666666666
  7
ISOCP
 72
     5
 11
-158.8677958077344
 21
47.72768000847555
 31
0.0
100
AcDbAttributeDefinition
  3
Bearb. Datum
  2
DAT
 70
     0
  0
ATTDEF
  5
1F0D
330
1EC7
100
AcDbEntity
  8
TEXTE
100
AcDbText
 10
-152.1611017383567
 20
47.72768000847555
 30
0.0
 40
2.5
  1

  7
ISOCP
100
AcDbAttributeDefinition
  3
Bearb. NAME
  2
NAME
 70
     0
  0
ATTDEF
  5
1F0E
330
1EC7
100
AcDbEntity
  8
TEXTE
100
AcDbText
 10
-186.0425163509874
 20
52.06867633133566
 30
0.0
 40
2.5
  1

  7
ISOCP
100
AcDbAttributeDefinition
  3
Zustand
  2
ZUST.
 70
     0
  0
ATTDEF
  5
1F0F
330
1EC7
100
AcDbEntity
  8
TEXTE
100
AcDbText
 10
-177.8982217996797
 20
52.06867633133566
 30
0.0
 40
2.5
  1

  7
ISOCP
100
AcDbAttributeDefinition
  3
Änderung
  2
ÄND.
 70
     0
  0
ATTDEF
  5
1F10
330
1EC7
100
AcDbEntity
  8
TEXTE
100
AcDbText
 10
-164.7427958077344
 20
51.97768000847554
 30
0.0
 40
2.5
  1

 41
0.9791666666666666
  7
ISOCP
 72
     5
 11
-158.8677958077344
 21
51.97768000847554
 31
0.0
100
AcDbAttributeDefinition
  3
Bearb. Datum
  2
DAT
 70
     0
  0
ATTDEF
  5
1F11
330
1EC7
100
AcDbEntity
  8
TEXTE
100
AcDbText
 10
-152.1611017383567
 20
51.97768000847552
 30
0.0
 40
2.5
  1

  7
ISOCP
100
AcDbAttributeDefinition
  3
Bearb. NAME
  2
NAME
 70
     0
  0
LINE
  5
1F12
330
1EC7
100
AcDbEntity
  8
1
100
AcDbLine
 10
-97.39999999999998
 20
55.25
 30
0.0
 11
0.0
 21
55.25
 31
0.0
  0
LINE
  5
1F13
330
1EC7
100
AcDbEntity
  8
1
100
AcDbLine
 10
0.0
 20
72.25
 30
0.0
 11
-187.2
 21
72.25
 31
0.0
  0
LINE
  5
1F14
330
1EC7
100
AcDbEntity
  8
1
100
AcDbLine
 10
-141.6
 20
38.25
 30
0.0
 11
0.0
 21
38.25
 31
0.0
  0
LINE
  5
1F15
330
1EC7
100
AcDbEntity
  8
1
100
AcDbLine
 10
-97.39999999999998
 20
23.37500000000004
 30
0.0
 11
0.0
 21
23.37500000000004
 31
0.0
  0
LINE
  5
1F16
330
1EC7
100
AcDbEntity
  8
1
100
AcDbLine
 10
-141.6
 20
4.250000000000042
 30
0.0
 11
0.0
 21
4.25
 31
0.0
  0
LINE
  5
1F17
330
1EC7
100
AcDbEntity
  8
TEXTE
100
AcDbLine
 10
-187.2
 20
0.0000000000000568
 30
0.0
 11
0.0
 21
0.0
 31
0.0
  0
LINE
  5
1F18
330
1EC7
100
AcDbEntity
  8
4
100
AcDbLine
 10
-115.5999999999999
 20
55.25
 30
0.0
 11
-115.5999999999999
 21
72.25
 31
0.0
  0
LINE
  5
1F19
330
1EC7
100
AcDbEntity
  8
1
100
AcDbLine
 10
-97.39999999999998
 20
38.25
 30
0.0
 11
-97.39999999999998
 21
72.25
 31
0.0
  0
LINE
  5
1F1A
330
1EC7
100
AcDbEntity
  8
1
100
AcDbLine
 10
-187.2
 20
72.25
 30
0.0
 11
-187.2
 21
55.25
 31
0.0
  0
LINE
  5
1F1B
330
1EC7
100
AcDbEntity
  8
1
100
AcDbLine
 10
-187.2
 20
55.25
 30
0.0
 11
-187.2
 21
72.25
 31
0.0
  0
LINE
  5
1F1C
330
1EC7
100
AcDbEntity
  8
1
100
AcDbLine
 10
-141.6
 20
38.25
 30
0.0
 11
-141.6
 21
72.25
 31
0.0
  0
LINE
  5
1F1D
330
1EC7
100
AcDbEntity
  8
1
100
AcDbLine
 10
-187.2
 20
55.25
 30
0.0
 11
-97.39999999999998
 21
55.25
 31
0.0
  0
LINE
  5
1F1E
330
1EC7
100
AcDbEntity
  8
1
100
AcDbLine
 10
-187.2
 20
55.25
 30
0.0
 11
-97.39999999999998
 21
55.25
 31
0.0
  0
LINE
  5
1F1F
330
1EC7
100
AcDbEntity
  8
4
100
AcDbLine
 10
-141.6
 20
42.50000000000004
 30
0.0
 11
-187.2
 21
42.50000000000004
 31
0.0
  0
LINE
  5
1F20
330
1EC7
100
AcDbEntity
  8
4
100
AcDbLine
 10
-141.6
 20
51.00000000000004
 30
0.0
 11
-187.2
 21
51.00000000000004
 31
0.0
  0
LINE
  5
1F21
330
1EC7
100
AcDbEntity
  8
4
100
AcDbLine
 10
-141.6
 20
46.75000000000004
 30
0.0
 11
-187.2
 21
46.75000000000004
 31
0.0
  0
LINE
  5
1F22
330
1EC7
100
AcDbEntity
  8
4
100
AcDbLine
 10
-141.6
 20
38.25000000000004
 30
0.0
 11
-187.2
 21
38.25000000000004
 31
0.0
  0
LINE
  5
1F23
330
1EC7
100
AcDbEntity
  8
4
100
AcDbLine
 10
-141.6
 20
34.00000000000004
 30
0.0
 11
-187.2
 21
34.00000000000004
 31
0.0
  0
LINE
  5
1F24
330
1EC7
100
AcDbEntity
  8
4
100
AcDbLine
 10
-141.6
 20
29.75000000000004
 30
0.0
 11
-187.2
 21
29.75000000000004
 31
0.0
  0
LINE
  5
1F25
330
1EC7
100
AcDbEntity
  8
4
100
AcDbLine
 10
-141.6
 20
25.50000000000004
 30
0.0
 11
-187.2
 21
25.50000000000004
 31
0.0
  0
LINE
  5
1F26
330
1EC7
100
AcDbEntity
  8
4
100
AcDbLine
 10
-141.6
 20
17.00000000000004
 30
0.0
 11
-187.2
 21
17.00000000000004
 31
0.0
  0
LINE
  5
1F27
330
1EC7
100
AcDbEntity
  8
4
100
AcDbLine
 10
-141.6
 20
8.500000000000042
 30
0.0
 11
-187.2
 21
8.500000000000042
 31
0.0
  0
LINE
  5
1F28
330
1EC7
100
AcDbEntity
  8
TEXTE
100
AcDbLine
 10
-141.6
 20
21.25000000000004
 30
0.0
 11
-187.2
 21
21.25000000000004
 31
0.0
  0
LINE
  5
1F29
330
1EC7
100
AcDbEntity
  8
TEXTE
100
AcDbLine
 10
-141.6
 20
4.250000000000042
 30
0.0
 11
-187.2
 21
4.250000000000042
 31
0.0
  0
LINE
  5
1F2A
330
1EC7
100
AcDbEntity
  8
TEXTE
100
AcDbLine
 10
-141.6
 20
12.75000000000004
 30
0.0
 11
-187.2
 21
12.75000000000004
 31
0.0
  0
LINE
  5
1F2B
330
1EC7
100
AcDbEntity
  8
1
100
AcDbLine
 10
-187.2
 20
0.0
 30
0.0
 11
-187.2
 21
55.25
 31
0.0
  0
LINE
  5
1F2C
330
1EC7
100
AcDbEntity
  8
4
100
AcDbLine
 10
-179.4
 20
0.0
 30
0.0
 11
-179.4
 21
55.25
 31
0.0
  0
LINE
  5
1F2D
330
1EC7
100
AcDbEntity
  8
4
100
AcDbLine
 10
-166.1269718340444
 20
55.25
 30
0.0
 11
-166.1269718340444
 21
0.0000000000000568
 31
0.0
  0
LINE
  5
1F2E
330
1EC7
100
AcDbEntity
  8
4
100
AcDbLine
 10
-153.1269718340444
 20
55.25
 30
0.0
 11
-153.1269718340444
 21
0.0000000000000426
 31
0.0
  0
LINE
  5
1F2F
330
1EC7
100
AcDbEntity
  8
1
100
AcDbLine
 10
-141.6
 20
55.25
 30
0.0
 11
-141.6
 21
0.0000000000000426
 31
0.0
  0
LINE
  5
1F30
330
1EC7
100
AcDbEntity
  8
1
100
AcDbLine
 10
-97.39999999999998
 20
21.25000000000004
 30
0.0
 11
-97.39999999999998
 21
0.0000000000000284
 31
0.0
  0
LWPOLYLINE
  5
1F31
330
1EC7
100
AcDbEntity
  8
SCHRAFUR
 62
     2
100
AcDbPolyline
 90
       10
 70
     1
 43
0.0
 10
-124.2050944204746
 20
9.362603872644257
 42
-0.2878248726205669
 10
-125.351197977385
 20
10.08195108768824
 42
-0.2878248726205669
 10
-126.4973015342955
 20
9.362603872644257
 10
-129.1199430070051
 20
9.362603872644257
 10
-129.1199430070051
 20
11.90798632587635
 10
-126.4973015342955
 20
11.90798632587635
 42
-0.2878248726205669
 10
-125.351197977385
 20
11.18863911083237
 42
-0.2878248726205666
 10
-124.2050944204746
 20
11.90798632587635
 10
-122.4747776603247
 20
11.90798632587635
 42
-0.9999999999999998
 10
-122.4747776603247
 20
9.362603872644257
  0
LWPOLYLINE
  5
1F32
330
1EC7
100
AcDbEntity
  8
SCHRAFUR
 62
     2
100
AcDbPolyline
 90
        4
 70
     1
 43
0.0
 10
-114.3703968939391
 20
9.2245629839162
 42
-0.7635869553129523
 10
-124.6296031060609
 20
9.2245629839162
 10
-123.1154720216624
 20
9.2245629839162
 42
0.6850520295069697
 10
-115.8845279783376
 20
9.2245629839162
  0
LWPOLYLINE
  5
1F33
330
1EC7
100
AcDbEntity
  8
SCHRAFUR
 62
     2
100
AcDbPolyline
 90
        4
 70
     1
 43
0.0
 10
-117.5054347514386
 20
9.2245629839162
 10
-116.1232140296945
 20
9.224562983916229
 42
-0.6678631217639561
 10
-122.8767859703055
 20
9.224562983916229
 10
-121.4945652485614
 20
9.2245629839162
 42
0.5197497926717246
  0
TEXT
  5
1F34
330
1EC7
100
AcDbEntity
  8
TEXTE
100
AcDbText
 10
-140.552765831797
 20
0.909003677139907
 30
0.0
 40
2.5
  1
Urspr.:
  7
ISOCP
100
AcDbText
  0
TEXT
  5
1F35
330
1EC7
100
AcDbEntity
  8
TEXTE
100
AcDbText
 10
-96.35276583179701
 20
0.9090036771398928
 30
0.0
 40
2.5
  1
Ers. f.:
  7
ISOCP
100
AcDbText
  0
LINE
  5
1F36
330
1EC7
100
AcDbEntity
  8
1
100
AcDbLine
 10
-97.39999999999998
 20
55.25
 30
0.0
 11
-141.6
 21
55.25
 31
0.0
  0
LWPOLYLINE
  5
1F37
330
1EC7
100
AcDbEntity
  8
SCHRAFUR
 62
     2
100
AcDbPolyline
 90
       28
 70
     1
 43
0.0
 10
-110.3328791777036
 20
11.90798632587635
 10
-108.7815943955639
 20
9.383194071164751
 10
-110.0385664183526
 20
9.383194071164751
 10
-110.3148471604421
 20
9.832854562768034
 10
-111.9467801979518
 20
9.832854562768034
 10
-112.2230609400413
 20
9.383194071164751
 10
-114.5988757936953
 20
9.383194071164751
 10
-114.5988757936953
 20
10.2755297720258
 10
-115.1471453753698
 20
9.383194071164751
 10
-115.7812575407041
 20
9.383194071164751
 10
-116.3295271223787
 20
10.2755297720258
 10
-116.3295271223787
 20
9.383194071164751
 10
-117.729299162969
 20
9.383194071164751
 10
-117.729299162969
 20
11.20922930935297
 10
-118.8359871861134
 20
9.890329881889684
 10
-118.8359871861134
 20
9.383194071164751
 10
-120.1640128138866
 20
9.383194071164751
 10
-120.1640128138866
 20
9.890329881889684
 10
-121.8570275918783
 20
11.90798632587635
 10
-120.0863267548472
 20
11.90798632587635
 10
-119.5
 20
11.20922930935297
 10
-118.9136732451527
 20
11.90798632587635
 10
-116.0505282128843
 20
11.90798632587635
 10
-115.464201458037
 20
11.20922930935297
 10
-114.8778747031897
 20
11.90798632587635
 10
-113.1991037531049
 20
11.90798632587635
 10
-113.1991037531049
 20
9.890329881889684
 10
-111.9594137424509
 20
11.90798632587635
  0
LWPOLYLINE
  5
1F38
330
1EC7
100
AcDbEntity
  8
SCHRAFUR
 62
     2
100
AcDbPolyline
 90
        4
 70
     1
 43
0.0
 10
-114.3703968939391
 20
12.04602721460441
 42
0.7635869553129523
 10
-124.6296031060609
 20
12.04602721460441
 10
-123.1154720216624
 20
12.04602721460441
 42
-0.6850520295069697
 10
-115.8845279783376
 20
12.04602721460441
  0
LWPOLYLINE
  5
1F39
330
1EC7
100
AcDbEntity
  8
SCHRAFUR
 62
     2
100
AcDbPolyline
 90
        4
 70
     1
 43
0.0
 10
-117.5054347514386
 20
12.04602721460441
 10
-116.1232140296945
 20
12.04602721460438
 42
0.6678631217639561
 10
-122.8767859703055
 20
12.04602721460438
 10
-121.4945652485614
 20
12.04602721460441
 42
-0.5197497926717246
  0
LINE
  5
1F3A
330
1EC7
100
AcDbEntity
  8
1
100
AcDbLine
 10
-141.6
 20
17.00000000000004
 30
0.0
 11
-97.39999999999998
 21
17.00000000000004
 31
0.0
  0
LINE
  5
1F3B
330
1EC7
100
AcDbEntity
  8
4
100
AcDbLine
 10
-141.6
 20
21.25000000000004
 30
0.0
 11
-97.39999999999998
 21
21.25000000000004
 31
0.0
  0
LINE
  5
1F3C
330
1EC7
100
AcDbEntity
  8
4
100
AcDbLine
 10
-141.6
 20
25.50000000000004
 30
0.0
 11
-97.39999999999998
 21
25.50000000000004
 31
0.0
  0
LINE
  5
1F3D
330
1EC7
100
AcDbEntity
  8
4
100
AcDbLine
 10
-141.6
 20
29.75000000000004
 30
0.0
 11
-97.39999999999998
 21
29.75000000000004
 31
0.0
  0
LINE
  5
1F3E
330
1EC7
100
AcDbEntity
  8
4
100
AcDbLine
 10
-141.6
 20
34.00000000000004
 30
0.0
 11
-97.39999999999998
 21
34.00000000000004
 31
0.0
  0
LINE
  5
1F3F
330
1EC7
100
AcDbEntity
  8
4
100
AcDbLine
 10
-141.6
 20
21.25000000000004
 30
0.0
 11
-97.39999999999998
 21
21.25000000000004
 31
0.0
  0
LINE
  5
1F40
330
1EC7
100
AcDbEntity
  8
4
100
AcDbLine
 10
-131.2
 20
38.25
 30
0.0
 11
-131.2
 21
17.00000000000004
 31
0.0
  0
LWPOLYLINE
  5
1F41
330
1EC7
100
AcDbEntity
  8
SCHRAFUR
 62
     2
100
AcDbPolyline
 90
        4
 70
     1
 43
0.0
 10
-127.9025861815462
 20
11.02263590736085
 10
-127.9025861815462
 20
10.24795429115978
 10
-126.7958981584019
 20
10.24795429115978
 42
0.9999999999999998
 10
-126.7958981584019
 20
11.02263590736085
  0
LWPOLYLINE
  5
1F42
330
1EC7
100
AcDbEntity
  8
SCHRAFUR
 62
     2
100
AcDbPolyline
 90
        4
 70
     1
 43
0.0
 10
-124.039091217003
 20
10.24795429115977
 42
-0.9999999999999998
 10
-124.039091217003
 20
11.02263590736085
 10
-122.6407808637963
 20
11.02263590736085
 42
-0.9999999999999998
 10
-122.6407808637963
 20
10.24795429115977
  0
TEXT
  5
1F43
330
1EC7
100
AcDbEntity
  8
TEXTE
100
AcDbText
 10
-130.2
 20
35.0
 30
0.0
 40
2.5
  1
Datum
  7
ISOCP
100
AcDbText
  0
LINE
  5
1F44
330
1EC7
100
AcDbEntity
  8
4
100
AcDbLine
 10
-115.5999999999999
 20
38.25
 30
0.0
 11
-115.5999999999999
 21
17.00000000000004
 31
0.0
  0
LINE
  5
1F45
330
1EC7
100
AcDbEntity
  8
1
100
AcDbLine
 10
-97.39999999999998
 20
38.25
 30
0.0
 11
-97.39999999999998
 21
25.50000000000004
 31
0.0
  0
LWPOLYLINE
  5
1F46
330
1EC7
100
AcDbEntity
  8
SCHRAFUR
 62
     2
100
AcDbPolyline
 90
        3
 70
     1
 43
0.0
 10
-110.6548332099233
 20
10.38619857434025
 10
-111.130813679197
 20
11.1608801905413
 10
-111.6067941484706
 20
10.38619857434025
  0
LINE
  5
1F47
330
1EC7
100
AcDbEntity
  8
1
100
AcDbLine
 10
-97.39999999999998
 20
25.50000000000004
 30
0.0
 11
-97.39999999999998
 21
21.25000000000004
 31
0.0
  0
TEXT
  5
1F48
330
1EC7
100
AcDbEntity
  8
TEXTE
100
AcDbText
 10
-96.39999999999998
 20
9.274128980961492
 30
0.0
 40
2.5
  1
Kl.-Nr.:
  7
ISOCP
100
AcDbText
  0
TEXT
  5
1F49
330
1EC7
100
AcDbEntity
  8
TEXTE
100
AcDbText
 10
-96.39999999999998
 20
16.6372199876776
 30
0.0
 40
2.5
  1
Zg.-Nr.:
  7
ISOCP
100
AcDbText
  0
TEXT
  5
1F4A
330
1EC7
100
AcDbEntity
  8
TEXTE
100
AcDbText
 10
-114.5999999999999
 20
35.00000000000003
 30
0.0
 40
2.5
  1
Name
  7
ISOCP
100
AcDbText
  0
TEXT
  5
1F4B
330
1EC7
100
AcDbEntity
  8
TEXTE
100
AcDbText
 10
-96.39999999999998
 20
34.7856703898684
 30
0.0
 40
2.5
  1
Benennung
  7
ISOCP
100
AcDbText
  0
TEXT
  5
1F4C
330
1EC7
100
AcDbEntity
  8
TEXTE
100
AcDbText
 10
-183.9928141203591
 20
60.51937967832163
 30
0.0
 40
3.0
  1
ISO16016 beachten.
  7
ISOCP
100
AcDbText
  0
TEXT
  5
1F4D
330
1EC7
100
AcDbEntity
  8
TEXTE
100
AcDbText
 10
-183.9928141203591
 20
64.47760188519663
 30
0.0
 40
3.0
  1
Schutzvermerk 
  7
ISOCP
100
AcDbText
  0
LINE
  5
1F4E
330
1EC7
100
AcDbEntity
  8
4
100
AcDbLine
 10
-97.39999999999998
 20
68.0
 30
0.0
 11
-141.6
 21
68.0
 31
0.0
  0
TEXT
  5
1F4F
330
1EC7
100
AcDbEntity
  8
TEXTE
100
AcDbText
 10
-112.9010218565545
 20
68.9008935805993
 30
0.0
 40
2.5
  1
Maßstab
  7
ISOCP
100
AcDbText
  0
LINE
  5
1F50
330
1EC7
100
AcDbEntity
  8
1
100
AcDbLine
 10
0.0
 20
55.25
 30
0.0
 11
0.0
 21
72.25
 31
0.0
  0
LINE
  5
1F51
330
1EC7
100
AcDbEntity
  8
4
100
AcDbLine
 10
-66.47388354436959
 20
72.25
 30
0.0
 11
-66.47388354436959
 21
55.25
 31
0.0
  0
LINE
  5
1F52
330
1EC7
100
AcDbEntity
  8
1
100
AcDbLine
 10
0.0
 20
0.0
 30
0.0
 11
0.0
 21
55.25
 31
0.0
  0
LINE
  5
1F53
330
1EC7
100
AcDbEntity
  8
1
100
AcDbLine
 10
-48.69999999999993
 20
4.250000000000014
 30
0.0
 11
-48.69999999999993
 21
0.0000000000000142
 31
0.0
  0
TEXT
  5
1F54
330
1EC7
100
AcDbEntity
  8
TEXTE
100
AcDbText
 10
-47.65276583179707
 20
0.9090036771398786
 30
0.0
 40
2.5
  1
Ers. d.:
  7
ISOCP
100
AcDbText
  0
LINE
  5
1F55
330
1EC7
100
AcDbEntity
  8
2
  6
MITTE2
 48
0.5
100
AcDbLine
 10
-43.64275909430841
 20
47.80579963079344
 30
0.0
 11
-25.0784411186628
 21
47.80579963079344
 31
0.0
  0
TEXT
  5
1F56
330
1EC7
100
AcDbEntity
  8
TEXTE
100
AcDbText
 10
-28.05001384276364
 20
39.07889189167304
 30
0.0
 40
2.5
  1
METRIC
  7
ISOCP
100
AcDbText
  0
LINE
  5
1F57
330
1EC7
100
AcDbEntity
  8
1
100
AcDbLine
 10
-48.70000000000004
 20
55.25
 30
0.0
 11
-48.70000000000004
 21
38.25
 31
0.0
  0
LWPOLYLINE
  5
1F58
330
1EC7
100
AcDbEntity
  8
1
100
AcDbPolyline
 90
        5
 70
     0
 43
0.0
 10
-27.64275909430842
 20
52.80579963079344
 10
-41.64275909430841
 20
50.80579963079344
 10
-41.64275909430841
 20
44.80579963079344
 10
-27.64275909430842
 20
42.80579963079344
 10
-27.64275909430842
 20
52.80579963079344
  0
CIRCLE
  5
1F59
330
1EC7
100
AcDbEntity
  8
1
100
AcDbCircle
 10
-14.17049830471149
 20
47.80579963079344
 30
0.0
 40
5.0
  0
LINE
  5
1F5A
330
1EC7
100
AcDbEntity
  8
2
  6
MITTE2
 48
0.5
100
AcDbLine
 10
-14.17049830471149
 20
54.80579963079344
 30
0.0
 11
-14.17049830471149
 21
40.80579963079344
 31
0.0
  0
CIRCLE
  5
1F5B
330
1EC7
100
AcDbEntity
  8
1
100
AcDbCircle
 10
-14.17049830471149
 20
47.80579963079344
 30
0.0
 40
3.0
  0
LINE
  5
1F5C
330
1EC7
100
AcDbEntity
  8
2
  6
MITTE2
 48
0.5
100
AcDbLine
 10
-22.09252775403979
 20
47.80579963079344
 30
0.0
 11
-7.170498304711486
 21
47.80579963079344
 31
0.0
  0
LINE
  5
1F5D
330
1EC7
100
AcDbEntity
  8
1
100
AcDbLine
 10
0.0
 20
38.25
 30
0.0
 11
0.0
 21
55.25
 31
0.0
  0
ENDBLK
  5
1F5F
330
1EC7
100
AcDbEntity
  8
0
100
AcDbBlockEnd
  0
BLOCK
  5
231B
330
2319
100
AcDbEntity
  8
0
100
AcDbBlockBegin
  2
Toleranz1000
 70
     0
 10
0.0
 20
0.0
 30
0.0
  3
Toleranz1000
  1

  0
MTEXT
  5
231A
330
2319
100
AcDbEntity
  8
4-TEXT
100
AcDbMText
 10
22.42818946620355
 20
8.554401179611311
 30
0.0
 40
2.5
 41
42.20729999999999
 71
     5
 72
     5
  1
In Spezifikation nicht angegebene Toleranzen nach Allgemeintoleranzen ISO 2768-c
 73
     1
 44
1.0
  0
ENDBLK
  5
231C
330
2319
100
AcDbEntity
  8
0
100
AcDbBlockEnd
  0
BLOCK
  5
2366
330
232F
100
AcDbEntity
  8
0
100
AcDbBlockBegin
  2
Datenblatt 13.02.02
 70
     2
 10
0.0
 20
0.0
 30
0.0
  3
Datenblatt 13.02.02
  1

  0
LINE
  5
2330
330
232F
100
AcDbEntity
  8
OBJEKT
100
AcDbLine
 10
-187.1999999999999
 20
27.99565768088456
 30
0.0
 11
-44.40833707163906
 21
27.99565768088456
 31
0.0
  0
MTEXT
  5
2331
330
232F
100
AcDbEntity
  8
5
100
AcDbMText
 10
-186.0052453530775
 20
26.33140066529037
 30
0.0
 40
2.5
 41
54.7295
 71
     1
 72
     5
  1
Außen/Großring %%c:
 73
     1
 44
1.0
  0
LINE
  5
2332
330
232F
100
AcDbEntity
  8
OBJEKT
100
AcDbLine
 10
-187.2
 20
0.0
 30
0.0
 11
-187.1999999999999
 21
27.99565768088456
 31
0.0
  0
MTEXT
  5
2333
330
232F
100
AcDbEntity
  8
5
100
AcDbMText
 10
-140.340670268571
 20
26.74828593040781
 30
0.0
 40
2.5
 41
63.7959
 71
     1
 72
     5
  1
Anzahl  Gestell%%c  Gummi%%c  Medienr.%%c
  7
ISOCP
 73
     1
 44
1.0
  0
LINE
  5
2334
330
232F
100
AcDbEntity
  8
OBJEKT
100
AcDbLine
 10
-141.6
 20
0.0
 30
0.0
 11
-141.6
 21
27.99565768088456
 31
0.0
  0
LINE
  5
2335
330
232F
100
AcDbEntity
  8
SCHRAFFUR
100
AcDbLine
 10
-156.2
 20
0.0
 30
0.0
 11
-156.1999999999999
 21
27.99565768088456
 31
0.0
  0
LINE
  5
2336
330
232F
100
AcDbEntity
  8
SCHRAFFUR
100
AcDbLine
 10
-114.1
 20
0.0
 30
0.0
 11
-114.1
 21
27.99565768088459
 31
0.0
  0
LINE
  5
2337
330
232F
100
AcDbEntity
  8
SCHRAFFUR
100
AcDbLine
 10
-129.6
 20
0.0
 30
0.0
 11
-129.6
 21
27.99565768088456
 31
0.0
  0
MTEXT
  5
2338
330
232F
100
AcDbEntity
  8
5
100
AcDbMText
 10
-82.98527047254308
 20
26.13085352612995
 30
0.0
 40
1.999999999999999
 41
52.5551
 71
     1
 72
     5
  1
Gummi Außen%%c:\PGestell Material:\PGummi Material:\PAuftrag Nr.:              Pos.Nr.:
  7
ISOCP
 73
     1
 44
1.0
  0
LINE
  5
2339
330
232F
100
AcDbEntity
  8
OBJEKT
100
AcDbLine
 10
-84.10415155719022
 20
0.0
 30
0.0
 11
-84.10415155719022
 21
27.99565768088456
 31
0.0
  0
LINE
  5
233A
330
232F
100
AcDbEntity
  8
SCHRAFFUR
100
AcDbLine
 10
-101.1041515571902
 20
0.0
 30
0.0
 11
-101.1041515571902
 21
27.99565768088456
 31
0.0
  0
LINE
  5
233B
330
232F
100
AcDbEntity
  8
OBJEKT
100
AcDbLine
 10
-44.40833707163903
 20
-0.0000000000000009
 30
0.0
 11
-44.40833707163903
 21
27.99565768088456
 31
0.0
  0
MTEXT
  5
233D
330
232F
100
AcDbEntity
  8
5
100
AcDbMText
 10
-186.0052453530775
 20
18.3314006652904
 30
0.0
 40
2.5
 41
54.7295
 71
     1
 72
     5
  1
Lochkreis %%c:
 73
     1
 44
1.0
  0
MTEXT
  5
233E
330
232F
100
AcDbEntity
  8
5
100
AcDbMText
 10
-186.0052453530775
 20
12.33140066529037
 30
0.0
 40
2.5
 41
54.7295
 71
     1
 72
     5
  1
Bolzen x Anzahl:
 73
     1
 44
1.0
  0
MTEXT
  5
233F
330
232F
100
AcDbEntity
  8
5
100
AcDbMText
 10
-186.0052453530775
 20
5.331400665290402
 30
0.0
 40
2.5
 41
54.7295
 71
     1
 72
     5
  1
Bolzenbohrungs %%c:
 73
     1
 44
1.0
  0
LINE
  5
2340
330
232F
100
AcDbEntity
  8
SCHRAFFUR
100
AcDbLine
 10
-187.1999999999999
 20
20.99565768088456
 30
0.0
 11
-141.6
 21
20.99565768088456
 31
0.0
  0
LINE
  5
2341
330
232F
100
AcDbEntity
  8
SCHRAFFUR
100
AcDbLine
 10
-187.1999999999999
 20
13.99565768088456
 30
0.0
 11
-141.6
 21
13.99565768088456
 31
0.0
  0
LINE
  5
2342
330
232F
100
AcDbEntity
  8
SCHRAFFUR
100
AcDbLine
 10
-187.1999999999999
 20
6.995657680884562
 30
0.0
 11
-141.6
 21
6.995657680884562
 31
0.0
  0
LINE
  5
2343
330
232F
100
AcDbEntity
  8
SCHRAFFUR
100
AcDbLine
 10
-141.6
 20
22.39565768088457
 30
0.0
 11
-84.10415155719022
 21
22.39565768088457
 31
0.0
  0
LINE
  5
2344
330
232F
100
AcDbEntity
  8
SCHRAFFUR
100
AcDbLine
 10
-141.6
 20
5.595657680884528
 30
0.0
 11
-84.10415155719022
 21
5.595657680884528
 31
0.0
  0
LINE
  5
2345
330
232F
100
AcDbEntity
  8
SCHRAFFUR
100
AcDbLine
 10
-141.6
 20
11.19565768088455
 30
0.0
 11
-84.10415155719022
 21
11.19565768088455
 31
0.0
  0
LINE
  5
2346
330
232F
100
AcDbEntity
  8
SCHRAFFUR
100
AcDbLine
 10
-141.6
 20
16.79565768088457
 30
0.0
 11
-84.10415155719022
 21
16.79565768088457
 31
0.0
  0
MTEXT
  5
2347
330
232F
100
AcDbEntity
  8
5
100
AcDbMText
 10
-82.93711998001038
 20
3.150997337964781
 30
0.0
 40
2.0
 41
54.7295
 71
     1
 72
     5
  1
Gültigkeitsdatum:
 73
     1
 44
1.0
  0
MTEXT
  5
2348
330
232F
100
AcDbEntity
  8
5
100
AcDbMText
 10
-82.93711998001038
 20
6.845375492574248
 30
0.0
 40
2.0
 41
54.7295
 71
     1
 72
     5
  1
Lfd.-Nr.:275-
 73
     1
 44
1.0
  0
MTEXT
  5
2349
330
232F
100
AcDbEntity
  8
5
100
AcDbMText
 10
-82.93711998001034
 20
10.47911066923575
 30
0.0
 40
1.999999999999999
 41
54.72949999999999
 71
     1
 72
     5
  1
Fehlende Angaben Spezifikation
 73
     1
 44
1.0
  0
LINE
  5
234A
330
232F
100
AcDbEntity
  8
SCHRAFFUR
100
AcDbLine
 10
-44.40833707163903
 20
11.84312884486814
 30
0.0
 11
-84.1041515571902
 21
11.84312884486814
 31
0.0
  0
ATTDEF
  5
234B
330
232F
100
AcDbEntity
  8
5
 62
     6
100
AcDbText
 10
-155.1309313309483
 20
23.42135642318396
 30
0.0
 40
2.5
  1
.
 51
10.0
  7
ISOCP
100
AcDbAttributeDefinition
  3
Außen/Großring%%c
  2
.
 70
     0
  0
ATTDEF
  5
234C
330
232F
100
AcDbEntity
  8
5
 62
     6
100
AcDbText
 10
-155.1309313309483
 20
16.42135642318396
 30
0.0
 40
2.5
  1
.
 51
10.0
  7
ISOCP
100
AcDbAttributeDefinition
  3
Lochkreis%%c
  2
.
 70
     0
  0
ATTDEF
  5
234D
330
232F
100
AcDbEntity
  8
5
 62
     6
100
AcDbText
 10
-155.1309313309483
 20
9.421356423183965
 30
0.0
 40
2.5
  1
.
 51
10.0
  7
ISOCP
100
AcDbAttributeDefinition
  3
Bolzen x Anzahl
  2
.
 70
     0
  0
ATTDEF
  5
234E
330
232F
100
AcDbEntity
  8
5
 62
     6
100
AcDbText
 10
-155.1309313309483
 20
2.425698742299402
 30
0.0
 40
2.5
  1
.
 51
10.0
  7
ISOCP
100
AcDbAttributeDefinition
  3
Bolzenbohrungs%%c
  2
.
 70
     0
  0
ATTDEF
  5
234F
330
232F
100
AcDbEntity
  8
5
 62
     6
100
AcDbText
 10
-137.5977460648357
 20
18.41373671921519
 30
0.0
 40
2.0
  1
.
 51
10.0
  7
ISOCP
100
AcDbAttributeDefinition
  3
Anzahl1
  2
.
 70
     0
  0
ATTDEF
  5
2350
330
232F
100
AcDbEntity
  8
5
 62
     6
100
AcDbText
 10
-126.0718560374971
 20
18.41373671921519
 30
0.0
 40
2.0
  1
.
 51
10.0
  7
ISOCP
100
AcDbAttributeDefinition
  3
Gestell%%c1
  2
.
 70
     0
  0
ATTDEF
  5
2351
330
232F
100
AcDbEntity
  8
5
 62
     6
100
AcDbText
 10
-112.1838325543763
 20
18.41373671921519
 30
0.0
 40
2.0
  1
.
 51
10.0
  7
ISOCP
100
AcDbAttributeDefinition
  3
Gummi%%c1
  2
.
 70
     0
  0
ATTDEF
  5
2352
330
232F
100
AcDbEntity
  8
5
 62
     6
100
AcDbText
 10
-97.38636425808062
 20
18.41373671921519
 30
0.0
 40
2.0
  1
.
 51
10.0
  7
ISOCP
100
AcDbAttributeDefinition
  3
Medienr.1
  2
.
 70
     0
  0
ATTDEF
  5
2353
330
232F
100
AcDbEntity
  8
5
 62
     6
100
AcDbText
 10
-137.5977460648357
 20
12.81373671921517
 30
0.0
 40
2.0
  1
.
 51
10.0
  7
ISOCP
100
AcDbAttributeDefinition
  3
Anzahl2
  2
.
 70
     0
  0
ATTDEF
  5
2354
330
232F
100
AcDbEntity
  8
5
 62
     6
100
AcDbText
 10
-126.0718560374971
 20
12.81373671921517
 30
0.0
 40
2.0
  1
.
 51
10.0
  7
ISOCP
100
AcDbAttributeDefinition
  3
Gestell%%c2
  2
.
 70
     0
  0
ATTDEF
  5
2355
330
232F
100
AcDbEntity
  8
5
 62
     6
100
AcDbText
 10
-112.1838325543763
 20
12.81373671921517
 30
0.0
 40
2.0
  1
.
 51
10.0
  7
ISOCP
100
AcDbAttributeDefinition
  3
Gummi%%c2
  2
.
 70
     0
  0
ATTDEF
  5
2356
330
232F
100
AcDbEntity
  8
5
 62
     6
100
AcDbText
 10
-97.38636425808062
 20
12.81373671921517
 30
0.0
 40
2.0
  1
.
 51
10.0
  7
ISOCP
100
AcDbAttributeDefinition
  3
Medienr.2
  2
.
 70
     0
  0
ATTDEF
  5
2357
330
232F
100
AcDbEntity
  8
5
 62
     6
100
AcDbText
 10
-137.5977460648357
 20
7.213736719215205
 30
0.0
 40
2.0
  1
.
 51
10.0
  7
ISOCP
100
AcDbAttributeDefinition
  3
Anzahl3
  2
.
 70
     0
  0
ATTDEF
  5
2358
330
232F
100
AcDbEntity
  8
5
 62
     6
100
AcDbText
 10
-126.0718560374971
 20
7.213736719215205
 30
0.0
 40
2.0
  1
.
 51
10.0
  7
ISOCP
100
AcDbAttributeDefinition
  3
Gestell%%c3
  2
.
 70
     0
  0
ATTDEF
  5
2359
330
232F
100
AcDbEntity
  8
5
 62
     6
100
AcDbText
 10
-112.1838325543763
 20
7.213736719215205
 30
0.0
 40
2.0
  1
.
 51
10.0
  7
ISOCP
100
AcDbAttributeDefinition
  3
Gummi%%c3
  2
.
 70
     0
  0
ATTDEF
  5
235A
330
232F
100
AcDbEntity
  8
5
 62
     6
100
AcDbText
 10
-97.38636425808062
 20
7.213736719215205
 30
0.0
 40
2.0
  1
.
 51
10.0
  7
ISOCP
100
AcDbAttributeDefinition
  3
Medienr.3
  2
.
 70
     0
  0
ATTDEF
  5
235B
330
232F
100
AcDbEntity
  8
5
 62
     6
100
AcDbText
 10
-137.5977460648357
 20
1.61807903833062
 30
0.0
 40
2.0
  1
.
 51
10.0
  7
ISOCP
100
AcDbAttributeDefinition
  3
Anzahl4
  2
.
 70
     0
  0
ATTDEF
  5
235C
330
232F
100
AcDbEntity
  8
5
 62
     6
100
AcDbText
 10
-126.0718560374971
 20
1.61807903833062
 30
0.0
 40
2.0
  1
.
 51
10.0
  7
ISOCP
100
AcDbAttributeDefinition
  3
Gestell%%c4
  2
.
 70
     0
  0
ATTDEF
  5
235D
330
232F
100
AcDbEntity
  8
5
 62
     6
100
AcDbText
 10
-112.1838325543763
 20
1.61807903833062
 30
0.0
 40
2.0
  1
.
 51
10.0
  7
ISOCP
100
AcDbAttributeDefinition
  3
Gummi%%c4
  2
.
 70
     0
  0
ATTDEF
  5
235E
330
232F
100
AcDbEntity
  8
5
 62
     6
100
AcDbText
 10
-97.38636425808062
 20
1.61807903833062
 30
0.0
 40
2.0
  1
.
 51
10.0
  7
ISOCP
100
AcDbAttributeDefinition
  3
Medienr.4
  2
.
 70
     0
  0
ATTDEF
  5
235F
330
232F
100
AcDbEntity
  8
5
 62
     6
100
AcDbText
 10
-60.56627149556357
 20
24.2301792243012
 30
0.0
 40
2.5
  1
.
 51
10.0
  7
ISOCP
100
AcDbAttributeDefinition
  3
Gummi Außen%%c
  2
.
 70
     0
  0
ATTDEF
  5
2360
330
232F
100
AcDbEntity
  8
5
 62
     6
100
AcDbText
 10
-60.56627149556357
 20
20.56214714947623
 30
0.0
 40
2.5
  1
.
 51
10.0
  7
ISOCP
100
AcDbAttributeDefinition
  3
Gestell Material
  2
.
 70
     0
  0
ATTDEF
  5
2361
330
232F
100
AcDbEntity
  8
5
 62
     6
100
AcDbText
 10
-60.56627149556357
 20
17.30907520043684
 30
0.0
 40
2.5
  1
.
 51
10.0
  7
ISOCP
100
AcDbAttributeDefinition
  3
Gummi Material
  2
.
 70
     0
  0
ATTDEF
  5
2362
330
232F
100
AcDbEntity
  8
5
 62
     6
100
AcDbText
 10
-68.85446858067735
 20
14.06783807991337
 30
0.0
 40
2.5
  1
.
 51
10.0
  7
ISOCP
100
AcDbAttributeDefinition
  3
Auftrag Nr.:
  2
.
 70
     0
  0
ATTDEF
  5
2363
330
232F
100
AcDbEntity
  8
5
 62
     6
100
AcDbText
 10
-48.84455827863053
 20
14.06783807991337
 30
0.0
 40
2.5
  1
.
 51
10.0
  7
ISOCP
100
AcDbAttributeDefinition
  3
Pos.Nr.:
  2
.
 70
     0
  0
ATTDEF
  5
2364
330
232F
100
AcDbEntity
  8
5
 62
     6
100
AcDbText
 10
-67.20762069406942
 20
4.744364904269559
 30
0.0
 40
2.5
  1
.
 51
10.0
  7
ISOCP
100
AcDbAttributeDefinition
  3
275-
  2
.
 70
     0
  0
ATTDEF
  5
2365
330
232F
100
AcDbEntity
  8
5
 62
     6
100
AcDbText
 10
-59.78161188052308
 20
1.207657901680249
 30
0.0
 40
2.5
  1
.
 51
10.0
  7
ISOCP
100
AcDbAttributeDefinition
  3
Spez.-Datum
  2
.
 70
     0
  0
ENDBLK
  5
2367
330
232F
100
AcDbEntity
  8
0
100
AcDbBlockEnd
  0
BLOCK
  5
258E
330
258C
100
AcDbEntity
  8
0
100
AcDbBlockBegin
  2
*Paper_Space4
 70
     0
 10
0.0
 20
0.0
 30
0.0
  3
*Paper_Space4
  1

  0
VIEWPORT
  5
266A
330
258C
100
AcDbEntity
  8
0
100
AcDbViewport
 10
300.625209720823
 20
161.6631277582252
 30
0.0
 40
655.8304585934289
 41
352.7212518238234
 69
     0
 12
300.625209720823
 22
161.6631277582252
 13
0.0
 23
0.0
 14
10.0
 24
10.0
 15
10.0
 25
10.0
 16
0.0
 26
0.0
 36
1.0
 17
0.0
 27
0.0
 37
0.0
 42
50.0
 43
0.0
 44
0.0
 45
352.7212518238234
 50
0.0
 51
0.0
 72
   100
331
2499
 90
    32800
  1

281
     0
 71
     1
 74
     0
110
0.0
120
0.0
130
0.0
111
1.0
121
0.0
131
0.0
112
0.0
122
1.0
132
0.0
 79
     0
146
0.0
170
     0
  0
INSERT
  5
26D6
330
258C
100
AcDbEntity
  8
OBJEKT
100
AcDbBlockReference
 66
     1
  2
Datenblatt 13.02.02
 10
277.863221754304
 20
4.670531641252603
 30
0.0
 41
1.406244715412401
 42
1.406244715412401
 43
1.406244715412402
  0
ATTRIB
  5
26D7
330
26D6
100
AcDbEntity
  8
5
 62
     6
100
AcDbText
 10
59.71116937315364
 20
37.60669033914538
 30
0.0
 40
3.515611788531005
  1
.
 51
10.0
  7
ISOCP
100
AcDbAttribute
  2
.
 70
     0
  0
ATTRIB
  5
26D8
330
26D6
100
AcDbEntity
  8
5
 62
     6
100
AcDbText
 10
59.71116937315364
 20
27.76297733125856
 30
0.0
 40
3.515611788531005
  1
.
 51
10.0
  7
ISOCP
100
AcDbAttribute
  2
.
 70
     0
  0
ATTRIB
  5
26D9
330
26D6
100
AcDbEntity
  8
5
 62
     6
100
AcDbText
 10
59.71116937315364
 20
17.91926432337175
 30
0.0
 40
3.515611788531005
  1
.
 51
10.0
  7
ISOCP
100
AcDbAttribute
  2
.
 70
     0
  0
ATTRIB
  5
26DA
330
26D6
100
AcDbEntity
  8
5
 62
     6
100
AcDbText
 10
59.71116937315364
 20
8.08165767879365
 30
0.0
 40
3.515611788531005
  1
.
 51
10.0
  7
ISOCP
100
AcDbAttribute
  2
.
 70
     0
  0
ATTRIB
  5
26DB
330
26D6
100
AcDbEntity
  8
5
 62
     6
100
AcDbText
 10
84.36711849797111
 20
30.56475159364428
 30
0.0
 40
2.812489430824804
  1
.
 51
10.0
  7
ISOCP
100
AcDbAttribute
  2
.
 70
     0
  0
ATTRIB
  5
26DC
330
26D6
100
AcDbEntity
  8
5
 62
     6
100
AcDbText
 10
100.5753404393405
 20
30.56475159364428
 30
0.0
 40
2.812489430824804
  1
.
 51
10.0
  7
ISOCP
100
AcDbAttribute
  2
.
 70
     0
  0
ATTRIB
  5
26DD
330
26D6
100
AcDbEntity
  8
5
 62
     6
100
AcDbText
 10
120.1053000700025
 20
30.56475159364428
 30
0.0
 40
2.812489430824804
  1
.
 51
10.0
  7
ISOCP
100
AcDbAttribute
  2
.
 70
     0
  0
ATTRIB
  5
26DE
330
26D6
100
AcDbEntity
  8
5
 62
     6
100
AcDbText
 10
140.9141616631509
 20
30.56475159364428
 30
0.0
 40
2.812489430824804
  1
.
 51
10.0
  7
ISOCP
100
AcDbAttribute
  2
.
 70
     0
  0
ATTRIB
  5
26DF
330
26D6
100
AcDbEntity
  8
5
 62
     6
100
AcDbText
 10
84.36711849797111
 20
22.6897811873348
 30
0.0
 40
2.812489430824804
  1
.
 51
10.0
  7
ISOCP
100
AcDbAttribute
  2
.
 70
     0
  0
ATTRIB
  5
26E0
330
26D6
100
AcDbEntity
  8
5
 62
     6
100
AcDbText
 10
100.5753404393405
 20
22.6897811873348
 30
0.0
 40
2.812489430824804
  1
.
 51
10.0
  7
ISOCP
100
AcDbAttribute
  2
.
 70
     0
  0
ATTRIB
  5
26E1
330
26D6
100
AcDbEntity
  8
5
 62
     6
100
AcDbText
 10
120.1053000700025
 20
22.6897811873348
 30
0.0
 40
2.812489430824804
  1
.
 51
10.0
  7
ISOCP
100
AcDbAttribute
  2
.
 70
     0
  0
ATTRIB
  5
26E2
330
26D6
100
AcDbEntity
  8
5
 62
     6
100
AcDbText
 10
140.9141616631509
 20
22.6897811873348
 30
0.0
 40
2.812489430824804
  1
.
 51
10.0
  7
ISOCP
100
AcDbAttribute
  2
.
 70
     0
  0
ATTRIB
  5
26E3
330
26D6
100
AcDbEntity
  8
5
 62
     6
100
AcDbText
 10
84.36711849797111
 20
14.81481078102539
 30
0.0
 40
2.812489430824804
  1
.
 51
10.0
  7
ISOCP
100
AcDbAttribute
  2
.
 70
     0
  0
ATTRIB
  5
26E4
330
26D6
100
AcDbEntity
  8
5
 62
     6
100
AcDbText
 10
100.5753404393405
 20
14.81481078102539
 30
0.0
 40
2.812489430824804
  1
.
 51
10.0
  7
ISOCP
100
AcDbAttribute
  2
.
 70
     0
  0
ATTRIB
  5
26E5
330
26D6
100
AcDbEntity
  8
5
 62
     6
100
AcDbText
 10
120.1053000700025
 20
14.81481078102539
 30
0.0
 40
2.812489430824804
  1
.
 51
10.0
  7
ISOCP
100
AcDbAttribute
  2
.
 70
     0
  0
ATTRIB
  5
26E6
330
26D6
100
AcDbEntity
  8
5
 62
     6
100
AcDbText
 10
140.9141616631509
 20
14.81481078102539
 30
0.0
 40
2.812489430824804
  1
.
 51
10.0
  7
ISOCP
100
AcDbAttribute
  2
.
 70
     0
  0
ATTRIB
  5
26E7
330
26D6
100
AcDbEntity
  8
5
 62
     6
100
AcDbText
 10
84.36711849797111
 20
6.94594673802462
 30
0.0
 40
2.812489430824804
  1
.
 51
10.0
  7
ISOCP
100
AcDbAttribute
  2
.
 70
     0
  0
ATTRIB
  5
26E8
330
26D6
100
AcDbEntity
  8
5
 62
     6
100
AcDbText
 10
100.5753404393405
 20
6.94594673802462
 30
0.0
 40
2.812489430824804
  1
.
 51
10.0
  7
ISOCP
100
AcDbAttribute
  2
.
 70
     0
  0
ATTRIB
  5
26E9
330
26D6
100
AcDbEntity
  8
5
 62
     6
100
AcDbText
 10
120.1053000700025
 20
6.94594673802462
 30
0.0
 40
2.812489430824804
  1
.
 51
10.0
  7
ISOCP
100
AcDbAttribute
  2
.
 70
     0
  0
ATTRIB
  5
26EA
330
26D6
100
AcDbEntity
  8
5
 62
     6
100
AcDbText
 10
140.9141616631509
 20
6.94594673802462
 30
0.0
 40
2.812489430824804
  1
.
 51
10.0
  7
ISOCP
100
AcDbAttribute
  2
.
 70
     0
  0
ATTRIB
  5
26EB
330
26D6
100
AcDbEntity
  8
5
 62
     6
100
AcDbText
 10
192.692222531435
 20
38.74409312892154
 30
0.0
 40
3.515611788531005
  1
.
 51
10.0
  7
ISOCP
100
AcDbAttribute
  2
.
 70
     0
  0
ATTRIB
  5
26EC
330
26D6
100
AcDbEntity
  8
5
 62
     6
100
AcDbText
 10
192.692222531435
 20
33.58594240773575
 30
0.0
 40
3.515611788531005
  1
.
 51
10.0
  7
ISOCP
100
AcDbAttribute
  2
.
 70
     0
  0
ATTRIB
  5
26ED
330
26D6
100
AcDbEntity
  8
5
 62
     6
100
AcDbText
 10
192.692222531435
 20
29.01132717054278
 30
0.0
 40
3.515611788531005
  1
.
 51
10.0
  7
ISOCP
100
AcDbAttribute
  2
.
 70
     0
  0
ATTRIB
  5
26EE
330
26D6
100
AcDbEntity
  8
5
 62
     6
100
AcDbText
 10
181.0369891801972
 20
24.45335459840814
 30
0.0
 40
3.515611788531005
  1
.
 51
10.0
  7
ISOCP
100
AcDbAttribute
  2
.
 70
     0
  0
ATTRIB
  5
26EF
330
26D6
100
AcDbEntity
  8
5
 62
     6
100
AcDbText
 10
209.1758197983268
 20
24.45335459840814
 30
0.0
 40
3.515611788531005
  1
.
 51
10.0
  7
ISOCP
100
AcDbAttribute
  2
.
 70
     0
  0
ATTRIB
  5
26F0
330
26D6
100
AcDbEntity
  8
5
 62
     6
100
AcDbText
 10
183.3528603178277
 20
11.34226971586974
 30
0.0
 40
3.515611788531005
  1
.
 51
10.0
  7
ISOCP
100
AcDbAttribute
  2
.
 70
     0
  0
ATTRIB
  5
26F1
330
26D6
100
AcDbEntity
  8
5
 62
     6
100
AcDbText
 10
193.7956459684832
 20
6.368794183516484
 30
0.0
 40
3.515611788531005
  1
.
 51
10.0
  7
ISOCP
100
AcDbAttribute
  2
.
 70
     0
  0
SEQEND
  5
26F2
330
26D6
100
AcDbEntity
  8
OBJEKT
  0
VIEWPORT
  5
26F3
330
258C
100
AcDbEntity
  8
5
100
AcDbViewport
 10
208.614211115104
 20
143.1705316412525
 30
0.0
 40
388.0
 41
277.0
 69
     0
 12
70.96039267584387
 22
-35.1351936953775
 13
0.0
 23
0.0
 14
10.0
 24
10.0
 15
10.0
 25
10.0
 16
0.0
 26
0.0
 36
1.0
 17
0.0
 27
0.0
 37
0.0
 42
50.0
 43
0.0
 44
0.0
 45
276.9999999561274
 50
0.0
 51
0.0
 72
   100
 90
   163872
  1

281
     0
 71
     1
 74
     0
110
0.0
120
0.0
130
0.0
111
1.0
121
0.0
131
0.0
112
0.0
122
1.0
132
0.0
 79
     0
146
0.0
170
     0
  0
LINE
  5
26F4
330
258C
100
AcDbEntity
  8
WERKSKANTEN
100
AcDbLine
 10
14.61421111510401
 20
4.670531641252523
 30
0.0
 11
402.614211115104
 21
4.670531641252523
 31
0.0
  0
LINE
  5
26F5
330
258C
100
AcDbEntity
  8
WERKSKANTEN
100
AcDbLine
 10
14.61421111510401
 20
281.6705316412525
 30
0.0
 11
402.614211115104
 21
281.6705316412525
 31
0.0
  0
LINE
  5
26F6
330
258C
100
AcDbEntity
  8
WERKSKANTEN
100
AcDbLine
 10
14.61421111510401
 20
4.670531641252523
 30
0.0
 11
14.61421111510401
 21
281.6705316412525
 31
0.0
  0
LINE
  5
26F7
330
258C
100
AcDbEntity
  8
WERKSKANTEN
100
AcDbLine
 10
402.614211115104
 20
4.670531641252523
 30
0.0
 11
402.614211115104
 21
281.6705316412525
 31
0.0
  0
INSERT
  5
26F8
330
258C
100
AcDbEntity
  8
OBJEKT
100
AcDbBlockReference
 66
     1
  2
schriftfeld-31.01.02
 10
402.614211115104
 20
4.670531641252523
 30
0.0
  0
ATTRIB
  5
26F9
330
26F8
100
AcDbEntity
  8
TEXTE
 62
     6
370
    35
100
AcDbText
 10
359.5101853154455
 20
32.08900322367743
 30
0.0
 40
3.5
  1
.
  7
ISOCP
 72
     1
 11
360.0351853154454
 21
32.08900322367743
 31
0.0
100
AcDbAttribute
  2
BENENNUNG
 70
     0
  0
ATTRIB
  5
26FA
330
26F8
100
AcDbEntity
  8
TEXTE
100
AcDbText
 10
320.7262778411692
 20
21.19590272589392
 30
0.0
 40
3.5
  1
3
  7
ISOCP
100
AcDbAttribute
  2
A?
 70
     0
  0
ATTRIB
  5
26FB
330
26F8
100
AcDbEntity
  8
TEXTE
 62
     6
370
    35
100
AcDbText
 10
357.9202931525833
 20
21.28365176116404
 30
0.0
 40
3.5
  1
.
  7
ISOCP
 72
     1
 11
358.4452931525833
 21
21.28365176116404
 31
0.0
100
AcDbAttribute
  2
ZNR
 70
     0
  0
ATTRIB
  5
26FC
330
26F8
100
AcDbEntity
  8
TEXTE
100
AcDbText
 10
316.9019674747409
 20
13.80733993755291
 30
0.0
 40
3.5
  1
                     
 41
1.943588291164696
  7
ISOCP
 72
     5
 11
402.614211115104
 21
13.80733993755291
 31
0.0
100
AcDbAttribute
  2
KL.NR.
 70
     0
  0
ATTRIB
  5
26FD
330
26F8
100
AcDbEntity
  8
TEXTE
100
AcDbText
 10
272.5716947641165
 20
22.73920797258825
 30
0.0
 40
2.5
  1
.
  7
ISOCP
100
AcDbAttribute
  2
CADDAT
 70
     0
  0
ATTRIB
  5
26FE
330
26F8
100
AcDbEntity
  8
TEXTE
100
AcDbText
 10
288.122212378532
 20
22.73920797258825
 30
0.0
 40
2.5
  1
.
  7
ISOCP
100
AcDbAttribute
  2
BEARBNAME
 70
     0
  0
ATTRIB
  5
26FF
330
26F8
100
AcDbEntity
  8
TEXTE
100
AcDbText
 10
272.5716947641166
 20
35.48920797258825
 30
0.0
 40
2.5
  1
.
  7
ISOCP
100
AcDbAttribute
  2
BEARBDAT
 70
     0
  0
ATTRIB
  5
2700
330
26F8
100
AcDbEntity
  8
TEXTE
100
AcDbText
 10
288.122212378532
 20
35.48920797258825
 30
0.0
 40
2.5
  1
.
  7
ISOCP
100
AcDbAttribute
  2
BEARBNAME
 70
     0
  0
ATTRIB
  5
2701
330
26F8
100
AcDbEntity
  8
TEXTE
100
AcDbText
 10
272.5716947641166
 20
31.23920797258825
 30
0.0
 40
2.5
  1
 
  7
ISOCP
100
AcDbAttribute
  2
GEPR-DAT
 70
     0
  0
ATTRIB
  5
2702
330
26F8
100
AcDbEntity
  8
TEXTE
100
AcDbText
 10
288.122212378532
 20
31.23920797258825
 30
0.0
 40
2.5
  1

  7
ISOCP
100
AcDbAttribute
  2
GEPÜNAME
 70
     0
  0
ATTRIB
  5
2703
330
26F8
100
AcDbEntity
  8
TEXTE
100
AcDbText
 10
272.5716947641165
 20
26.98920797258825
 30
0.0
 40
2.5
  1

  7
ISOCP
100
AcDbAttribute
  2
NORMBDAT
 70
     0
  0
ATTRIB
  5
2704
330
26F8
100
AcDbEntity
  8
TEXTE
100
AcDbText
 10
288.122212378532
 20
26.98920797258825
 30
0.0
 40
2.5
  1
 
  7
ISOCP
100
AcDbAttribute
  2
BEARBNAME
 70
     0
  0
ATTRIB
  5
2705
330
26F8
100
AcDbEntity
  8
TEXTE
100
AcDbText
 10
295.7787637086901
 20
69.48920797258819
 30
0.0
 40
2.5
  1
.
  7
ISOCP
 72
     1
 11
296.1537637086901
 21
69.48920797258819
 31
0.0
100
AcDbAttribute
  2
MAßSTAB1
 70
     0
  0
ATTRIB
  5
2706
330
26F8
100
AcDbEntity
  8
TEXTE
100
AcDbText
 10
295.7441993610659
 20
65.23920797258819
 30
0.0
 40
2.5
  1
 
  7
ISOCP
 72
     1
 11
296.4941993610659
 21
65.23920797258819
 31
0.0
100
AcDbAttribute
  2
MAßSTAB2
 70
     0
  0
ATTRIB
  5
2707
330
26F8
100
AcDbEntity
  8
TEXTE
100
AcDbText
 10
295.7441993610659
 20
60.98920797258819
 30
0.0
 40
2.5
  1
 
  7
ISOCP
 72
     1
 11
296.4941993610659
 21
60.98920797258819
 31
0.0
100
AcDbAttribute
  2
MAßSTAB3
 70
     0
  0
ATTRIB
  5
2708
330
26F8
100
AcDbEntity
  8
TEXTE
100
AcDbText
 10
272.5716947641166
 20
5.739207972588246
 30
0.0
 40
2.5
  1
.
  7
ISOCP
100
AcDbAttribute
  2
URSPRUNG
 70
     0
  0
ATTRIB
  5
2709
330
26F8
100
AcDbEntity
  8
TEXTE
100
AcDbText
 10
316.7716947641166
 20
5.739207972588246
 30
0.0
 40
2.5
  1
.
  7
ISOCP
100
AcDbAttribute
  2
ERSETZTFÜR
 70
     0
  0
ATTRIB
  5
270A
330
26F8
100
AcDbEntity
  8
TEXTE
100
AcDbText
 10
365.4716947641166
 20
5.739207972588189
 30
0.0
 40
2.5
  1
.
  7
ISOCP
100
AcDbAttribute
  2
ERSTELLTFÜR
 70
     0
  0
ATTRIB
  5
270B
330
26F8
100
AcDbEntity
  8
TEXTE
100
AcDbText
 10
216.5716947641166
 20
9.989207972588246
 30
0.0
 40
2.5
  1
 
  7
ISOCP
100
AcDbAttribute
  2
ZUST.
 70
     0
  0
ATTRIB
  5
270C
330
26F8
100
AcDbEntity
  8
TEXTE
100
AcDbText
 10
224.7159893154243
 20
9.989207972588246
 30
0.0
 40
2.5
  1
 
  7
ISOCP
100
AcDbAttribute
  2
ÄND.
 70
     0
  0
ATTRIB
  5
270D
330
26F8
100
AcDbEntity
  8
TEXTE
100
AcDbText
 10
237.8714153073695
 20
9.898211649728068
 30
0.0
 40
2.5
  1
 
 41
3.916666666666666
  7
ISOCP
 72
     5
 11
243.7464153073695
 21
9.898211649728068
 31
0.0
100
AcDbAttribute
  2
DAT
 70
     0
  0
ATTRIB
  5
270E
330
26F8
100
AcDbEntity
  8
TEXTE
100
AcDbText
 10
250.4531093767472
 20
9.898211649728068
 30
0.0
 40
2.5
  1
 
  7
ISOCP
100
AcDbAttribute
  2
NAME
 70
     0
  0
ATTRIB
  5
270F
330
26F8
100
AcDbEntity
  8
TEXTE
100
AcDbText
 10
216.5716947641166
 20
14.23920797258825
 30
0.0
 40
2.5
  1
 
  7
ISOCP
100
AcDbAttribute
  2
ZUST.
 70
     0
  0
ATTRIB
  5
2710
330
26F8
100
AcDbEntity
  8
TEXTE
100
AcDbText
 10
224.7159893154243
 20
14.23920797258825
 30
0.0
 40
2.5
  1
 
  7
ISOCP
100
AcDbAttribute
  2
ÄND.
 70
     0
  0
ATTRIB
  5
2711
330
26F8
100
AcDbEntity
  8
TEXTE
100
AcDbText
 10
237.8714153073695
 20
14.14821164972807
 30
0.0
 40
2.5
  1
 
 41
3.916666666666666
  7
ISOCP
 72
     5
 11
243.7464153073695
 21
14.14821164972807
 31
0.0
100
AcDbAttribute
  2
DAT
 70
     0
  0
ATTRIB
  5
2712
330
26F8
100
AcDbEntity
  8
TEXTE
100
AcDbText
 10
250.4531093767472
 20
14.14821164972807
 30
0.0
 40
2.5
  1
 
  7
ISOCP
100
AcDbAttribute
  2
NAME
 70
     0
  0
ATTRIB
  5
2713
330
26F8
100
AcDbEntity
  8
TEXTE
100
AcDbText
 10
216.5716947641166
 20
18.48920797258825
 30
0.0
 40
2.5
  1
 
  7
ISOCP
100
AcDbAttribute
  2
ZUST.
 70
     0
  0
ATTRIB
  5
2714
330
26F8
100
AcDbEntity
  8
TEXTE
100
AcDbText
 10
224.7159893154243
 20
18.48920797258825
 30
0.0
 40
2.5
  1
 
  7
ISOCP
100
AcDbAttribute
  2
ÄND.
 70
     0
  0
ATTRIB
  5
2715
330
26F8
100
AcDbEntity
  8
TEXTE
100
AcDbText
 10
237.8714153073695
 20
18.39821164972807
 30
0.0
 40
2.5
  1
 
 41
3.916666666666666
  7
ISOCP
 72
     5
 11
243.7464153073695
 21
18.39821164972807
 31
0.0
100
AcDbAttribute
  2
DAT
 70
     0
  0
ATTRIB
  5
2716
330
26F8
100
AcDbEntity
  8
TEXTE
100
AcDbText
 10
250.4531093767472
 20
18.39821164972807
 30
0.0
 40
2.5
  1
 
  7
ISOCP
100
AcDbAttribute
  2
NAME
 70
     0
  0
ATTRIB
  5
2717
330
26F8
100
AcDbEntity
  8
TEXTE
100
AcDbText
 10
216.5716947641166
 20
22.73920797258825
 30
0.0
 40
2.5
  1
 
  7
ISOCP
100
AcDbAttribute
  2
ZUST.
 70
     0
  0
ATTRIB
  5
2718
330
26F8
100
AcDbEntity
  8
TEXTE
100
AcDbText
 10
224.7159893154243
 20
22.73920797258825
 30
0.0
 40
2.5
  1
 
  7
ISOCP
100
AcDbAttribute
  2
ÄND.
 70
     0
  0
ATTRIB
  5
2719
330
26F8
100
AcDbEntity
  8
TEXTE
100
AcDbText
 10
237.8714153073695
 20
22.64821164972807
 30
0.0
 40
2.5
  1
 
 41
3.916666666666666
  7
ISOCP
 72
     5
 11
243.7464153073695
 21
22.64821164972807
 31
0.0
100
AcDbAttribute
  2
DAT
 70
     0
  0
ATTRIB
  5
271A
330
26F8
100
AcDbEntity
  8
TEXTE
100
AcDbText
 10
250.4531093767472
 20
22.64821164972807
 30
0.0
 40
2.5
  1

  7
ISOCP
100
AcDbAttribute
  2
NAME
 70
     0
  0
ATTRIB
  5
271B
330
26F8
100
AcDbEntity
  8
TEXTE
100
AcDbText
 10
216.5716947641166
 20
26.98920797258825
 30
0.0
 40
2.5
  1

  7
ISOCP
100
AcDbAttribute
  2
ZUST.
 70
     0
  0
ATTRIB
  5
271C
330
26F8
100
AcDbEntity
  8
TEXTE
100
AcDbText
 10
224.7159893154243
 20
26.98920797258825
 30
0.0
 40
2.5
  1

  7
ISOCP
100
AcDbAttribute
  2
ÄND.
 70
     0
  0
ATTRIB
  5
271D
330
26F8
100
AcDbEntity
  8
TEXTE
100
AcDbText
 10
237.8714153073695
 20
26.89821164972807
 30
0.0
 40
2.5
  1

  7
ISOCP
 72
     5
 11
243.7464153073695
 21
26.89821164972807
 31
0.0
100
AcDbAttribute
  2
DAT
 70
     0
  0
ATTRIB
  5
271E
330
26F8
100
AcDbEntity
  8
TEXTE
100
AcDbText
 10
250.4531093767472
 20
26.89821164972807
 30
0.0
 40
2.5
  1

  7
ISOCP
100
AcDbAttribute
  2
NAME
 70
     0
  0
ATTRIB
  5
271F
330
26F8
100
AcDbEntity
  8
TEXTE
100
AcDbText
 10
216.5716947641166
 20
31.23920797258825
 30
0.0
 40
2.5
  1

  7
ISOCP
100
AcDbAttribute
  2
ZUST.
 70
     0
  0
ATTRIB
  5
2720
330
26F8
100
AcDbEntity
  8
TEXTE
100
AcDbText
 10
224.7159893154243
 20
31.23920797258825
 30
0.0
 40
2.5
  1

  7
ISOCP
100
AcDbAttribute
  2
ÄND.
 70
     0
  0
ATTRIB
  5
2721
330
26F8
100
AcDbEntity
  8
TEXTE
100
AcDbText
 10
237.8714153073695
 20
31.14821164972807
 30
0.0
 40
2.5
  1

  7
ISOCP
 72
     5
 11
243.7464153073695
 21
31.14821164972807
 31
0.0
100
AcDbAttribute
  2
DAT
 70
     0
  0
ATTRIB
  5
2722
330
26F8
100
AcDbEntity
  8
TEXTE
100
AcDbText
 10
250.4531093767472
 20
31.14821164972807
 30
0.0
 40
2.5
  1

  7
ISOCP
100
AcDbAttribute
  2
NAME
 70
     0
  0
ATTRIB
  5
2723
330
26F8
100
AcDbEntity
  8
TEXTE
100
AcDbText
 10
216.5716947641166
 20
35.48920797258825
 30
0.0
 40
2.5
  1

  7
ISOCP
100
AcDbAttribute
  2
ZUST.
 70
     0
  0
ATTRIB
  5
2724
330
26F8
100
AcDbEntity
  8
TEXTE
100
AcDbText
 10
224.7159893154243
 20
35.48920797258825
 30
0.0
 40
2.5
  1

  7
ISOCP
100
AcDbAttribute
  2
ÄND.
 70
     0
  0
ATTRIB
  5
2725
330
26F8
100
AcDbEntity
  8
TEXTE
100
AcDbText
 10
237.8714153073695
 20
35.39821164972807
 30
0.0
 40
2.5
  1

  7
ISOCP
 72
     5
 11
243.7464153073695
 21
35.39821164972807
 31
0.0
100
AcDbAttribute
  2
DAT
 70
     0
  0
ATTRIB
  5
2726
330
26F8
100
AcDbEntity
  8
TEXTE
100
AcDbText
 10
250.4531093767472
 20
35.39821164972807
 30
0.0
 40
2.5
  1

  7
ISOCP
100
AcDbAttribute
  2
NAME
 70
     0
  0
ATTRIB
  5
2727
330
26F8
100
AcDbEntity
  8
TEXTE
100
AcDbText
 10
216.5716947641166
 20
39.73920797258825
 30
0.0
 40
2.5
  1

  7
ISOCP
100
AcDbAttribute
  2
ZUST.
 70
     0
  0
ATTRIB
  5
2728
330
26F8
100
AcDbEntity
  8
TEXTE
100
AcDbText
 10
224.7159893154243
 20
39.73920797258825
 30
0.0
 40
2.5
  1

  7
ISOCP
100
AcDbAttribute
  2
ÄND.
 70
     0
  0
ATTRIB
  5
2729
330
26F8
100
AcDbEntity
  8
TEXTE
100
AcDbText
 10
237.8714153073696
 20
39.64821164972807
 30
0.0
 40
2.5
  1

  7
ISOCP
 72
     5
 11
243.7464153073696
 21
39.64821164972807
 31
0.0
100
AcDbAttribute
  2
DAT
 70
     0
  0
ATTRIB
  5
272A
330
26F8
100
AcDbEntity
  8
TEXTE
100
AcDbText
 10
250.4531093767472
 20
39.64821164972807
 30
0.0
 40
2.5
  1

  7
ISOCP
100
AcDbAttribute
  2
NAME
 70
     0
  0
ATTRIB
  5
272B
330
26F8
100
AcDbEntity
  8
TEXTE
100
AcDbText
 10
216.5716947641166
 20
43.98920797258824
 30
0.0
 40
2.5
  1

  7
ISOCP
100
AcDbAttribute
  2
ZUST.
 70
     0
  0
ATTRIB
  5
272C
330
26F8
100
AcDbEntity
  8
TEXTE
100
AcDbText
 10
224.7159893154243
 20
43.98920797258824
 30
0.0
 40
2.5
  1

  7
ISOCP
100
AcDbAttribute
  2
ÄND.
 70
     0
  0
ATTRIB
  5
272D
330
26F8
100
AcDbEntity
  8
TEXTE
100
AcDbText
 10
237.8714153073696
 20
43.89821164972807
 30
0.0
 40
2.5
  1

  7
ISOCP
 72
     5
 11
243.7464153073696
 21
43.89821164972807
 31
0.0
100
AcDbAttribute
  2
DAT
 70
     0
  0
ATTRIB
  5
272E
330
26F8
100
AcDbEntity
  8
TEXTE
100
AcDbText
 10
250.4531093767472
 20
43.89821164972807
 30
0.0
 40
2.5
  1

  7
ISOCP
100
AcDbAttribute
  2
NAME
 70
     0
  0
ATTRIB
  5
272F
330
26F8
100
AcDbEntity
  8
TEXTE
100
AcDbText
 10
216.5716947641166
 20
48.23920797258825
 30
0.0
 40
2.5
  1

  7
ISOCP
100
AcDbAttribute
  2
ZUST.
 70
     0
  0
ATTRIB
  5
2730
330
26F8
100
AcDbEntity
  8
TEXTE
100
AcDbText
 10
224.7159893154243
 20
48.23920797258825
 30
0.0
 40
2.5
  1

  7
ISOCP
100
AcDbAttribute
  2
ÄND.
 70
     0
  0
ATTRIB
  5
2731
330
26F8
100
AcDbEntity
  8
TEXTE
100
AcDbText
 10
237.8714153073696
 20
48.14821164972807
 30
0.0
 40
2.5
  1

  7
ISOCP
 72
     5
 11
243.7464153073696
 21
48.14821164972807
 31
0.0
100
AcDbAttribute
  2
DAT
 70
     0
  0
ATTRIB
  5
2732
330
26F8
100
AcDbEntity
  8
TEXTE
100
AcDbText
 10
250.4531093767472
 20
48.14821164972807
 30
0.0
 40
2.5
  1

  7
ISOCP
100
AcDbAttribute
  2
NAME
 70
     0
  0
ATTRIB
  5
2733
330
26F8
100
AcDbEntity
  8
TEXTE
100
AcDbText
 10
216.5716947641166
 20
52.48920797258825
 30
0.0
 40
2.5
  1

  7
ISOCP
100
AcDbAttribute
  2
ZUST.
 70
     0
  0
ATTRIB
  5
2734
330
26F8
100
AcDbEntity
  8
TEXTE
100
AcDbText
 10
224.7159893154243
 20
52.48920797258825
 30
0.0
 40
2.5
  1

  7
ISOCP
100
AcDbAttribute
  2
ÄND.
 70
     0
  0
ATTRIB
  5
2735
330
26F8
100
AcDbEntity
  8
TEXTE
100
AcDbText
 10
237.8714153073695
 20
52.39821164972807
 30
0.0
 40
2.5
  1

  7
ISOCP
 72
     5
 11
243.7464153073695
 21
52.39821164972807
 31
0.0
100
AcDbAttribute
  2
DAT
 70
     0
  0
ATTRIB
  5
2736
330
26F8
100
AcDbEntity
  8
TEXTE
100
AcDbText
 10
250.4531093767472
 20
52.39821164972807
 30
0.0
 40
2.5
  1

  7
ISOCP
100
AcDbAttribute
  2
NAME
 70
     0
  0
ATTRIB
  5
2737
330
26F8
100
AcDbEntity
  8
TEXTE
100
AcDbText
 10
216.5716947641166
 20
56.73920797258819
 30
0.0
 40
2.5
  1

  7
ISOCP
100
AcDbAttribute
  2
ZUST.
 70
     0
  0
ATTRIB
  5
2738
330
26F8
100
AcDbEntity
  8
TEXTE
100
AcDbText
 10
224.7159893154243
 20
56.73920797258819
 30
0.0
 40
2.5
  1

  7
ISOCP
100
AcDbAttribute
  2
ÄND.
 70
     0
  0
ATTRIB
  5
2739
330
26F8
100
AcDbEntity
  8
TEXTE
100
AcDbText
 10
237.8714153073695
 20
56.64821164972806
 30
0.0
 40
2.5
  1

  7
ISOCP
 72
     5
 11
243.7464153073695
 21
56.64821164972806
 31
0.0
100
AcDbAttribute
  2
DAT
 70
     0
  0
ATTRIB
  5
273A
330
26F8
100
AcDbEntity
  8
TEXTE
100
AcDbText
 10
250.4531093767472
 20
56.64821164972806
 30
0.0
 40
2.5
  1

  7
ISOCP
100
AcDbAttribute
  2
NAME
 70
     0
  0
SEQEND
  5
273B
330
26F8
100
AcDbEntity
  8
OBJEKT
  0
INSERT
  5
273C
330
258C
100
AcDbEntity
  8
OBJEKT
100
AcDbBlockReference
  2
Toleranz1000
 10
261.014211115104
 20
42.92053164125256
 30
0.0
  0
LWPOLYLINE
  5
2744
102
{ACAD_REACTORS
330
2746
102
}
330
258C
100
AcDbEntity
  8
Ansichtsfenster
100
AcDbPolyline
 90
        6
 70
     1
 43
0.0
 10
14.61421111510401
 20
44.03927730949113
 10
215.414232427059
 20
44.03927730949113
 10
215.414211115104
 20
76.92053164125252
 10
402.614211115104
 20
76.92053164125252
 10
402.614211115104
 20
281.6705316412525
 10
14.61421111510401
 20
281.6705316412525
  0
VIEWPORT
  5
2746
330
258C
100
AcDbEntity
  8
Ansichtsfenster
100
AcDbViewport
 10
208.614211115104
 20
162.8549044753718
 30
0.0
 40
388.0
 41
237.6312543317614
 69
     0
 12
82.38384455980249
 22
-24.09418841058899
 13
0.0
 23
0.0
 14
10.0
 24
10.0
 15
10.0
 25
10.0
 16
0.0
 26
0.0
 36
1.0
 17
0.0
 27
0.0
 37
0.0
 42
50.0
 43
0.0
 44
0.0
 45
237.6312537912419
 50
0.0
 51
0.0
 72
   100
331
2499
 90
    98304
340
2744
  1

281
     0
 71
     1
 74
     0
110
0.0
120
0.0
130
0.0
111
1.0
121
0.0
131
0.0
112
0.0
122
1.0
132
0.0
 79
     0
146
0.0
170
     0
  0
ENDBLK
  5
258F
330
258C
100
AcDbEntity
  8
0
100
AcDbBlockEnd
  0
BLOCK
  5
24AB
330
24A7
100
AcDbEntity
  8
0
100
AcDbBlockBegin
  2
oberfläche_nach_1302
 70
     0
 10
0.0
 20
0.0
 30
0.0
  3
oberfläche_nach_1302
  1

  0
TEXT
  5
24A8
330
24A7
100
AcDbEntity
  8
5-BEM
100
AcDbText
 10
5.536096684105373
 20
11.93918267525639
 30
0.0
 40
2.5
  1
Oberflächen
  7
ISOCP
100
AcDbText
1001
ACAD
1000
MTEXTBEGIN
1070
    73
1070
     1
1070
    44
1040
1.0
1070
    74
1070
     0
1000
MTEXTEND
1000
MTEXTBEGIN
1070
    73
1070
     1
1070
    44
1040
1.0
1070
    74
1070
     0
1000
MTEXTEND
1000
MTEXTBEGIN
1070
    73
1070
     1
1070
    44
1040
1.0
1070
    74
1070
     0
1000
MTEXTEND
1000
MTEXTBEGIN
1070
    73
1070
     1
1070
    44
1040
1.0
1070
    74
1070
     0
1000
MTEXTEND
  0
TEXT
  5
24A9
330
24A7
100
AcDbEntity
  8
5-BEM
100
AcDbText
 10
10.88633250976433
 20
7.772516008589718
 30
0.0
 40
2.5
  1
nach
  7
ISOCP
100
AcDbText
1001
ACAD
1000
MTEXTBEGIN
1070
    73
1070
     1
1070
    44
1040
1.0
1070
    74
1070
     0
1000
MTEXTEND
1000
MTEXTBEGIN
1070
    73
1070
     1
1070
    44
1040
1.0
1070
    74
1070
     0
1000
MTEXTEND
1000
MTEXTBEGIN
1070
    73
1070
     1
1070
    44
1040
1.0
1070
    74
1070
     0
1000
MTEXTEND
1000
MTEXTBEGIN
1070
    73
1070
     1
1070
    44
1040
1.0
1070
    74
1070
     0
1000
MTEXTEND
  0
TEXT
  5
24AA
330
24A7
100
AcDbEntity
  8
5-BEM
100
AcDbText
 10
8.161227461750215
 20
3.605849341923047
 30
0.0
 40
2.5
  1
ISO 1302
  7
ISOCP
100
AcDbText
1001
ACAD
1000
MTEXTBEGIN
1070
    73
1070
     1
1070
    44
1040
1.0
1070
    74
1070
     0
1000
MTEXTEND
1000
MTEXTBEGIN
1070
    73
1070
     1
1070
    44
1040
1.0
1070
    74
1070
     0
1000
MTEXTEND
1000
MTEXTBEGIN
1070
    73
1070
     1
1070
    44
1040
1.0
1070
    74
1070
     0
1000
MTEXTEND
1000
MTEXTBEGIN
1070
    73
1070
     1
1070
    44
1040
1.0
1070
    74
1070
     0
1000
MTEXTEND
  0
ENDBLK
  5
24AC
330
24A7
100
AcDbEntity
  8
0
100
AcDbBlockEnd
  0
BLOCK
  5
24B2
330
24AE
100
AcDbEntity
  8
0
100
AcDbBlockBegin
  2
Allgemeintoleranzen1
 70
     2
 10
0.0
 20
0.0
 30
0.0
  3
Allgemeintoleranzen1
  1

  0
TEXT
  5
24AF
330
24AE
100
AcDbEntity
  8
TEXTE
100
AcDbText
 10
3.708796159061023
 20
4.904317726805842
 30
0.0
 40
2.5
  1

  7
ISOCP
100
AcDbText
  0
TEXT
  5
24B0
330
24AE
100
AcDbEntity
  8
TEXTE
100
AcDbText
 10
3.708796159061023
 20
8.836505930480186
 30
0.0
 40
2.5
  1
Allgemeintoleranzen
  7
ISOCP
100
AcDbText
  0
ATTDEF
  5
24B1
330
24AE
100
AcDbEntity
  8
TEXTE
100
AcDbText
 10
9.739745867903195
 20
4.905944648027599
 30
0.0
 40
2.5
  1

  7
ISOCP
100
AcDbAttributeDefinition
  3

  2
ALGEMEINT.
 70
     0
  0
ENDBLK
  5
24B3
330
24AE
100
AcDbEntity
  8
0
100
AcDbBlockEnd
  0
BLOCK
  5
24E1
330
24DA
100
AcDbEntity
  8
0
100
AcDbBlockBegin
  2
A3ra
 70
     0
 10
0.0
 20
0.0
 30
0.0
  3
A3ra
  1

  0
LINE
  5
24DB
330
24DA
100
AcDbEntity
  8
WERKSKANTEN
100
AcDbLine
 10
395.0
 20
-2.085507088176655
 30
0.0
 11
395.0
 21
274.9144929118234
 31
0.0
  0
LINE
  5
24DC
330
24DA
100
AcDbEntity
  8
WERKSKANTEN
100
AcDbLine
 10
7.0
 20
274.9144929118234
 30
0.0
 11
395.0
 21
274.9144929118234
 31
0.0
  0
LINE
  5
24DD
330
24DA
100
AcDbEntity
  8
WERKSKANTEN
100
AcDbLine
 10
7.0
 20
-2.085507088176655
 30
0.0
 11
395.0
 21
-2.085507088176655
 31
0.0
  0
LINE
  5
24DE
330
24DA
100
AcDbEntity
  8
WERKSKANTEN
100
AcDbLine
 10
7.0
 20
-2.085507088176655
 30
0.0
 11
7.0
 21
274.9144929118234
 31
0.0
  0
LINE
  5
24DF
330
24DA
100
AcDbEntity
  8
WERKSKANTEN
100
AcDbLine
 10
0.0
 20
-4.17101417635331
 30
0.0
 11
0.0
 21
0.0
 31
0.0
  0
LINE
  5
24E0
330
24DA
100
AcDbEntity
  8
WERKSKANTEN
100
AcDbLine
 10
2.327386164632116
 20
-2.085507088176655
 30
0.0
 11
-2.256941670683772
 21
-2.085507088176655
 31
0.0
  0
ENDBLK
  5
24E2
330
24DA
100
AcDbEntity
  8
0
100
AcDbBlockEnd
  0
BLOCK
  5
23C0
330
23BE
100
AcDbEntity
  8
0
100
AcDbBlockBegin
  2
*Paper_Space8
 70
     0
 10
0.0
 20
0.0
 30
0.0
  3
*Paper_Space8
  1

  0
VIEWPORT
  5
24D9
330
23BE
100
AcDbEntity
  8
0
100
AcDbViewport
 10
261.9830548955184
 20
146.9401355551803
 30
0.0
 40
584.1921936070437
 41
314.1924854736328
 69
     0
 12
261.9830548955184
 22
146.9401355551803
 13
0.0
 23
0.0
 14
10.0
 24
10.0
 15
10.0
 25
10.0
 16
0.0
 26
0.0
 36
1.0
 17
0.0
 27
0.0
 37
0.0
 42
50.0
 43
0.0
 44
0.0
 45
314.1924854736328
 50
0.0
 51
0.0
 72
   100
331
2499
 90
    32800
  1

281
     0
 71
     1
 74
     0
110
0.0
120
0.0
130
0.0
111
1.0
121
0.0
131
0.0
112
0.0
122
1.0
132
0.0
 79
     0
146
0.0
170
     0
  0
INSERT
  5
24E3
330
23BE
100
AcDbEntity
  8
TEXTE
100
AcDbBlockReference
  2
A3ra
 10
5.611244138646384
 20
8.626898060227063
 30
0.0
  0
LINE
  5
253D
330
23BE
100
AcDbEntity
  8
OBJEKT
100
AcDbLine
 10
400.6112441386464
 20
6.541390972050407
 30
0.0
 11
213.4112441386464
 21
6.541390972050407
 31
0.0
  0
INSERT
  5
253E
330
23BE
100
AcDbEntity
  8
OBJEKT
100
AcDbBlockReference
 66
     1
  2
schriftfeld-31.01.02
 10
400.6112441386464
 20
6.541390972050407
 30
0.0
  0
ATTRIB
  5
253F
330
253E
100
AcDbEntity
  8
TEXTE
 62
     6
370
    35
100
AcDbText
 10
357.5072183389878
 20
33.95986255447531
 30
0.0
 40
3.5
  1
.
  7
ISOCP
 72
     1
 11
358.0322183389878
 21
33.95986255447531
 31
0.0
100
AcDbAttribute
  2
BENENNUNG
 70
     0
  0
ATTRIB
  5
2540
330
253E
100
AcDbEntity
  8
TEXTE
100
AcDbText
 10
318.7233108647116
 20
23.0667620566918
 30
0.0
 40
3.5
  1
4
  7
ISOCP
100
AcDbAttribute
  2
A?
 70
     0
  0
ATTRIB
  5
2541
330
253E
100
AcDbEntity
  8
TEXTE
 62
     6
370
    35
100
AcDbText
 10
355.9173261761257
 20
23.15451109196192
 30
0.0
 40
3.5
  1
.
  7
ISOCP
 72
     1
 11
356.4423261761256
 21
23.15451109196192
 31
0.0
100
AcDbAttribute
  2
ZNR
 70
     0
  0
ATTRIB
  5
2542
330
253E
100
AcDbEntity
  8
TEXTE
100
AcDbText
 10
314.8990004982833
 20
15.67819926835079
 30
0.0
 40
3.5
  1
                     
 41
1.943588291164696
  7
ISOCP
 72
     5
 11
400.6112441386464
 21
15.67819926835079
 31
0.0
100
AcDbAttribute
  2
KL.NR.
 70
     0
  0
ATTRIB
  5
2543
330
253E
100
AcDbEntity
  8
TEXTE
100
AcDbText
 10
270.5687277876589
 20
24.61006730338613
 30
0.0
 40
2.5
  1
.
  7
ISOCP
100
AcDbAttribute
  2
CADDAT
 70
     0
  0
ATTRIB
  5
2544
330
253E
100
AcDbEntity
  8
TEXTE
100
AcDbText
 10
286.1192454020744
 20
24.61006730338613
 30
0.0
 40
2.5
  1
.
  7
ISOCP
100
AcDbAttribute
  2
BEARBNAME
 70
     0
  0
ATTRIB
  5
2545
330
253E
100
AcDbEntity
  8
TEXTE
100
AcDbText
 10
270.5687277876589
 20
37.36006730338613
 30
0.0
 40
2.5
  1
.
  7
ISOCP
100
AcDbAttribute
  2
BEARBDAT
 70
     0
  0
ATTRIB
  5
2546
330
253E
100
AcDbEntity
  8
TEXTE
100
AcDbText
 10
286.1192454020744
 20
37.36006730338613
 30
0.0
 40
2.5
  1
.
  7
ISOCP
100
AcDbAttribute
  2
BEARBNAME
 70
     0
  0
ATTRIB
  5
2547
330
253E
100
AcDbEntity
  8
TEXTE
100
AcDbText
 10
270.5687277876589
 20
33.11006730338613
 30
0.0
 40
2.5
  1
 
  7
ISOCP
100
AcDbAttribute
  2
GEPR-DAT
 70
     0
  0
ATTRIB
  5
2548
330
253E
100
AcDbEntity
  8
TEXTE
100
AcDbText
 10
286.1192454020744
 20
33.11006730338613
 30
0.0
 40
2.5
  1

  7
ISOCP
100
AcDbAttribute
  2
GEPÜNAME
 70
     0
  0
ATTRIB
  5
2549
330
253E
100
AcDbEntity
  8
TEXTE
100
AcDbText
 10
270.5687277876589
 20
28.86006730338613
 30
0.0
 40
2.5
  1

  7
ISOCP
100
AcDbAttribute
  2
NORMBDAT
 70
     0
  0
ATTRIB
  5
254A
330
253E
100
AcDbEntity
  8
TEXTE
100
AcDbText
 10
286.1192454020744
 20
28.86006730338613
 30
0.0
 40
2.5
  1
 
  7
ISOCP
100
AcDbAttribute
  2
BEARBNAME
 70
     0
  0
ATTRIB
  5
254B
330
253E
100
AcDbEntity
  8
TEXTE
100
AcDbText
 10
293.7757967322324
 20
71.36006730338607
 30
0.0
 40
2.5
  1
.
  7
ISOCP
 72
     1
 11
294.1507967322325
 21
71.36006730338607
 31
0.0
100
AcDbAttribute
  2
MAßSTAB1
 70
     0
  0
ATTRIB
  5
254C
330
253E
100
AcDbEntity
  8
TEXTE
100
AcDbText
 10
293.7412323846083
 20
67.11006730338607
 30
0.0
 40
2.5
  1
 
  7
ISOCP
 72
     1
 11
294.4912323846083
 21
67.11006730338607
 31
0.0
100
AcDbAttribute
  2
MAßSTAB2
 70
     0
  0
ATTRIB
  5
254D
330
253E
100
AcDbEntity
  8
TEXTE
100
AcDbText
 10
293.7412323846083
 20
62.86006730338607
 30
0.0
 40
2.5
  1
 
  7
ISOCP
 72
     1
 11
294.4912323846083
 21
62.86006730338607
 31
0.0
100
AcDbAttribute
  2
MAßSTAB3
 70
     0
  0
ATTRIB
  5
254E
330
253E
100
AcDbEntity
  8
TEXTE
100
AcDbText
 10
270.568727787659
 20
7.610067303386131
 30
0.0
 40
2.5
  1
.
  7
ISOCP
100
AcDbAttribute
  2
URSPRUNG
 70
     0
  0
ATTRIB
  5
254F
330
253E
100
AcDbEntity
  8
TEXTE
100
AcDbText
 10
314.768727787659
 20
7.610067303386131
 30
0.0
 40
2.5
  1
.
  7
ISOCP
100
AcDbAttribute
  2
ERSETZTFÜR
 70
     0
  0
ATTRIB
  5
2550
330
253E
100
AcDbEntity
  8
TEXTE
100
AcDbText
 10
363.468727787659
 20
7.610067303386074
 30
0.0
 40
2.5
  1
.
  7
ISOCP
100
AcDbAttribute
  2
ERSTELLTFÜR
 70
     0
  0
ATTRIB
  5
2551
330
253E
100
AcDbEntity
  8
TEXTE
100
AcDbText
 10
214.5687277876589
 20
11.86006730338613
 30
0.0
 40
2.5
  1
 
  7
ISOCP
100
AcDbAttribute
  2
ZUST.
 70
     0
  0
ATTRIB
  5
2552
330
253E
100
AcDbEntity
  8
TEXTE
100
AcDbText
 10
222.7130223389667
 20
11.86006730338613
 30
0.0
 40
2.5
  1
 
  7
ISOCP
100
AcDbAttribute
  2
ÄND.
 70
     0
  0
ATTRIB
  5
2553
330
253E
100
AcDbEntity
  8
TEXTE
100
AcDbText
 10
235.8684483309119
 20
11.76907098052595
 30
0.0
 40
2.5
  1
 
 41
3.916666666666666
  7
ISOCP
 72
     5
 11
241.7434483309119
 21
11.76907098052595
 31
0.0
100
AcDbAttribute
  2
DAT
 70
     0
  0
ATTRIB
  5
2554
330
253E
100
AcDbEntity
  8
TEXTE
100
AcDbText
 10
248.4501424002896
 20
11.76907098052595
 30
0.0
 40
2.5
  1
 
  7
ISOCP
100
AcDbAttribute
  2
NAME
 70
     0
  0
ATTRIB
  5
2555
330
253E
100
AcDbEntity
  8
TEXTE
100
AcDbText
 10
214.5687277876589
 20
16.11006730338613
 30
0.0
 40
2.5
  1
 
  7
ISOCP
100
AcDbAttribute
  2
ZUST.
 70
     0
  0
ATTRIB
  5
2556
330
253E
100
AcDbEntity
  8
TEXTE
100
AcDbText
 10
222.7130223389667
 20
16.11006730338613
 30
0.0
 40
2.5
  1
 
  7
ISOCP
100
AcDbAttribute
  2
ÄND.
 70
     0
  0
ATTRIB
  5
2557
330
253E
100
AcDbEntity
  8
TEXTE
100
AcDbText
 10
235.8684483309119
 20
16.01907098052595
 30
0.0
 40
2.5
  1
 
 41
3.916666666666666
  7
ISOCP
 72
     5
 11
241.7434483309119
 21
16.01907098052595
 31
0.0
100
AcDbAttribute
  2
DAT
 70
     0
  0
ATTRIB
  5
2558
330
253E
100
AcDbEntity
  8
TEXTE
100
AcDbText
 10
248.4501424002896
 20
16.01907098052595
 30
0.0
 40
2.5
  1
 
  7
ISOCP
100
AcDbAttribute
  2
NAME
 70
     0
  0
ATTRIB
  5
2559
330
253E
100
AcDbEntity
  8
TEXTE
100
AcDbText
 10
214.5687277876589
 20
20.36006730338613
 30
0.0
 40
2.5
  1
 
  7
ISOCP
100
AcDbAttribute
  2
ZUST.
 70
     0
  0
ATTRIB
  5
255A
330
253E
100
AcDbEntity
  8
TEXTE
100
AcDbText
 10
222.7130223389667
 20
20.36006730338613
 30
0.0
 40
2.5
  1
 
  7
ISOCP
100
AcDbAttribute
  2
ÄND.
 70
     0
  0
ATTRIB
  5
255B
330
253E
100
AcDbEntity
  8
TEXTE
100
AcDbText
 10
235.8684483309119
 20
20.26907098052595
 30
0.0
 40
2.5
  1
 
 41
3.916666666666666
  7
ISOCP
 72
     5
 11
241.7434483309119
 21
20.26907098052595
 31
0.0
100
AcDbAttribute
  2
DAT
 70
     0
  0
ATTRIB
  5
255C
330
253E
100
AcDbEntity
  8
TEXTE
100
AcDbText
 10
248.4501424002896
 20
20.26907098052595
 30
0.0
 40
2.5
  1
 
  7
ISOCP
100
AcDbAttribute
  2
NAME
 70
     0
  0
ATTRIB
  5
255D
330
253E
100
AcDbEntity
  8
TEXTE
100
AcDbText
 10
214.5687277876589
 20
24.61006730338613
 30
0.0
 40
2.5
  1
 
  7
ISOCP
100
AcDbAttribute
  2
ZUST.
 70
     0
  0
ATTRIB
  5
255E
330
253E
100
AcDbEntity
  8
TEXTE
100
AcDbText
 10
222.7130223389667
 20
24.61006730338613
 30
0.0
 40
2.5
  1
 
  7
ISOCP
100
AcDbAttribute
  2
ÄND.
 70
     0
  0
ATTRIB
  5
255F
330
253E
100
AcDbEntity
  8
TEXTE
100
AcDbText
 10
235.8684483309119
 20
24.51907098052596
 30
0.0
 40
2.5
  1
 
 41
3.916666666666666
  7
ISOCP
 72
     5
 11
241.7434483309119
 21
24.51907098052596
 31
0.0
100
AcDbAttribute
  2
DAT
 70
     0
  0
ATTRIB
  5
2560
330
253E
100
AcDbEntity
  8
TEXTE
100
AcDbText
 10
248.4501424002896
 20
24.51907098052596
 30
0.0
 40
2.5
  1

  7
ISOCP
100
AcDbAttribute
  2
NAME
 70
     0
  0
ATTRIB
  5
2561
330
253E
100
AcDbEntity
  8
TEXTE
100
AcDbText
 10
214.5687277876589
 20
28.86006730338613
 30
0.0
 40
2.5
  1

  7
ISOCP
100
AcDbAttribute
  2
ZUST.
 70
     0
  0
ATTRIB
  5
2562
330
253E
100
AcDbEntity
  8
TEXTE
100
AcDbText
 10
222.7130223389667
 20
28.86006730338613
 30
0.0
 40
2.5
  1

  7
ISOCP
100
AcDbAttribute
  2
ÄND.
 70
     0
  0
ATTRIB
  5
2563
330
253E
100
AcDbEntity
  8
TEXTE
100
AcDbText
 10
235.8684483309119
 20
28.76907098052596
 30
0.0
 40
2.5
  1

  7
ISOCP
 72
     5
 11
241.7434483309119
 21
28.76907098052596
 31
0.0
100
AcDbAttribute
  2
DAT
 70
     0
  0
ATTRIB
  5
2564
330
253E
100
AcDbEntity
  8
TEXTE
100
AcDbText
 10
248.4501424002896
 20
28.76907098052596
 30
0.0
 40
2.5
  1

  7
ISOCP
100
AcDbAttribute
  2
NAME
 70
     0
  0
ATTRIB
  5
2565
330
253E
100
AcDbEntity
  8
TEXTE
100
AcDbText
 10
214.5687277876589
 20
33.11006730338613
 30
0.0
 40
2.5
  1

  7
ISOCP
100
AcDbAttribute
  2
ZUST.
 70
     0
  0
ATTRIB
  5
2566
330
253E
100
AcDbEntity
  8
TEXTE
100
AcDbText
 10
222.7130223389667
 20
33.11006730338613
 30
0.0
 40
2.5
  1

  7
ISOCP
100
AcDbAttribute
  2
ÄND.
 70
     0
  0
ATTRIB
  5
2567
330
253E
100
AcDbEntity
  8
TEXTE
100
AcDbText
 10
235.8684483309119
 20
33.01907098052595
 30
0.0
 40
2.5
  1

  7
ISOCP
 72
     5
 11
241.7434483309119
 21
33.01907098052595
 31
0.0
100
AcDbAttribute
  2
DAT
 70
     0
  0
ATTRIB
  5
2568
330
253E
100
AcDbEntity
  8
TEXTE
100
AcDbText
 10
248.4501424002896
 20
33.01907098052595
 30
0.0
 40
2.5
  1

  7
ISOCP
100
AcDbAttribute
  2
NAME
 70
     0
  0
ATTRIB
  5
2569
330
253E
100
AcDbEntity
  8
TEXTE
100
AcDbText
 10
214.5687277876589
 20
37.36006730338613
 30
0.0
 40
2.5
  1

  7
ISOCP
100
AcDbAttribute
  2
ZUST.
 70
     0
  0
ATTRIB
  5
256A
330
253E
100
AcDbEntity
  8
TEXTE
100
AcDbText
 10
222.7130223389667
 20
37.36006730338613
 30
0.0
 40
2.5
  1

  7
ISOCP
100
AcDbAttribute
  2
ÄND.
 70
     0
  0
ATTRIB
  5
256B
330
253E
100
AcDbEntity
  8
TEXTE
100
AcDbText
 10
235.8684483309119
 20
37.26907098052596
 30
0.0
 40
2.5
  1

  7
ISOCP
 72
     5
 11
241.7434483309119
 21
37.26907098052596
 31
0.0
100
AcDbAttribute
  2
DAT
 70
     0
  0
ATTRIB
  5
256C
330
253E
100
AcDbEntity
  8
TEXTE
100
AcDbText
 10
248.4501424002896
 20
37.26907098052596
 30
0.0
 40
2.5
  1

  7
ISOCP
100
AcDbAttribute
  2
NAME
 70
     0
  0
ATTRIB
  5
256D
330
253E
100
AcDbEntity
  8
TEXTE
100
AcDbText
 10
214.5687277876589
 20
41.61006730338613
 30
0.0
 40
2.5
  1

  7
ISOCP
100
AcDbAttribute
  2
ZUST.
 70
     0
  0
ATTRIB
  5
256E
330
253E
100
AcDbEntity
  8
TEXTE
100
AcDbText
 10
222.7130223389667
 20
41.61006730338613
 30
0.0
 40
2.5
  1

  7
ISOCP
100
AcDbAttribute
  2
ÄND.
 70
     0
  0
ATTRIB
  5
256F
330
253E
100
AcDbEntity
  8
TEXTE
100
AcDbText
 10
235.868448330912
 20
41.51907098052595
 30
0.0
 40
2.5
  1

  7
ISOCP
 72
     5
 11
241.743448330912
 21
41.51907098052595
 31
0.0
100
AcDbAttribute
  2
DAT
 70
     0
  0
ATTRIB
  5
2570
330
253E
100
AcDbEntity
  8
TEXTE
100
AcDbText
 10
248.4501424002896
 20
41.51907098052595
 30
0.0
 40
2.5
  1

  7
ISOCP
100
AcDbAttribute
  2
NAME
 70
     0
  0
ATTRIB
  5
2571
330
253E
100
AcDbEntity
  8
TEXTE
100
AcDbText
 10
214.5687277876589
 20
45.86006730338612
 30
0.0
 40
2.5
  1

  7
ISOCP
100
AcDbAttribute
  2
ZUST.
 70
     0
  0
ATTRIB
  5
2572
330
253E
100
AcDbEntity
  8
TEXTE
100
AcDbText
 10
222.7130223389667
 20
45.86006730338612
 30
0.0
 40
2.5
  1

  7
ISOCP
100
AcDbAttribute
  2
ÄND.
 70
     0
  0
ATTRIB
  5
2573
330
253E
100
AcDbEntity
  8
TEXTE
100
AcDbText
 10
235.868448330912
 20
45.76907098052595
 30
0.0
 40
2.5
  1

  7
ISOCP
 72
     5
 11
241.743448330912
 21
45.76907098052595
 31
0.0
100
AcDbAttribute
  2
DAT
 70
     0
  0
ATTRIB
  5
2574
330
253E
100
AcDbEntity
  8
TEXTE
100
AcDbText
 10
248.4501424002896
 20
45.76907098052595
 30
0.0
 40
2.5
  1

  7
ISOCP
100
AcDbAttribute
  2
NAME
 70
     0
  0
ATTRIB
  5
2575
330
253E
100
AcDbEntity
  8
TEXTE
100
AcDbText
 10
214.5687277876589
 20
50.11006730338613
 30
0.0
 40
2.5
  1

  7
ISOCP
100
AcDbAttribute
  2
ZUST.
 70
     0
  0
ATTRIB
  5
2576
330
253E
100
AcDbEntity
  8
TEXTE
100
AcDbText
 10
222.7130223389667
 20
50.11006730338613
 30
0.0
 40
2.5
  1

  7
ISOCP
100
AcDbAttribute
  2
ÄND.
 70
     0
  0
ATTRIB
  5
2577
330
253E
100
AcDbEntity
  8
TEXTE
100
AcDbText
 10
235.868448330912
 20
50.01907098052595
 30
0.0
 40
2.5
  1

  7
ISOCP
 72
     5
 11
241.743448330912
 21
50.01907098052595
 31
0.0
100
AcDbAttribute
  2
DAT
 70
     0
  0
ATTRIB
  5
2578
330
253E
100
AcDbEntity
  8
TEXTE
100
AcDbText
 10
248.4501424002896
 20
50.01907098052595
 30
0.0
 40
2.5
  1

  7
ISOCP
100
AcDbAttribute
  2
NAME
 70
     0
  0
ATTRIB
  5
2579
330
253E
100
AcDbEntity
  8
TEXTE
100
AcDbText
 10
214.5687277876589
 20
54.36006730338613
 30
0.0
 40
2.5
  1

  7
ISOCP
100
AcDbAttribute
  2
ZUST.
 70
     0
  0
ATTRIB
  5
257A
330
253E
100
AcDbEntity
  8
TEXTE
100
AcDbText
 10
222.7130223389667
 20
54.36006730338613
 30
0.0
 40
2.5
  1

  7
ISOCP
100
AcDbAttribute
  2
ÄND.
 70
     0
  0
ATTRIB
  5
257B
330
253E
100
AcDbEntity
  8
TEXTE
100
AcDbText
 10
235.8684483309119
 20
54.26907098052595
 30
0.0
 40
2.5
  1

  7
ISOCP
 72
     5
 11
241.7434483309119
 21
54.26907098052595
 31
0.0
100
AcDbAttribute
  2
DAT
 70
     0
  0
ATTRIB
  5
257C
330
253E
100
AcDbEntity
  8
TEXTE
100
AcDbText
 10
248.4501424002896
 20
54.26907098052595
 30
0.0
 40
2.5
  1

  7
ISOCP
100
AcDbAttribute
  2
NAME
 70
     0
  0
ATTRIB
  5
257D
330
253E
100
AcDbEntity
  8
TEXTE
100
AcDbText
 10
214.5687277876589
 20
58.61006730338607
 30
0.0
 40
2.5
  1

  7
ISOCP
100
AcDbAttribute
  2
ZUST.
 70
     0
  0
ATTRIB
  5
257E
330
253E
100
AcDbEntity
  8
TEXTE
100
AcDbText
 10
222.7130223389667
 20
58.61006730338607
 30
0.0
 40
2.5
  1

  7
ISOCP
100
AcDbAttribute
  2
ÄND.
 70
     0
  0
ATTRIB
  5
257F
330
253E
100
AcDbEntity
  8
TEXTE
100
AcDbText
 10
235.8684483309119
 20
58.51907098052596
 30
0.0
 40
2.5
  1

  7
ISOCP
 72
     5
 11
241.7434483309119
 21
58.51907098052596
 31
0.0
100
AcDbAttribute
  2
DAT
 70
     0
  0
ATTRIB
  5
2580
330
253E
100
AcDbEntity
  8
TEXTE
100
AcDbText
 10
248.4501424002896
 20
58.51907098052596
 30
0.0
 40
2.5
  1

  7
ISOCP
100
AcDbAttribute
  2
NAME
 70
     0
  0
SEQEND
  5
2581
330
253E
100
AcDbEntity
  8
OBJEKT
  0
INSERT
  5
2582
330
23BE
100
AcDbEntity
  8
TEXTE
100
AcDbBlockReference
 66
     1
  2
Allgemeintoleranzen1
 10
259.0112441386464
 20
44.79139097205046
 30
0.0
  0
ATTRIB
  5
2583
330
2582
100
AcDbEntity
  8
TEXTE
100
AcDbText
 10
268.7509900065496
 20
49.69733562007803
 30
0.0
 40
2.5
  1
ISO 2768-xxx
  7
ISOCP
100
AcDbAttribute
  2
ALGEMEINT.
 70
     0
  0
SEQEND
  5
2584
330
2582
100
AcDbEntity
  8
TEXTE
  0
INSERT
  5
2585
330
23BE
100
AcDbEntity
  8
TEXTE
100
AcDbBlockReference
  2
oberfläche_nach_1302
 10
303.2112441386464
 20
61.79139097205041
 30
0.0
  0
LWPOLYLINE
  5
2760
102
{ACAD_REACTORS
330
2762
102
}
330
23BE
100
AcDbEntity
  8
Ansichtsfenster
100
AcDbPolyline
 90
        6
 70
     1
 43
0.0
 10
12.61124413864638
 20
281.5413909720504
 10
400.6112441386464
 20
281.5413909720504
 10
400.6112441386464
 20
76.79139097205041
 10
213.4112441386464
 20
76.79139097205041
 10
213.4112441386464
 20
4.541390972050464
 10
12.61124413864638
 20
4.541390972050407
  0
VIEWPORT
  5
2762
330
23BE
100
AcDbEntity
  8
Ansichtsfenster
100
AcDbViewport
 10
206.6112441386464
 20
143.0413909720504
 30
0.0
 40
388.0
 41
277.0
 69
     0
 12
84.31363142743599
 22
-46.92652892886918
 13
0.0
 23
0.0
 14
10.0
 24
10.0
 15
10.0
 25
10.0
 16
0.0
 26
0.0
 36
1.0
 17
0.0
 27
0.0
 37
0.0
 42
50.0
 43
0.0
 44
0.0
 45
277.0000008012112
 50
0.0
 51
0.0
 72
   100
 90
    98304
340
2760
  1

281
     0
 71
     1
 74
     0
110
0.0
120
0.0
130
0.0
111
1.0
121
0.0
131
0.0
112
0.0
122
1.0
132
0.0
 79
     0
146
0.0
170
     0
  0
INSERT
  5
290E
330
23BE
100
AcDbEntity
  8
OBJEKT
100
AcDbBlockReference
 66
     1
  2
Werkstückkanten
 10
303.2112441386464
 20
44.79139097205041
 30
0.0
  0
ATTRIB
  5
290F
330
290E
100
AcDbEntity
  8
SCHRAFUR
100
AcDbText
 10
332.4816558896873
 20
51.78603237908413
 30
0.0
 40
2.0
  1
+1
  7
ISOCP
100
AcDbAttribute
  2
+1
 70
     0
  0
ATTRIB
  5
2910
330
290E
100
AcDbEntity
  8
SCHRAFUR
100
AcDbText
 10
332.4816558896873
 20
55.11103861847636
 30
0.0
 40
2.0
  1
+0,3
  7
ISOCP
100
AcDbAttribute
  2
+0,3
 70
     0
  0
ATTRIB
  5
2911
330
290E
100
AcDbEntity
  8
SCHRAFUR
100
AcDbText
 10
312.9980083103733
 20
55.11103861847633
 30
0.0
 40
2.0
  1
-0,3
  7
ISOCP
100
AcDbAttribute
  2
-0,3
 70
     0
  0
ATTRIB
  5
2912
330
290E
100
AcDbEntity
  8
SCHRAFUR
100
AcDbText
 10
312.9980083103733
 20
51.78603237908411
 30
0.0
 40
2.0
  1
-1
  7
ISOCP
100
AcDbAttribute
  2
-1
 70
     0
  0
SEQEND
  5
2913
330
290E
100
AcDbEntity
  8
OBJEKT
  0
ENDBLK
  5
23C1
330
23BE
100
AcDbEntity
  8
0
100
AcDbBlockEnd
  0
BLOCK
  5
23BC
330
23BA
100
AcDbEntity
  8
0
100
AcDbBlockBegin
  2
*Paper_Space9
 70
     0
 10
0.0
 20
0.0
 30
0.0
  3
*Paper_Space9
  1

  0
VIEWPORT
  5
23C5
330
23BA
100
AcDbEntity
  8
0
100
AcDbViewport
 10
156.1831739712982
 20
143.412635573135
 30
0.0
 40
584.1921936070437
 41
314.1924854736328
 69
     0
 12
156.1831739712982
 22
143.412635573135
 13
0.0
 23
0.0
 14
10.0
 24
10.0
 15
10.0
 25
10.0
 16
0.0
 26
0.0
 36
1.0
 17
0.0
 27
0.0
 37
0.0
 42
50.0
 43
0.0
 44
0.0
 45
314.1924854736328
 50
0.0
 51
0.0
 72
   100
331
2499
 90
    32800
  1

281
     0
 71
     1
 74
     0
110
0.0
120
0.0
130
0.0
111
1.0
121
0.0
131
0.0
112
0.0
122
1.0
132
0.0
 79
     0
146
0.0
170
     0
  0
INSERT
  5
244F
330
23BA
100
AcDbEntity
  8
OBJEKT
100
AcDbBlockReference
 66
     1
  2
schriftfeld-31.01.02
 10
190.6638876212385
 20
4.828902423817311
 30
0.0
  0
ATTRIB
  5
2450
330
244F
100
AcDbEntity
  8
TEXTE
 62
     6
370
    35
100
AcDbText
 10
147.5598618215799
 20
32.24737400624221
 30
0.0
 40
3.5
  1
.
  7
ISOCP
 72
     1
 11
148.0848618215799
 21
32.24737400624221
 31
0.0
100
AcDbAttribute
  2
BENENNUNG
 70
     0
  0
ATTRIB
  5
2451
330
244F
100
AcDbEntity
  8
TEXTE
100
AcDbText
 10
108.7759543473037
 20
21.3542735084587
 30
0.0
 40
3.5
  1
4
  7
ISOCP
100
AcDbAttribute
  2
A?
 70
     0
  0
ATTRIB
  5
2452
330
244F
100
AcDbEntity
  8
TEXTE
 62
     6
370
    35
100
AcDbText
 10
145.9699696587177
 20
21.44202254372883
 30
0.0
 40
3.5
  1
.
  7
ISOCP
 72
     1
 11
146.4949696587177
 21
21.44202254372883
 31
0.0
100
AcDbAttribute
  2
ZNR
 70
     0
  0
ATTRIB
  5
2453
330
244F
100
AcDbEntity
  8
TEXTE
100
AcDbText
 10
104.9516439808753
 20
13.9657107201177
 30
0.0
 40
3.5
  1
                     
 41
1.943588291164696
  7
ISOCP
 72
     5
 11
190.6638876212385
 21
13.9657107201177
 31
0.0
100
AcDbAttribute
  2
KL.NR.
 70
     0
  0
ATTRIB
  5
2454
330
244F
100
AcDbEntity
  8
TEXTE
100
AcDbText
 10
60.62137127025096
 20
22.89757875515304
 30
0.0
 40
2.5
  1
.
  7
ISOCP
100
AcDbAttribute
  2
CADDAT
 70
     0
  0
ATTRIB
  5
2455
330
244F
100
AcDbEntity
  8
TEXTE
100
AcDbText
 10
76.17188888466649
 20
22.89757875515304
 30
0.0
 40
2.5
  1
.
  7
ISOCP
100
AcDbAttribute
  2
BEARBNAME
 70
     0
  0
ATTRIB
  5
2456
330
244F
100
AcDbEntity
  8
TEXTE
100
AcDbText
 10
60.62137127025102
 20
35.64757875515303
 30
0.0
 40
2.5
  1
.
  7
ISOCP
100
AcDbAttribute
  2
BEARBDAT
 70
     0
  0
ATTRIB
  5
2457
330
244F
100
AcDbEntity
  8
TEXTE
100
AcDbText
 10
76.17188888466649
 20
35.64757875515303
 30
0.0
 40
2.5
  1
.
  7
ISOCP
100
AcDbAttribute
  2
BEARBNAME
 70
     0
  0
ATTRIB
  5
2458
330
244F
100
AcDbEntity
  8
TEXTE
100
AcDbText
 10
60.62137127025102
 20
31.39757875515304
 30
0.0
 40
2.5
  1
 
  7
ISOCP
100
AcDbAttribute
  2
GEPR-DAT
 70
     0
  0
ATTRIB
  5
2459
330
244F
100
AcDbEntity
  8
TEXTE
100
AcDbText
 10
76.17188888466649
 20
31.39757875515304
 30
0.0
 40
2.5
  1

  7
ISOCP
100
AcDbAttribute
  2
GEPÜNAME
 70
     0
  0
ATTRIB
  5
245A
330
244F
100
AcDbEntity
  8
TEXTE
100
AcDbText
 10
60.62137127025096
 20
27.14757875515303
 30
0.0
 40
2.5
  1

  7
ISOCP
100
AcDbAttribute
  2
NORMBDAT
 70
     0
  0
ATTRIB
  5
245B
330
244F
100
AcDbEntity
  8
TEXTE
100
AcDbText
 10
76.17188888466649
 20
27.14757875515303
 30
0.0
 40
2.5
  1
 
  7
ISOCP
100
AcDbAttribute
  2
BEARBNAME
 70
     0
  0
ATTRIB
  5
245C
330
244F
100
AcDbEntity
  8
TEXTE
100
AcDbText
 10
83.82844021482453
 20
69.64757875515298
 30
0.0
 40
2.5
  1
.
  7
ISOCP
 72
     1
 11
84.20344021482453
 21
69.64757875515298
 31
0.0
100
AcDbAttribute
  2
MAßSTAB1
 70
     0
  0
ATTRIB
  5
245D
330
244F
100
AcDbEntity
  8
TEXTE
100
AcDbText
 10
83.79387586720037
 20
65.39757875515298
 30
0.0
 40
2.5
  1
 
  7
ISOCP
 72
     1
 11
84.54387586720036
 21
65.39757875515298
 31
0.0
100
AcDbAttribute
  2
MAßSTAB2
 70
     0
  0
ATTRIB
  5
245E
330
244F
100
AcDbEntity
  8
TEXTE
100
AcDbText
 10
83.79387586720037
 20
61.14757875515298
 30
0.0
 40
2.5
  1
 
  7
ISOCP
 72
     1
 11
84.54387586720036
 21
61.14757875515298
 31
0.0
100
AcDbAttribute
  2
MAßSTAB3
 70
     0
  0
ATTRIB
  5
245F
330
244F
100
AcDbEntity
  8
TEXTE
100
AcDbText
 10
60.62137127025107
 20
5.897578755153034
 30
0.0
 40
2.5
  1
.
  7
ISOCP
100
AcDbAttribute
  2
URSPRUNG
 70
     0
  0
ATTRIB
  5
2460
330
244F
100
AcDbEntity
  8
TEXTE
100
AcDbText
 10
104.821371270251
 20
5.897578755153034
 30
0.0
 40
2.5
  1
.
  7
ISOCP
100
AcDbAttribute
  2
ERSETZTFÜR
 70
     0
  0
ATTRIB
  5
2461
330
244F
100
AcDbEntity
  8
TEXTE
100
AcDbText
 10
153.521371270251
 20
5.897578755152977
 30
0.0
 40
2.5
  1
.
  7
ISOCP
100
AcDbAttribute
  2
ERSTELLTFÜR
 70
     0
  0
ATTRIB
  5
2462
330
244F
100
AcDbEntity
  8
TEXTE
100
AcDbText
 10
4.621371270251017
 20
10.14757875515303
 30
0.0
 40
2.5
  1
 
  7
ISOCP
100
AcDbAttribute
  2
ZUST.
 70
     0
  0
ATTRIB
  5
2463
330
244F
100
AcDbEntity
  8
TEXTE
100
AcDbText
 10
12.76566582155874
 20
10.14757875515303
 30
0.0
 40
2.5
  1
 
  7
ISOCP
100
AcDbAttribute
  2
ÄND.
 70
     0
  0
ATTRIB
  5
2464
330
244F
100
AcDbEntity
  8
TEXTE
100
AcDbText
 10
25.92109181350401
 20
10.05658243229285
 30
0.0
 40
2.5
  1
 
 41
3.916666666666666
  7
ISOCP
 72
     5
 11
31.79609181350401
 21
10.05658243229285
 31
0.0
100
AcDbAttribute
  2
DAT
 70
     0
  0
ATTRIB
  5
2465
330
244F
100
AcDbEntity
  8
TEXTE
100
AcDbText
 10
38.50278588288171
 20
10.05658243229285
 30
0.0
 40
2.5
  1
 
  7
ISOCP
100
AcDbAttribute
  2
NAME
 70
     0
  0
ATTRIB
  5
2466
330
244F
100
AcDbEntity
  8
TEXTE
100
AcDbText
 10
4.621371270251017
 20
14.39757875515303
 30
0.0
 40
2.5
  1
 
  7
ISOCP
100
AcDbAttribute
  2
ZUST.
 70
     0
  0
ATTRIB
  5
2467
330
244F
100
AcDbEntity
  8
TEXTE
100
AcDbText
 10
12.76566582155874
 20
14.39757875515303
 30
0.0
 40
2.5
  1
 
  7
ISOCP
100
AcDbAttribute
  2
ÄND.
 70
     0
  0
ATTRIB
  5
2468
330
244F
100
AcDbEntity
  8
TEXTE
100
AcDbText
 10
25.92109181350401
 20
14.30658243229285
 30
0.0
 40
2.5
  1
 
 41
3.916666666666666
  7
ISOCP
 72
     5
 11
31.79609181350401
 21
14.30658243229285
 31
0.0
100
AcDbAttribute
  2
DAT
 70
     0
  0
ATTRIB
  5
2469
330
244F
100
AcDbEntity
  8
TEXTE
100
AcDbText
 10
38.50278588288171
 20
14.30658243229285
 30
0.0
 40
2.5
  1
 
  7
ISOCP
100
AcDbAttribute
  2
NAME
 70
     0
  0
ATTRIB
  5
246A
330
244F
100
AcDbEntity
  8
TEXTE
100
AcDbText
 10
4.621371270251017
 20
18.64757875515303
 30
0.0
 40
2.5
  1
 
  7
ISOCP
100
AcDbAttribute
  2
ZUST.
 70
     0
  0
ATTRIB
  5
246B
330
244F
100
AcDbEntity
  8
TEXTE
100
AcDbText
 10
12.76566582155874
 20
18.64757875515303
 30
0.0
 40
2.5
  1
 
  7
ISOCP
100
AcDbAttribute
  2
ÄND.
 70
     0
  0
ATTRIB
  5
246C
330
244F
100
AcDbEntity
  8
TEXTE
100
AcDbText
 10
25.92109181350401
 20
18.55658243229285
 30
0.0
 40
2.5
  1
 
 41
3.916666666666666
  7
ISOCP
 72
     5
 11
31.79609181350401
 21
18.55658243229285
 31
0.0
100
AcDbAttribute
  2
DAT
 70
     0
  0
ATTRIB
  5
246D
330
244F
100
AcDbEntity
  8
TEXTE
100
AcDbText
 10
38.50278588288171
 20
18.55658243229285
 30
0.0
 40
2.5
  1
 
  7
ISOCP
100
AcDbAttribute
  2
NAME
 70
     0
  0
ATTRIB
  5
246E
330
244F
100
AcDbEntity
  8
TEXTE
100
AcDbText
 10
4.621371270251017
 20
22.89757875515304
 30
0.0
 40
2.5
  1
 
  7
ISOCP
100
AcDbAttribute
  2
ZUST.
 70
     0
  0
ATTRIB
  5
246F
330
244F
100
AcDbEntity
  8
TEXTE
100
AcDbText
 10
12.76566582155874
 20
22.89757875515304
 30
0.0
 40
2.5
  1
 
  7
ISOCP
100
AcDbAttribute
  2
ÄND.
 70
     0
  0
ATTRIB
  5
2470
330
244F
100
AcDbEntity
  8
TEXTE
100
AcDbText
 10
25.92109181350401
 20
22.80658243229286
 30
0.0
 40
2.5
  1
 
 41
3.916666666666666
  7
ISOCP
 72
     5
 11
31.79609181350401
 21
22.80658243229286
 31
0.0
100
AcDbAttribute
  2
DAT
 70
     0
  0
ATTRIB
  5
2471
330
244F
100
AcDbEntity
  8
TEXTE
100
AcDbText
 10
38.50278588288171
 20
22.80658243229286
 30
0.0
 40
2.5
  1

  7
ISOCP
100
AcDbAttribute
  2
NAME
 70
     0
  0
ATTRIB
  5
2472
330
244F
100
AcDbEntity
  8
TEXTE
100
AcDbText
 10
4.621371270251017
 20
27.14757875515303
 30
0.0
 40
2.5
  1

  7
ISOCP
100
AcDbAttribute
  2
ZUST.
 70
     0
  0
ATTRIB
  5
2473
330
244F
100
AcDbEntity
  8
TEXTE
100
AcDbText
 10
12.76566582155874
 20
27.14757875515303
 30
0.0
 40
2.5
  1

  7
ISOCP
100
AcDbAttribute
  2
ÄND.
 70
     0
  0
ATTRIB
  5
2474
330
244F
100
AcDbEntity
  8
TEXTE
100
AcDbText
 10
25.92109181350401
 20
27.05658243229286
 30
0.0
 40
2.5
  1

  7
ISOCP
 72
     5
 11
31.79609181350401
 21
27.05658243229286
 31
0.0
100
AcDbAttribute
  2
DAT
 70
     0
  0
ATTRIB
  5
2475
330
244F
100
AcDbEntity
  8
TEXTE
100
AcDbText
 10
38.50278588288171
 20
27.05658243229286
 30
0.0
 40
2.5
  1

  7
ISOCP
100
AcDbAttribute
  2
NAME
 70
     0
  0
ATTRIB
  5
2476
330
244F
100
AcDbEntity
  8
TEXTE
100
AcDbText
 10
4.621371270251017
 20
31.39757875515304
 30
0.0
 40
2.5
  1

  7
ISOCP
100
AcDbAttribute
  2
ZUST.
 70
     0
  0
ATTRIB
  5
2477
330
244F
100
AcDbEntity
  8
TEXTE
100
AcDbText
 10
12.76566582155874
 20
31.39757875515304
 30
0.0
 40
2.5
  1

  7
ISOCP
100
AcDbAttribute
  2
ÄND.
 70
     0
  0
ATTRIB
  5
2478
330
244F
100
AcDbEntity
  8
TEXTE
100
AcDbText
 10
25.92109181350401
 20
31.30658243229286
 30
0.0
 40
2.5
  1

  7
ISOCP
 72
     5
 11
31.79609181350401
 21
31.30658243229286
 31
0.0
100
AcDbAttribute
  2
DAT
 70
     0
  0
ATTRIB
  5
2479
330
244F
100
AcDbEntity
  8
TEXTE
100
AcDbText
 10
38.50278588288171
 20
31.30658243229286
 30
0.0
 40
2.5
  1

  7
ISOCP
100
AcDbAttribute
  2
NAME
 70
     0
  0
ATTRIB
  5
247A
330
244F
100
AcDbEntity
  8
TEXTE
100
AcDbText
 10
4.621371270251017
 20
35.64757875515303
 30
0.0
 40
2.5
  1

  7
ISOCP
100
AcDbAttribute
  2
ZUST.
 70
     0
  0
ATTRIB
  5
247B
330
244F
100
AcDbEntity
  8
TEXTE
100
AcDbText
 10
12.76566582155874
 20
35.64757875515303
 30
0.0
 40
2.5
  1

  7
ISOCP
100
AcDbAttribute
  2
ÄND.
 70
     0
  0
ATTRIB
  5
247C
330
244F
100
AcDbEntity
  8
TEXTE
100
AcDbText
 10
25.92109181350401
 20
35.55658243229286
 30
0.0
 40
2.5
  1

  7
ISOCP
 72
     5
 11
31.79609181350401
 21
35.55658243229286
 31
0.0
100
AcDbAttribute
  2
DAT
 70
     0
  0
ATTRIB
  5
247D
330
244F
100
AcDbEntity
  8
TEXTE
100
AcDbText
 10
38.50278588288171
 20
35.55658243229286
 30
0.0
 40
2.5
  1

  7
ISOCP
100
AcDbAttribute
  2
NAME
 70
     0
  0
ATTRIB
  5
247E
330
244F
100
AcDbEntity
  8
TEXTE
100
AcDbText
 10
4.621371270251017
 20
39.89757875515304
 30
0.0
 40
2.5
  1

  7
ISOCP
100
AcDbAttribute
  2
ZUST.
 70
     0
  0
ATTRIB
  5
247F
330
244F
100
AcDbEntity
  8
TEXTE
100
AcDbText
 10
12.76566582155874
 20
39.89757875515304
 30
0.0
 40
2.5
  1

  7
ISOCP
100
AcDbAttribute
  2
ÄND.
 70
     0
  0
ATTRIB
  5
2480
330
244F
100
AcDbEntity
  8
TEXTE
100
AcDbText
 10
25.92109181350406
 20
39.80658243229285
 30
0.0
 40
2.5
  1

  7
ISOCP
 72
     5
 11
31.79609181350406
 21
39.80658243229285
 31
0.0
100
AcDbAttribute
  2
DAT
 70
     0
  0
ATTRIB
  5
2481
330
244F
100
AcDbEntity
  8
TEXTE
100
AcDbText
 10
38.50278588288171
 20
39.80658243229285
 30
0.0
 40
2.5
  1

  7
ISOCP
100
AcDbAttribute
  2
NAME
 70
     0
  0
ATTRIB
  5
2482
330
244F
100
AcDbEntity
  8
TEXTE
100
AcDbText
 10
4.621371270251017
 20
44.14757875515303
 30
0.0
 40
2.5
  1

  7
ISOCP
100
AcDbAttribute
  2
ZUST.
 70
     0
  0
ATTRIB
  5
2483
330
244F
100
AcDbEntity
  8
TEXTE
100
AcDbText
 10
12.76566582155874
 20
44.14757875515303
 30
0.0
 40
2.5
  1

  7
ISOCP
100
AcDbAttribute
  2
ÄND.
 70
     0
  0
ATTRIB
  5
2484
330
244F
100
AcDbEntity
  8
TEXTE
100
AcDbText
 10
25.92109181350406
 20
44.05658243229285
 30
0.0
 40
2.5
  1

  7
ISOCP
 72
     5
 11
31.79609181350406
 21
44.05658243229285
 31
0.0
100
AcDbAttribute
  2
DAT
 70
     0
  0
ATTRIB
  5
2485
330
244F
100
AcDbEntity
  8
TEXTE
100
AcDbText
 10
38.50278588288171
 20
44.05658243229285
 30
0.0
 40
2.5
  1

  7
ISOCP
100
AcDbAttribute
  2
NAME
 70
     0
  0
ATTRIB
  5
2486
330
244F
100
AcDbEntity
  8
TEXTE
100
AcDbText
 10
4.621371270251017
 20
48.39757875515303
 30
0.0
 40
2.5
  1

  7
ISOCP
100
AcDbAttribute
  2
ZUST.
 70
     0
  0
ATTRIB
  5
2487
330
244F
100
AcDbEntity
  8
TEXTE
100
AcDbText
 10
12.76566582155874
 20
48.39757875515303
 30
0.0
 40
2.5
  1

  7
ISOCP
100
AcDbAttribute
  2
ÄND.
 70
     0
  0
ATTRIB
  5
2488
330
244F
100
AcDbEntity
  8
TEXTE
100
AcDbText
 10
25.92109181350406
 20
48.30658243229286
 30
0.0
 40
2.5
  1

  7
ISOCP
 72
     5
 11
31.79609181350406
 21
48.30658243229286
 31
0.0
100
AcDbAttribute
  2
DAT
 70
     0
  0
ATTRIB
  5
2489
330
244F
100
AcDbEntity
  8
TEXTE
100
AcDbText
 10
38.50278588288171
 20
48.30658243229286
 30
0.0
 40
2.5
  1

  7
ISOCP
100
AcDbAttribute
  2
NAME
 70
     0
  0
ATTRIB
  5
248A
330
244F
100
AcDbEntity
  8
TEXTE
100
AcDbText
 10
4.621371270251017
 20
52.64757875515304
 30
0.0
 40
2.5
  1

  7
ISOCP
100
AcDbAttribute
  2
ZUST.
 70
     0
  0
ATTRIB
  5
248B
330
244F
100
AcDbEntity
  8
TEXTE
100
AcDbText
 10
12.76566582155874
 20
52.64757875515304
 30
0.0
 40
2.5
  1

  7
ISOCP
100
AcDbAttribute
  2
ÄND.
 70
     0
  0
ATTRIB
  5
248C
330
244F
100
AcDbEntity
  8
TEXTE
100
AcDbText
 10
25.92109181350401
 20
52.55658243229285
 30
0.0
 40
2.5
  1

  7
ISOCP
 72
     5
 11
31.79609181350401
 21
52.55658243229285
 31
0.0
100
AcDbAttribute
  2
DAT
 70
     0
  0
ATTRIB
  5
248D
330
244F
100
AcDbEntity
  8
TEXTE
100
AcDbText
 10
38.50278588288171
 20
52.55658243229285
 30
0.0
 40
2.5
  1

  7
ISOCP
100
AcDbAttribute
  2
NAME
 70
     0
  0
ATTRIB
  5
248E
330
244F
100
AcDbEntity
  8
TEXTE
100
AcDbText
 10
4.621371270251017
 20
56.89757875515297
 30
0.0
 40
2.5
  1

  7
ISOCP
100
AcDbAttribute
  2
ZUST.
 70
     0
  0
ATTRIB
  5
248F
330
244F
100
AcDbEntity
  8
TEXTE
100
AcDbText
 10
12.76566582155874
 20
56.89757875515297
 30
0.0
 40
2.5
  1

  7
ISOCP
100
AcDbAttribute
  2
ÄND.
 70
     0
  0
ATTRIB
  5
2490
330
244F
100
AcDbEntity
  8
TEXTE
100
AcDbText
 10
25.92109181350401
 20
56.80658243229285
 30
0.0
 40
2.5
  1

  7
ISOCP
 72
     5
 11
31.79609181350401
 21
56.80658243229285
 31
0.0
100
AcDbAttribute
  2
DAT
 70
     0
  0
ATTRIB
  5
2491
330
244F
100
AcDbEntity
  8
TEXTE
100
AcDbText
 10
38.50278588288171
 20
56.80658243229285
 30
0.0
 40
2.5
  1

  7
ISOCP
100
AcDbAttribute
  2
NAME
 70
     0
  0
SEQEND
  5
2492
330
244F
100
AcDbEntity
  8
OBJEKT
  0
LINE
  5
2493
330
23BA
100
AcDbEntity
  8
OBJEKT
100
AcDbLine
 10
190.6638876212385
 20
277.8289024238173
 30
0.0
 11
3.463887621238484
 21
277.8289024238173
 31
0.0
  0
LINE
  5
2494
330
23BA
100
AcDbEntity
  8
OBJEKT
100
AcDbLine
 10
190.6638876212385
 20
4.828902423817311
 30
0.0
 11
3.463887621238484
 21
4.828902423817311
 31
0.0
  0
VIEWPORT
  5
2495
330
23BA
100
AcDbEntity
  8
OBJEKT
100
AcDbViewport
 10
97.06388762123848
 20
141.3289024238173
 30
0.0
 40
187.2
 41
273.0
 69
     0
 12
6.842520586879573
 22
-58.18048176170073
 13
0.0
 23
0.0
 14
10.0
 24
10.0
 15
10.0
 25
10.0
 16
0.0
 26
0.0
 36
1.0
 17
0.0
 27
0.0
 37
0.0
 42
50.0
 43
0.0
 44
0.0
 45
272.9999999720488
 50
0.0
 51
0.0
 72
   100
 90
   163872
  1

281
     0
 71
     1
 74
     0
110
0.0
120
0.0
130
0.0
111
1.0
121
0.0
131
0.0
112
0.0
122
1.0
132
0.0
 79
     0
146
0.0
170
     0
  0
LINE
  5
2496
330
23BA
100
AcDbEntity
  8
OBJEKT
100
AcDbLine
 10
3.463887621238484
 20
4.828902423817311
 30
0.0
 11
3.463887621238484
 21
277.8289024238173
 31
0.0
  0
LINE
  5
2497
330
23BA
100
AcDbEntity
  8
OBJEKT
100
AcDbLine
 10
190.6638876212385
 20
4.828902423817311
 30
0.0
 11
190.6638876212385
 21
277.8289024238173
 31
0.0
  0
VIEWPORT
  5
249B
330
23BA
100
AcDbEntity
  8
Ansichtsfenster
100
AcDbViewport
 10
99.02509432975504
 20
177.0618970074393
 30
0.0
 40
187.2
 41
200.75
 69
     0
 12
4.039140845244897
 22
-10.42711190579047
 13
0.0
 23
0.0
 14
10.0
 24
10.0
 15
10.0
 25
10.0
 16
0.0
 26
0.0
 36
1.0
 17
0.0
 27
0.0
 37
0.0
 42
50.0
 43
0.0
 44
0.0
 45
200.7500010135625
 50
0.0
 51
0.0
 72
   100
 90
    32800
  1

281
     0
 71
     1
 74
     0
110
0.0
120
0.0
130
0.0
111
1.0
121
0.0
131
0.0
112
0.0
122
1.0
132
0.0
 79
     0
146
0.0
170
     0
  0
INSERT
  5
24AD
330
23BA
100
AcDbEntity
  8
TEXTE
100
AcDbBlockReference
  2
oberfläche_nach_1302
 10
93.26388762123849
 20
60.07890242381731
 30
0.0
  0
INSERT
  5
24B4
330
23BA
100
AcDbEntity
  8
TEXTE
100
AcDbBlockReference
 66
     1
  2
Allgemeintoleranzen1
 10
49.06388762123845
 20
43.07890242381737
 30
0.0
  0
ATTRIB
  5
24B5
330
24B4
100
AcDbEntity
  8
TEXTE
100
AcDbText
 10
58.80363348914165
 20
47.98484707184494
 30
0.0
 40
2.5
  1
ISO 2768-xxx
  7
ISOCP
100
AcDbAttribute
  2
ALGEMEINT.
 70
     0
  0
SEQEND
  5
24B6
330
24B4
100
AcDbEntity
  8
TEXTE
  0
INSERT
  5
2922
330
23BA
100
AcDbEntity
  8
OBJEKT
100
AcDbBlockReference
 66
     1
  2
Werkstückkanten
 10
93.09761547947255
 20
43.26534487227124
 30
0.0
  0
ATTRIB
  5
2923
330
2922
100
AcDbEntity
  8
SCHRAFUR
100
AcDbText
 10
122.3680272305134
 20
50.25998627930497
 30
0.0
 40
2.0
  1
+1
  7
ISOCP
100
AcDbAttribute
  2
+1
 70
     0
  0
ATTRIB
  5
2924
330
2922
100
AcDbEntity
  8
SCHRAFUR
100
AcDbText
 10
122.3680272305134
 20
53.58499251869719
 30
0.0
 40
2.0
  1
+0,3
  7
ISOCP
100
AcDbAttribute
  2
+0,3
 70
     0
  0
ATTRIB
  5
2925
330
2922
100
AcDbEntity
  8
SCHRAFUR
100
AcDbText
 10
102.8843796511994
 20
53.58499251869716
 30
0.0
 40
2.0
  1
-0,3
  7
ISOCP
100
AcDbAttribute
  2
-0,3
 70
     0
  0
ATTRIB
  5
2926
330
2922
100
AcDbEntity
  8
SCHRAFUR
100
AcDbText
 10
102.8843796511994
 20
50.25998627930494
 30
0.0
 40
2.0
  1
-1
  7
ISOCP
100
AcDbAttribute
  2
-1
 70
     0
  0
SEQEND
  5
2927
330
2922
100
AcDbEntity
  8
OBJEKT
  0
ENDBLK
  5
23BD
330
23BA
100
AcDbEntity
  8
0
100
AcDbBlockEnd
  0
BLOCK
  5
290C
330
28F8
100
AcDbEntity
  8
0
100
AcDbBlockBegin
  2
Werkstückkanten
 70
     2
 10
0.0
 20
0.0
 30
0.0
  3
Werkstückkanten
  1

  0
TEXT
  5
28F9
330
28F8
100
AcDbEntity
  8
SCHRAFUR
100
AcDbText
 10
1.005392984460286
 20
13.4646849353138
 30
0.0
 40
2.5
  1
Werkstückkanten DIN ISO 13715
  7
ISOCP
100
AcDbText
  0
ATTDEF
  5
28FA
330
28F8
100
AcDbEntity
  8
SCHRAFUR
100
AcDbText
 10
29.27041175104091
 20
6.994641407033711
 30
0.0
 40
2.0
  1
.
  7
ISOCP
100
AcDbAttributeDefinition
  3
Kanten+0,0
  2
+1
 70
     0
  0
ATTDEF
  5
28FB
330
28F8
100
AcDbEntity
  8
SCHRAFUR
100
AcDbText
 10
29.27041175104091
 20
10.31964764642593
 30
0.0
 40
2.0
  1
.
  7
ISOCP
100
AcDbAttributeDefinition
  3
Kanten+0,0
  2
+0,3
 70
     0
  0
LINE
  5
28FC
330
28F8
100
AcDbEntity
  8
5
100
AcDbLine
 10
28.23978911532419
 20
6.370514789151499
 30
0.0
 11
32.23978911532419
 21
6.370514789151499
 31
0.0
  0
LINE
  5
28FD
330
28F8
100
AcDbEntity
  8
5
100
AcDbLine
 10
27.88623572473091
 20
6.016961398558237
 30
0.0
 11
31.88623572473091
 21
6.016961398558237
 31
0.0
  0
ATTDEF
  5
28FE
330
28F8
100
AcDbEntity
  8
SCHRAFUR
100
AcDbText
 10
9.786764171726872
 20
10.31964764642592
 30
0.0
 40
2.0
  1
.
  7
ISOCP
100
AcDbAttributeDefinition
  3
Kanten-0,0
  2
-0,3
 70
     0
  0
LINE
  5
28FF
330
28F8
100
AcDbEntity
  8
OBJEKT
100
AcDbLine
 10
2.927714411264446
 20
3.042087664404903
 30
0.0
 11
5.427714411264446
 21
3.042087664404903
 31
0.0
  0
LINE
  5
2900
330
28F8
100
AcDbEntity
  8
OBJEKT
100
AcDbLine
 10
5.427714411264446
 20
3.042087664404903
 30
0.0
 11
5.427714411264446
 21
0.5420876644049031
 31
0.0
  0
ATTDEF
  5
2901
330
28F8
100
AcDbEntity
  8
SCHRAFUR
100
AcDbText
 10
9.786764171726872
 20
6.994641407033697
 30
0.0
 40
2.0
  1
.
  7
ISOCP
100
AcDbAttributeDefinition
  3
Kanten-0,0
  2
-1
 70
     0
  0
SOLID
  5
2902
330
28F8
100
AcDbEntity
  8
5
100
AcDbTrace
 10
8.315067101109548
 20
5.10448244286556
 30
0.0
 11
7.490109189725103
 21
5.929440354250004
 31
0.0
 12
5.427714411264446
 22
3.042087664404903
 32
0.0
 13
5.427714411264446
 23
3.042087664404903
 33
0.0
  0
LINE
  5
2903
330
28F8
100
AcDbEntity
  8
5
100
AcDbLine
 10
8.756141536010147
 20
6.370514789151499
 30
0.0
 11
12.75614153601015
 21
6.370514789151499
 31
0.0
  0
LINE
  5
2904
330
28F8
100
AcDbEntity
  8
5
100
AcDbLine
 10
8.756141536010147
 20
10.3705147891515
 30
0.0
 11
8.756141536010147
 21
6.370514789151499
 31
0.0
  0
LINE
  5
2905
330
28F8
100
AcDbEntity
  8
5
100
AcDbLine
 10
8.402588145416871
 20
6.016961398558237
 30
0.0
 11
6.683942159814819
 21
4.298315412956185
 31
0.0
  0
LINE
  5
2906
330
28F8
100
AcDbEntity
  8
5
100
AcDbLine
 10
8.402588145416871
 20
6.016961398558223
 30
0.0
 11
12.40258814541687
 21
6.016961398558223
 31
0.0
  0
LINE
  5
2907
330
28F8
100
AcDbEntity
  8
OBJEKT
100
AcDbLine
 10
22.41136199057848
 20
0.5420876644049031
 30
0.0
 11
22.41136199057848
 21
3.042087664404903
 31
0.0
  0
SOLID
  5
2908
330
28F8
100
AcDbEntity
  8
5
100
AcDbTrace
 10
25.29871468042359
 20
2.60448244286556
 30
0.0
 11
24.47375676903914
 21
3.429440354250004
 31
0.0
 12
22.41136199057848
 22
0.5420876644049031
 32
0.0
 13
22.41136199057848
 23
0.5420876644049031
 33
0.0
  0
LINE
  5
2909
330
28F8
100
AcDbEntity
  8
5
100
AcDbLine
 10
27.88623572473091
 20
6.016961398558237
 30
0.0
 11
23.66758973912886
 21
1.798315412956185
 31
0.0
  0
LINE
  5
290A
330
28F8
100
AcDbEntity
  8
5
100
AcDbLine
 10
28.23978911532419
 20
10.3705147891515
 30
0.0
 11
28.23978911532419
 21
6.370514789151499
 31
0.0
  0
LINE
  5
290B
330
28F8
100
AcDbEntity
  8
OBJEKT
100
AcDbLine
 10
24.91136199057848
 20
0.5420876644049031
 30
0.0
 11
22.41136199057848
 21
0.5420876644049031
 31
0.0
  0
ENDBLK
  5
290D
330
28F8
100
AcDbEntity
  8
0
100
AcDbBlockEnd
  0
BLOCK
  5
40BE
330
40B2
100
AcDbEntity
  8
0
100
AcDbBlockBegin
  2
*D11
 70
     1
 10
0.0
 20
0.0
 30
0.0
  3
*D11
  1

  0
LINE
  5
4192
330
40B2
100
AcDbEntity
  8
5
370
    13
100
AcDbLine
 10
1571.522827782264
 20
338.7662150414448
 30
0.0
 11
1571.522827782264
 21
368.1379926627733
 31
0.0
  0
LINE
  5
4193
330
40B2
100
AcDbEntity
  8
5
370
    13
100
AcDbLine
 10
1586.522827782265
 20
339.506798068403
 30
0.0
 11
1586.522827782265
 21
368.1379926627733
 31
0.0
  0
LINE
  5
4194
330
40B2
100
AcDbEntity
  8
5
370
    13
100
AcDbLine
 10
1557.522827782265
 20
360.9379926627733
 30
0.0
 11
1543.522827782265
 21
360.9379926627733
 31
0.0
  0
LINE
  5
4195
330
40B2
100
AcDbEntity
  8
5
370
    13
100
AcDbLine
 10
1600.522827782265
 20
360.9379926627733
 30
0.0
 11
1614.522827782265
 21
360.9379926627733
 31
0.0
  0
MTEXT
  5
4196
330
40B2
100
AcDbEntity
  8
5
 62
     7
100
AcDbMText
 10
1578.964956624238
 20
379.0699279998749
 30
0.0
 40
14.0
 41
0.0
 71
     5
 72
     1
  1
\A1;15
  7
ISOCP
 73
     1
 44
1.0
  0
LINE
  5
4197
330
40B2
100
AcDbEntity
  8
5
370
    13
100
AcDbLine
 10
1571.522827782264
 20
360.9379926627733
 30
0.0
 11
1586.522827782265
 21
360.9379926627733
 31
0.0
  0
SOLID
  5
4198
330
40B2
100
AcDbEntity
  8
5
100
AcDbTrace
 10
1557.522827782265
 20
363.2713259961066
 30
0.0
 11
1557.522827782265
 21
358.60465932944
 31
0.0
 12
1571.522827782264
 22
360.9379926627733
 32
0.0
 13
1571.522827782264
 23
360.9379926627733
 33
0.0
  0
SOLID
  5
4199
330
40B2
100
AcDbEntity
  8
5
100
AcDbTrace
 10
1600.522827782265
 20
363.2713259961066
 30
0.0
 11
1600.522827782265
 21
358.60465932944
 31
0.0
 12
1586.522827782265
 22
360.9379926627733
 32
0.0
 13
1586.522827782265
 23
360.9379926627733
 33
0.0
  0
POINT
  5
419A
330
40B2
100
AcDbEntity
  8
DEFPOINTS
 62
     0
100
AcDbPoint
 10
1571.522827782264
 20
338.3662150414448
 30
0.0
  0
POINT
  5
419B
330
40B2
100
AcDbEntity
  8
DEFPOINTS
 62
     0
100
AcDbPoint
 10
1586.522827782265
 20
339.1067980684031
 30
0.0
  0
POINT
  5
419C
330
40B2
100
AcDbEntity
  8
DEFPOINTS
 62
     0
100
AcDbPoint
 10
1586.522827782265
 20
360.9379926627733
 30
0.0
  0
ENDBLK
  5
40BF
330
40B2
100
AcDbEntity
  8
0
100
AcDbBlockEnd
  0
BLOCK
  5
40CA
330
40C0
100
AcDbEntity
  8
0
100
AcDbBlockBegin
  2
*D12
 70
     1
 10
0.0
 20
0.0
 30
0.0
  3
*D12
  1

  0
LINE
  5
4180
330
40C0
100
AcDbEntity
  8
5
370
    13
100
AcDbLine
 10
1597.922827782265
 20
28.8573315213302
 30
0.0
 11
1744.171643832783
 21
28.85733152133015
 31
0.0
  0
LINE
  5
4181
330
40C0
100
AcDbEntity
  8
5
370
    13
100
AcDbLine
 10
1597.922827782265
 20
251.8573285213301
 30
0.0
 11
1744.171643832783
 21
251.8573285213301
 31
0.0
  0
LINE
  5
4182
330
40C0
100
AcDbEntity
  8
5
370
    13
100
AcDbLine
 10
1736.971643832783
 20
42.85733152133015
 30
0.0
 11
1736.971643832783
 21
237.8573285213301
 31
0.0
  0
SOLID
  5
4183
330
40C0
100
AcDbEntity
  8
5
100
AcDbTrace
 10
1734.63831049945
 20
42.85733152133015
 30
0.0
 11
1739.304977166116
 21
42.85733152133015
 31
0.0
 12
1736.971643832783
 22
28.85733152133015
 32
0.0
 13
1736.971643832783
 23
28.85733152133015
 33
0.0
  0
SOLID
  5
4184
330
40C0
100
AcDbEntity
  8
5
100
AcDbTrace
 10
1734.63831049945
 20
237.8573285213301
 30
0.0
 11
1739.304977166116
 21
237.8573285213301
 31
0.0
 12
1736.971643832783
 22
251.8573285213301
 32
0.0
 13
1736.971643832783
 23
251.8573285213301
 33
0.0
  0
MTEXT
  5
4185
330
40C0
100
AcDbEntity
  8
5
 62
     7
100
AcDbMText
 10
1722.971643832783
 20
140.3573300213304
 30
0.0
 40
14.0
 41
0.0
 71
     5
 72
     1
  1
\A1;D2+50mm
  7
ISOCP
 11
0.0000000000000001
 21
1.0
 31
0.0
 73
     1
 44
1.0
  0
POINT
  5
4186
330
40C0
100
AcDbEntity
  8
DEFPOINTS
 62
     0
100
AcDbPoint
 10
1597.522827782265
 20
28.8573315213302
 30
0.0
  0
POINT
  5
4187
330
40C0
100
AcDbEntity
  8
DEFPOINTS
 62
     0
100
AcDbPoint
 10
1597.522827782265
 20
251.8573285213301
 30
0.0
  0
POINT
  5
4188
330
40C0
100
AcDbEntity
  8
DEFPOINTS
 62
     0
100
AcDbPoint
 10
1736.971643832783
 20
251.8573285213301
 30
0.0
  0
ENDBLK
  5
40CB
330
40C0
100
AcDbEntity
  8
0
100
AcDbBlockEnd
  0
BLOCK
  5
40D6
330
40CC
100
AcDbEntity
  8
0
100
AcDbBlockBegin
  2
*D13
 70
     1
 10
0.0
 20
0.0
 30
0.0
  3
*D13
  1

  0
LINE
  5
4177
330
40CC
100
AcDbEntity
  8
5
370
    13
100
AcDbLine
 10
1597.922827782265
 20
-36.6426699786698
 30
0.0
 11
1775.530590818252
 21
-36.64266997866985
 31
0.0
  0
LINE
  5
4178
330
40CC
100
AcDbEntity
  8
5
370
    13
100
AcDbLine
 10
1597.922827782265
 20
317.3573300213302
 30
0.0
 11
1775.530590818252
 21
317.3573300213301
 31
0.0
  0
LINE
  5
4179
330
40CC
100
AcDbEntity
  8
5
370
    13
100
AcDbLine
 10
1768.330590818252
 20
-22.64266997866985
 30
0.0
 11
1768.330590818252
 21
303.3573300213301
 31
0.0
  0
SOLID
  5
417A
330
40CC
100
AcDbEntity
  8
5
100
AcDbTrace
 10
1765.997257484919
 20
-22.64266997866984
 30
0.0
 11
1770.663924151585
 21
-22.64266997866985
 31
0.0
 12
1768.330590818252
 22
-36.64266997866985
 32
0.0
 13
1768.330590818252
 23
-36.64266997866985
 33
0.0
  0
SOLID
  5
417B
330
40CC
100
AcDbEntity
  8
5
100
AcDbTrace
 10
1765.997257484919
 20
303.3573300213301
 30
0.0
 11
1770.663924151585
 21
303.3573300213301
 31
0.0
 12
1768.330590818252
 22
317.3573300213301
 32
0.0
 13
1768.330590818252
 23
317.3573300213301
 33
0.0
  0
MTEXT
  5
417C
330
40CC
100
AcDbEntity
  8
5
 62
     7
100
AcDbMText
 10
1754.330590818252
 20
140.3573300213304
 30
0.0
 40
14.0
 41
0.0
 71
     5
 72
     1
  1
\A1;D5
  7
ISOCP
 11
0.0000000000000001
 21
1.0
 31
0.0
 73
     1
 44
1.0
  0
POINT
  5
417D
330
40CC
100
AcDbEntity
  8
DEFPOINTS
 62
     0
100
AcDbPoint
 10
1597.522827782265
 20
-36.6426699786698
 30
0.0
  0
POINT
  5
417E
330
40CC
100
AcDbEntity
  8
DEFPOINTS
 62
     0
100
AcDbPoint
 10
1597.522827782265
 20
317.3573300213302
 30
0.0
  0
POINT
  5
417F
330
40CC
100
AcDbEntity
  8
DEFPOINTS
 62
     0
100
AcDbPoint
 10
1768.330590818252
 20
317.3573300213301
 30
0.0
  0
ENDBLK
  5
40D7
330
40CC
100
AcDbEntity
  8
0
100
AcDbBlockEnd
  0
BLOCK
  5
40E2
330
40D8
100
AcDbEntity
  8
0
100
AcDbBlockBegin
  2
*D14
 70
     1
 10
0.0
 20
0.0
 30
0.0
  3
*D14
  1

  0
LINE
  5
416E
330
40D8
100
AcDbEntity
  8
5
370
    13
100
AcDbLine
 10
1613.336017966292
 20
111.3573315213301
 30
0.0
 11
1648.266823658293
 21
111.3573315213301
 31
0.0
  0
LINE
  5
416F
330
40D8
100
AcDbEntity
  8
5
370
    13
100
AcDbLine
 10
1613.336017966292
 20
169.3573285213301
 30
0.0
 11
1648.266823658293
 21
169.3573285213301
 31
0.0
  0
LINE
  5
4170
330
40D8
100
AcDbEntity
  8
5
370
    13
100
AcDbLine
 10
1641.066823658293
 20
125.3573315213301
 30
0.0
 11
1641.066823658293
 21
155.3573285213301
 31
0.0
  0
SOLID
  5
4171
330
40D8
100
AcDbEntity
  8
5
100
AcDbTrace
 10
1638.733490324959
 20
125.3573315213301
 30
0.0
 11
1643.400156991626
 21
125.3573315213301
 31
0.0
 12
1641.066823658293
 22
111.3573315213301
 32
0.0
 13
1641.066823658293
 23
111.3573315213301
 33
0.0
  0
SOLID
  5
4172
330
40D8
100
AcDbEntity
  8
5
100
AcDbTrace
 10
1638.733490324959
 20
155.3573285213301
 30
0.0
 11
1643.400156991626
 21
155.3573285213301
 31
0.0
 12
1641.066823658293
 22
169.3573285213301
 32
0.0
 13
1641.066823658293
 23
169.3573285213301
 33
0.0
  0
MTEXT
  5
4173
330
40D8
100
AcDbEntity
  8
5
 62
     7
100
AcDbMText
 10
1627.066823658292
 20
140.3573300213304
 30
0.0
 40
14.0
 41
0.0
 71
     5
 72
     1
  1
\A1;d
  7
ISOCP
 11
0.0000000000000001
 21
1.0
 31
0.0
 73
     1
 44
1.0
  0
POINT
  5
4174
330
40D8
100
AcDbEntity
  8
DEFPOINTS
 62
     0
100
AcDbPoint
 10
1612.936017966293
 20
111.3573315213301
 30
0.0
  0
POINT
  5
4175
330
40D8
100
AcDbEntity
  8
DEFPOINTS
 62
     0
100
AcDbPoint
 10
1612.936017966293
 20
169.3573285213301
 30
0.0
  0
POINT
  5
4176
330
40D8
100
AcDbEntity
  8
DEFPOINTS
 62
     0
100
AcDbPoint
 10
1641.066823658293
 20
169.3573285213301
 30
0.0
  0
ENDBLK
  5
40E3
330
40D8
100
AcDbEntity
  8
0
100
AcDbBlockEnd
  0
BLOCK
  5
40EE
330
40E4
100
AcDbEntity
  8
0
100
AcDbBlockBegin
  2
*D15
 70
     1
 10
0.0
 20
0.0
 30
0.0
  3
*D15
  1

  0
LINE
  5
4165
330
40E4
100
AcDbEntity
  8
5
370
    13
100
AcDbLine
 10
1597.922827782265
 20
214.3573285213301
 30
0.0
 11
1680.541148361562
 21
214.3573285213301
 31
0.0
  0
LINE
  5
4166
330
40E4
100
AcDbEntity
  8
5
370
    13
100
AcDbLine
 10
1597.922827782265
 20
66.35733152133025
 30
0.0
 11
1680.541148361562
 21
66.35733152133024
 31
0.0
  0
LINE
  5
4167
330
40E4
100
AcDbEntity
  8
5
370
    13
100
AcDbLine
 10
1673.341148361562
 20
200.3573285213301
 30
0.0
 11
1673.341148361562
 21
80.35733152133024
 31
0.0
  0
SOLID
  5
4168
330
40E4
100
AcDbEntity
  8
5
100
AcDbTrace
 10
1671.007815028228
 20
200.3573285213301
 30
0.0
 11
1675.674481694895
 21
200.3573285213301
 31
0.0
 12
1673.341148361562
 22
214.3573285213301
 32
0.0
 13
1673.341148361562
 23
214.3573285213301
 33
0.0
  0
SOLID
  5
4169
330
40E4
100
AcDbEntity
  8
5
100
AcDbTrace
 10
1671.007815028228
 20
80.35733152133024
 30
0.0
 11
1675.674481694895
 21
80.35733152133024
 31
0.0
 12
1673.341148361562
 22
66.35733152133024
 32
0.0
 13
1673.341148361562
 23
66.35733152133024
 33
0.0
  0
MTEXT
  5
416A
330
40E4
100
AcDbEntity
  8
5
 62
     7
100
AcDbMText
 10
1659.341148361562
 20
140.3573300213304
 30
0.0
 40
14.0
 41
0.0
 71
     5
 72
     1
  1
\A1;D1
  7
ISOCP
 11
0.0000000000000001
 21
1.0
 31
0.0
 73
     1
 44
1.0
  0
POINT
  5
416B
330
40E4
100
AcDbEntity
  8
DEFPOINTS
 62
     0
100
AcDbPoint
 10
1597.522827782265
 20
214.3573285213301
 30
0.0
  0
POINT
  5
416C
330
40E4
100
AcDbEntity
  8
DEFPOINTS
 62
     0
100
AcDbPoint
 10
1597.522827782265
 20
66.35733152133025
 30
0.0
  0
POINT
  5
416D
330
40E4
100
AcDbEntity
  8
DEFPOINTS
 62
     0
100
AcDbPoint
 10
1673.341148361562
 20
66.35733152133024
 30
0.0
  0
ENDBLK
  5
40EF
330
40E4
100
AcDbEntity
  8
0
100
AcDbBlockEnd
  0
BLOCK
  5
40FA
330
40F0
100
AcDbEntity
  8
0
100
AcDbBlockBegin
  2
*D16
 70
     1
 10
0.0
 20
0.0
 30
0.0
  3
*D16
  1

  0
LINE
  5
415C
330
40F0
100
AcDbEntity
  8
5
370
    13
100
AcDbLine
 10
1597.922827782265
 20
53.85733152133013
 30
0.0
 11
1711.275901051646
 21
53.85733152133011
 31
0.0
  0
LINE
  5
415D
330
40F0
100
AcDbEntity
  8
5
370
    13
100
AcDbLine
 10
1597.922827782265
 20
226.8573285213301
 30
0.0
 11
1711.275901051646
 21
226.8573285213301
 31
0.0
  0
LINE
  5
415E
330
40F0
100
AcDbEntity
  8
5
370
    13
100
AcDbLine
 10
1704.075901051647
 20
67.85733152133009
 30
0.0
 11
1704.075901051647
 21
212.8573285213301
 31
0.0
  0
SOLID
  5
415F
330
40F0
100
AcDbEntity
  8
5
100
AcDbTrace
 10
1701.742567718313
 20
67.85733152133009
 30
0.0
 11
1706.40923438498
 21
67.85733152133009
 31
0.0
 12
1704.075901051647
 22
53.85733152133011
 32
0.0
 13
1704.075901051647
 23
53.85733152133011
 33
0.0
  0
SOLID
  5
4160
330
40F0
100
AcDbEntity
  8
5
100
AcDbTrace
 10
1701.742567718313
 20
212.8573285213301
 30
0.0
 11
1706.40923438498
 21
212.8573285213301
 31
0.0
 12
1704.075901051647
 22
226.8573285213301
 32
0.0
 13
1704.075901051647
 23
226.8573285213301
 33
0.0
  0
MTEXT
  5
4161
330
40F0
100
AcDbEntity
  8
5
 62
     7
100
AcDbMText
 10
1690.075901051647
 20
140.3573300213303
 30
0.0
 40
14.0
 41
0.0
 71
     5
 72
     1
  1
\A1;D2
  7
ISOCP
 11
0.0000000000000001
 21
1.0
 31
0.0
 73
     1
 44
1.0
  0
POINT
  5
4162
330
40F0
100
AcDbEntity
  8
DEFPOINTS
 62
     0
100
AcDbPoint
 10
1597.522827782265
 20
53.85733152133013
 30
0.0
  0
POINT
  5
4163
330
40F0
100
AcDbEntity
  8
DEFPOINTS
 62
     0
100
AcDbPoint
 10
1597.522827782265
 20
226.8573285213301
 30
0.0
  0
POINT
  5
4164
330
40F0
100
AcDbEntity
  8
DEFPOINTS
 62
     0
100
AcDbPoint
 10
1704.075901051647
 20
226.8573285213301
 30
0.0
  0
ENDBLK
  5
40FB
330
40F0
100
AcDbEntity
  8
0
100
AcDbBlockEnd
  0
BLOCK
  5
4106
330
40FC
100
AcDbEntity
  8
0
100
AcDbBlockBegin
  2
*D17
 70
     1
 10
0.0
 20
0.0
 30
0.0
  3
*D17
  1

  0
LINE
  5
4189
330
40FC
100
AcDbEntity
  8
5
370
    13
100
AcDbLine
 10
1586.522827782265
 20
-58.79213802574263
 30
0.0
 11
1586.522827782265
 21
-90.3433981859654
 31
0.0
  0
LINE
  5
418A
330
40FC
100
AcDbEntity
  8
5
370
    13
100
AcDbLine
 10
1177.522827782265
 20
-46.58098112767503
 30
0.0
 11
1177.522827782265
 21
-90.3433981859654
 31
0.0
  0
LINE
  5
418B
330
40FC
100
AcDbEntity
  8
5
370
    13
100
AcDbLine
 10
1572.522827782265
 20
-83.1433981859654
 30
0.0
 11
1191.522827782264
 21
-83.1433981859654
 31
0.0
  0
SOLID
  5
418C
330
40FC
100
AcDbEntity
  8
5
100
AcDbTrace
 10
1572.522827782265
 20
-80.81006485263207
 30
0.0
 11
1572.522827782265
 21
-85.47673151929872
 31
0.0
 12
1586.522827782265
 22
-83.1433981859654
 32
0.0
 13
1586.522827782265
 23
-83.1433981859654
 33
0.0
  0
SOLID
  5
418D
330
40FC
100
AcDbEntity
  8
5
100
AcDbTrace
 10
1191.522827782264
 20
-80.81006485263207
 30
0.0
 11
1191.522827782264
 21
-85.47673151929872
 31
0.0
 12
1177.522827782265
 22
-83.1433981859654
 32
0.0
 13
1177.522827782265
 23
-83.1433981859654
 33
0.0
  0
MTEXT
  5
418E
330
40FC
100
AcDbEntity
  8
5
 62
     7
100
AcDbMText
 10
1382.022827782265
 20
-69.14339818596539
 30
0.0
 40
14.0
 41
0.0
 71
     5
 72
     1
  1
\A1;L1
  7
ISOCP
 73
     1
 44
1.0
  0
POINT
  5
418F
330
40FC
100
AcDbEntity
  8
DEFPOINTS
 62
     0
100
AcDbPoint
 10
1586.522827782265
 20
-58.39213802574263
 30
0.0
  0
POINT
  5
4190
330
40FC
100
AcDbEntity
  8
DEFPOINTS
 62
     0
100
AcDbPoint
 10
1177.522827782265
 20
-46.18098112767504
 30
0.0
  0
POINT
  5
4191
330
40FC
100
AcDbEntity
  8
DEFPOINTS
 62
     0
100
AcDbPoint
 10
1177.522827782265
 20
-83.1433981859654
 30
0.0
  0
ENDBLK
  5
4107
330
40FC
100
AcDbEntity
  8
0
100
AcDbBlockEnd
  0
ENDSEC
  0
SECTION
  2
ENTITIES
  0
INSERT
  5
107
330
18
100
AcDbEntity
  8
MITTELLINIE
100
AcDbBlockReference
  2
PROTO
 10
191.203180816766
 20
97.61368935402812
 30
0.0
  0
TEXT
  5
1157
330
18
100
AcDbEntity
  8
5
100
AcDbText
 10
151.3036720483299
 20
173.1003305006621
 30
0.0
 40
3.5
  1
 
  7
ROMANS
100
AcDbText
  0
TEXT
  5
1158
330
18
100
AcDbEntity
  8
5
100
AcDbText
 10
129.8729906754903
 20
216.6426036892462
 30
0.0
 40
3.5
  1
 
  7
ROMANS
100
AcDbText
  0
MTEXT
  5
1183
330
18
100
AcDbEntity
  8
OBJEKT
100
AcDbMText
 10
259.2524242957761
 20
169.4252122649925
 30
0.0
 40
3.5
 41
107.5464
 71
     1
 72
     5
  1

 73
     1
 44
1.0
  0
MTEXT
  5
11C8
330
18
100
AcDbEntity
  8
SCHRAFFUR
100
AcDbMText
 10
311.5979966260216
 20
90.00452114891198
 30
0.0
 40
3.5
 41
84.22880000000001
 71
     1
 72
     5
  1

  7
ISOCP
 73
     1
 44
1.0
  0
DIMENSION
  5
3EF1
330
18
100
AcDbEntity
  8
5
100
AcDbDimension
  2
*D12
 10
1736.971643832783
 20
251.8573285213301
 30
0.0
 11
1722.971643832783
 21
140.3573300213304
 31
0.0
 70
    32
  1
D2+50mm
 71
     5
 42
222.999997
  3
ISOCP-2000-1-1
100
AcDbAlignedDimension
 13
1597.522827782265
 23
28.8573315213302
 33
0.0
 14
1597.522827782265
 24
251.8573285213301
 34
0.0
 50
90.0
100
AcDbRotatedDimension
1001
ACAD
1000
DSTYLE
1002
{
1070
    40
1040
4.0
1070
   340
1005
1128
1002
}
  0
DIMENSION
  5
3EF2
330
18
100
AcDbEntity
  8
5
100
AcDbDimension
  2
*D13
 10
1768.330590818252
 20
317.3573300213301
 30
0.0
 11
1754.330590818252
 21
140.3573300213304
 31
0.0
 70
    32
  1
D5
 71
     5
 42
354.0
  3
ISOCP-2000-1-1
100
AcDbAlignedDimension
 13
1597.522827782265
 23
-36.6426699786698
 33
0.0
 14
1597.522827782265
 24
317.3573300213302
 34
0.0
 50
90.0
100
AcDbRotatedDimension
1001
ACAD
1000
DSTYLE
1002
{
1070
    40
1040
4.0
1070
   340
1005
1128
1002
}
  0
ARC
  5
3EF3
330
18
100
AcDbEntity
  8
OBJEKT
100
AcDbCircle
 10
880.2716020174988
 20
194.6900064617295
 30
0.0
 40
279.9768187073799
100
AcDbArc
 50
343.9752945424147
 51
347.4640220200583
  0
LINE
  5
3EF4
330
18
100
AcDbEntity
  8
SCHRAFFUR
100
AcDbLine
 10
1610.187902118034
 20
119.8454169553417
 30
0.0
 11
1612.610206334629
 21
117.4231127387461
 31
0.0
  0
LINE
  5
3EF5
330
18
100
AcDbEntity
  8
SCHRAFFUR
100
AcDbLine
 10
1610.240218456467
 20
120.9582196847357
 30
0.0
 11
1612.636771257892
 21
118.5616668833098
 31
0.0
  0
LINE
  5
3EF6
330
18
100
AcDbEntity
  8
SCHRAFFUR
100
AcDbLine
 10
1610.124454304601
 20
118.7437457009482
 30
0.0
 11
1612.568489874523
 21
116.2997101310254
 31
0.0
  0
LINE
  5
3EF7
330
18
100
AcDbEntity
  8
SCHRAFFUR
100
AcDbLine
 10
1603.283260696142
 20
120.9244630380997
 30
0.0
 11
1605.81644234748
 21
118.3912813867623
 31
0.0
  0
LINE
  5
3EF8
330
18
100
AcDbEntity
  8
SCHRAFFUR
100
AcDbLine
 10
1603.259965300658
 20
119.7826393657577
 30
0.0
 11
1605.882184961226
 21
117.1604197051896
 31
0.0
  0
ARC
  5
3EF9
330
18
100
AcDbEntity
  8
OBJEKT
100
AcDbCircle
 10
1670.309216193106
 20
118.9858553688453
 30
0.0
 40
67.05398504172752
100
AcDbArc
 50
168.3301833460131
 51
182.969794848391
  0
ARC
  5
3EFA
330
18
100
AcDbEntity
  8
OBJEKT
100
AcDbCircle
 10
1530.587772276398
 20
119.9064599714927
 30
0.0
 40
82.06001890272291
100
AcDbArc
 50
356.9917036817516
 51
19.12688977610961
  0
ARC
  5
3EFB
330
18
100
AcDbEntity
  8
OBJEKT
100
AcDbCircle
 10
1505.237260398384
 20
125.3371061707003
 30
0.0
 40
105.0942236652629
100
AcDbArc
 50
354.8869392832669
 51
11.78100620918522
  0
ARC
  5
3EFC
330
18
100
AcDbEntity
  8
OBJEKT
100
AcDbCircle
 10
1716.74132710472
 20
123.698799417427
 30
0.0
 40
111.0517888467034
100
AcDbArc
 50
167.9965233242389
 51
183.9903029062103
  0
DIMENSION
  5
3EFD
330
18
100
AcDbEntity
  8
5
100
AcDbDimension
  2
*D14
 10
1641.066823658293
 20
169.3573285213301
 30
0.0
 11
1627.066823658292
 21
140.3573300213304
 31
0.0
 70
    32
  1
d
 71
     5
 42
57.99999700000002
  3
ISOCP-2000-1-1
100
AcDbAlignedDimension
 13
1612.936017966293
 23
111.3573315213301
 33
0.0
 14
1612.936017966293
 24
169.3573285213301
 34
0.0
 50
90.0
100
AcDbRotatedDimension
1001
ACAD
1000
DSTYLE
1002
{
1070
    40
1040
4.0
1070
   340
1005
1128
1002
}
  0
DIMENSION
  5
3EFE
330
18
100
AcDbEntity
  8
5
100
AcDbDimension
  2
*D15
 10
1673.341148361562
 20
66.35733152133024
 30
0.0
 11
1659.341148361562
 21
140.3573300213304
 31
0.0
 70
    32
  1
D1
 71
     5
 42
147.9999969999999
  3
ISOCP-2000-1-1
100
AcDbAlignedDimension
 13
1597.522827782265
 23
214.3573285213301
 33
0.0
 14
1597.522827782265
 24
66.35733152133025
 34
0.0
 50
90.0
100
AcDbRotatedDimension
1001
ACAD
1000
DSTYLE
1002
{
1070
    40
1040
4.0
1070
   340
1005
1128
1002
}
  0
DIMENSION
  5
3EFF
330
18
100
AcDbEntity
  8
5
100
AcDbDimension
  2
*D16
 10
1704.075901051647
 20
226.8573285213301
 30
0.0
 11
1690.075901051647
 21
140.3573300213303
 31
0.0
 70
    32
  1
D2
 71
     5
 42
172.999997
  3
ISOCP-2000-1-1
100
AcDbAlignedDimension
 13
1597.522827782265
 23
53.85733152133013
 33
0.0
 14
1597.522827782265
 24
226.8573285213301
 34
0.0
 50
90.0
100
AcDbRotatedDimension
1001
ACAD
1000
DSTYLE
1002
{
1070
    40
1040
4.0
1070
   340
1005
1128
1002
}
  0
LINE
  5
3F00
330
18
100
AcDbEntity
  8
OBJEKT
100
AcDbLine
 10
1421.522827782265
 20
-53.14266847866974
 30
0.0
 11
1434.812579839196
 21
-49.58169014740519
 31
0.0
  0
LINE
  5
3F01
330
18
100
AcDbEntity
  8
OBJEKT
100
AcDbLine
 10
1177.522827782265
 20
28.8573315213302
 30
0.0
 11
1571.522827782264
 21
28.8573315213302
 31
0.0
  0
LINE
  5
3F02
330
18
100
AcDbEntity
  8
OBJEKT
100
AcDbLine
 10
1607.936017966293
 20
111.3573315213301
 30
0.0
 11
1153.755416263235
 21
111.3573315213302
 31
0.0
  0
LINE
  5
3F03
330
18
100
AcDbEntity
  8
OBJEKT
100
AcDbLine
 10
1177.522827782265
 20
66.35733152133025
 30
0.0
 11
1586.522827782265
 21
66.35733152133025
 31
0.0
  0
LINE
  5
3F04
330
18
100
AcDbEntity
  8
OBJEKT
100
AcDbLine
 10
1177.522827782265
 20
53.85733152133025
 30
0.0
 11
1571.522827782264
 21
53.85733152133025
 31
0.0
  0
DIMENSION
  5
3F05
330
18
100
AcDbEntity
  8
5
100
AcDbDimension
  2
*D17
 10
1177.522827782265
 20
-83.1433981859654
 30
0.0
 11
1382.022827782265
 21
-69.14339818596539
 31
0.0
 70
    32
  1
L1
 71
     5
 42
409.0
  3
ISOCP-2000-1-1
100
AcDbAlignedDimension
 13
1586.522827782265
 23
-58.39213802574263
 33
0.0
 14
1177.522827782265
 24
-46.18098112767504
 34
0.0
100
AcDbRotatedDimension
1001
ACAD
1000
DSTYLE
1002
{
1070
    40
1040
4.0
1070
   340
1005
1128
1002
}
  0
ARC
  5
3F06
330
18
100
AcDbEntity
  8
OBJEKT
100
AcDbCircle
 10
1153.755416263235
 20
115.9709676463301
 30
0.0
 40
4.613636125
100
AcDbArc
 50
234.8762182107129
 51
270.0
  0
ARC
  5
3F07
330
18
100
AcDbEntity
  8
OBJEKT
100
AcDbCircle
 10
1155.576559798815
 20
116.5425978008529
 30
0.0
 40
6.237892863282242
100
AcDbArc
 50
170.0054277243054
 51
224.153031374216
  0
HATCH
  5
3F08
330
18
100
AcDbEntity
  8
SCHRAFFUR
100
AcDbHatch
 10
0.0
 20
0.0
 30
0.0
210
0.0
220
0.0
230
1.0
  2
AR-SAND
 70
     0
 71
     0
 91
        1
 92
        7
 72
     0
 73
     1
 93
        5
 10
1592.522827782265
 20
-56.07184397293679
 10
1586.522827782265
 20
-53.39213802574278
 10
1586.522827782265
 20
-36.64266997866992
 10
1586.522827782265
 20
66.35733152133025
 10
1592.522827782264
 20
66.35733152133022
 97
        0
 75
     0
 76
     1
 52
90.0
 41
0.1
 77
     0
 78
     4
 53
127.5
 43
256.2993424287065
 44
1.364162521780656
 45
-4.894132373293423
 46
-0.1600031295984043
 79
     6
 49
0.0
 49
-3.8608
 49
0.0
 49
-4.318
 49
0.0
 49
-4.1275
 53
97.49999999999994
 43
256.2993424287065
 44
1.364162521780656
 45
-7.168251005683543
 46
4.495232831380026
 79
     6
 49
0.0
 49
-2.0828
 49
0.0
 49
-3.4798
 49
0.0
 49
-1.3335
 53
57.5
 43
256.2993424287065
 44
-1.760037478219345
 45
-0.0143718467854564
 46
7.909923702414579
 79
     6
 49
0.0
 49
-1.27
 49
0.0
 49
-4.572
 49
0.0
 49
-5.969
 53
47.5
 43
256.2993424287065
 44
-1.760037478219345
 45
-2.229293232572161
 46
7.635564524722972
 79
     6
 49
0.0
 49
-0.635
 49
0.0
 49
-2.997199999999999
 49
0.0
 49
-3.429
 47
0.3554969354499438
 98
        1
 10
1589.787484670268
 20
-2.073549566535234
  0
HATCH
  5
3F09
330
18
100
AcDbEntity
  8
SCHRAFFUR
 62
     7
100
AcDbHatch
 10
0.0
 20
0.0
 30
0.0
210
0.0
220
0.0
230
1.0
  2
ANSI31
 70
     0
 71
     0
 91
        1
 92
        7
 72
     0
 73
     1
 93
        4
 10
1586.522827782265
 20
-36.64266997866986
 10
1571.522827782264
 20
-36.6426699786698
 10
1571.522827782264
 20
66.35733152133025
 10
1586.522827782265
 20
66.35733152133025
 97
        0
 75
     0
 76
     1
 52
90.0
 41
1.0
 77
     0
 78
     1
 53
135.0
 43
623.408888922509
 44
1.364162521780656
 45
-2.245064030267288
 46
-2.245064030267287
 79
     0
 47
0.4759070100358664
 98
        1
 10
1583.474042015067
 20
14.28985450478348
  0
LINE
  5
3F0A
330
18
100
AcDbEntity
  8
OBJEKT
100
AcDbLine
 10
1586.522827782265
 20
-36.6426699786698
 30
0.0
 11
1586.522827782265
 21
66.35733152133025
 31
0.0
  0
LINE
  5
3F0B
330
18
100
AcDbEntity
  8
OBJEKT
100
AcDbLine
 10
1592.522827782265
 20
66.35733152133025
 30
0.0
 11
1592.522827782265
 21
-56.07184397293673
 31
0.0
  0
LINE
  5
3F0C
330
18
100
AcDbEntity
  8
OBJEKT
100
AcDbLine
 10
1571.522827782264
 20
-52.65155499878443
 30
0.0
 11
1571.522827782264
 21
111.3573315213302
 31
0.0
  0
LINE
  5
3F0D
330
18
100
AcDbEntity
  8
OBJEKT
100
AcDbLine
 10
1539.511173101584
 20
-57.39519310255492
 30
0.0
 11
1549.619226982948
 21
-51.55930547316609
 31
0.0
  0
LINE
  5
3F0E
330
18
100
AcDbEntity
  8
OBJEKT
100
AcDbLine
 10
1471.276457881869
 20
-53.85746046114661
 30
0.0
 11
1486.522827782265
 21
-53.92180707093922
 31
0.0
  0
LINE
  5
3F0F
330
18
100
AcDbEntity
  8
OBJEKT
100
AcDbLine
 10
1450.101920079343
 20
-53.67845651755738
 30
0.0
 11
1456.602215667092
 21
-49.92550911015832
 31
0.0
  0
LINE
  5
3F10
330
18
100
AcDbEntity
  8
OBJEKT
100
AcDbLine
 10
1434.812579839196
 20
-49.58169014740519
 30
0.0
 11
1450.101920079343
 21
-53.67845651755738
 31
0.0
  0
LINE
  5
3F11
330
18
100
AcDbEntity
  8
OBJEKT
100
AcDbLine
 10
1456.602215667092
 20
-49.92550911015832
 30
0.0
 11
1471.276457881869
 21
-53.85746046114661
 31
0.0
  0
LINE
  5
3F12
330
18
100
AcDbEntity
  8
OBJEKT
100
AcDbLine
 10
1486.522827782265
 20
-53.92180707093922
 30
0.0
 11
1518.477746041607
 21
-51.7593033077751
 31
0.0
  0
LINE
  5
3F13
330
18
100
AcDbEntity
  8
OBJEKT
100
AcDbLine
 10
1518.477746041607
 20
-51.7593033077751
 30
0.0
 11
1526.572228557746
 21
-53.9282133611224
 31
0.0
  0
LINE
  5
3F14
330
18
100
AcDbEntity
  8
OBJEKT
100
AcDbLine
 10
1526.572228557746
 20
-53.9282133611224
 30
0.0
 11
1539.511173101584
 21
-57.39519310255492
 31
0.0
  0
HATCH
  5
3F15
330
18
100
AcDbEntity
  8
SCHRAFFUR
100
AcDbHatch
 10
0.0
 20
0.0
 30
0.0
210
0.0
220
0.0
230
1.0
  2
AR-CONC
 70
     0
 71
     0
 91
        1
 92
        7
 72
     0
 73
     1
 93
        5
 10
1586.522827782265
 20
-53.39213802574278
 10
1579.861700259419
 20
-50.41716085274487
 10
1571.522827782264
 20
-52.65155499878455
 10
1571.522827782264
 20
-36.64266997866992
 10
1586.522827782265
 20
-36.64266997866986
 97
        0
 75
     0
 76
     1
 52
90.0
 41
0.05
 77
     0
 78
    13
 53
140.0
 43
256.2993424287065
 44
1.364162521780656
 45
0.7969542769451549
 46
9.1092334498002
 79
     2
 49
0.9525000000000002
 49
-10.4775
 53
85.00000000000001
 43
256.2993424287065
 44
1.364162521780656
 45
-9.552832144108998
 46
-1.762141298783348
 79
     2
 49
0.762
 49
-8.381999999999999
 53
190.451
 43
256.3657549287066
 44
2.123262521780645
 45
-8.755834391014593
 46
7.347125083297963
 79
     2
 49
0.8095
 49
-8.9045
 53
136.1842
 43
253.7593424287065
 44
1.364162521780656
 45
2.102116396636358
 46
13.5539520446065
 79
     2
 49
1.428749999999999
 49
-15.71625
 53
186.6356
 43
253.9345174287064
 44
2.493657521780647
 45
-12.37127779450246
 46
11.87021172331186
 79
     2
 49
1.21425
 49
-13.35675
 53
81.18400000000004
 43
253.7593424287065
 44
1.364162521780656
 45
-12.37125589302988
 46
11.87023029069669
 79
     2
 49
1.143
 49
-12.573
 53
111.0
 43
254.3943424287065
 44
2.634162521780666
 45
5.113275925838125
 46
7.580743991769164
 79
     2
 49
0.9525000000000002
 49
-10.4775
 53
56.00000000000004
 43
254.3943424287065
 44
2.634162521780666
 45
-9.209398306115962
 46
3.090101417382354
 79
     2
 49
0.762
 49
-8.381999999999999
 53
161.4514
 43
254.8204474287065
 44
3.265887521780655
 45
-4.096142885802871
 46
10.67082453850622
 79
     2
 49
0.8094999999999995
 49
-8.904499999999989
 53
127.5
 43
256.2993424287065
 44
1.364162521780656
 45
-4.227751943657655
 46
0.1544301625295911
 79
     6
 49
0.0
 49
-8.2804
 49
0.0
 49
-8.509
 49
0.0
 49
-8.41375
 53
97.49999999999994
 43
256.2993424287065
 44
1.364162521780656
 45
-5.009028740905975
 46
3.340983125515287
 79
     6
 49
0.0
 49
-4.851399999999999
 49
0.0
 49
-8.0899
 49
0.0
 49
-3.20675
 53
57.5
 43
256.2993424287065
 44
-1.46793747821934
 45
0.2864371996336733
 46
6.77952975834357
 79
     6
 49
0.0
 49
-3.175
 49
0.0
 49
-9.906
 49
0.0
 49
-13.1445
 53
47.5
 43
256.2993424287065
 44
-2.73793747821935
 45
-1.27132455166665
 46
7.406459069300902
 79
     6
 49
0.0
 49
-4.1275
 49
0.0
 49
-6.5786
 49
0.0
 49
-9.3345
 47
0.2823234372099757
 98
        1
 10
1582.866781341541
 20
-41.17871964398495
  0
LINE
  5
3F16
330
18
100
AcDbEntity
  8
OBJEKT
100
AcDbLine
 10
1586.522827782265
 20
-36.64266997866992
 30
0.0
 11
1586.522827782265
 21
-53.39213802574278
 31
0.0
  0
LINE
  5
3F17
330
18
100
AcDbEntity
  8
OBJEKT
100
AcDbLine
 10
1562.609192744681
 20
-55.03995630873055
 30
0.0
 11
1579.861700259419
 21
-50.41716085274476
 31
0.0
  0
LINE
  5
3F18
330
18
100
AcDbEntity
  8
OBJEKT
100
AcDbLine
 10
1549.619226982948
 20
-51.55930547316609
 30
0.0
 11
1562.609192744681
 21
-55.03995630873055
 31
0.0
  0
LINE
  5
3F19
330
18
100
AcDbEntity
  8
OBJEKT
100
AcDbLine
 10
1579.861700259419
 20
-50.41716085274476
 30
0.0
 11
1592.522827782265
 21
-56.07184397293673
 31
0.0
  0
LINE
  5
3F1A
330
18
100
AcDbEntity
  8
OBJEKT
100
AcDbLine
 10
1571.522827782264
 20
-36.6426699786698
 30
0.0
 11
1586.522827782265
 21
-36.6426699786698
 31
0.0
  0
LINE
  5
3F1B
330
18
100
AcDbEntity
  8
OBJEKT
100
AcDbLine
 10
1586.522827782265
 20
66.35733152133025
 30
0.0
 11
1586.522827782265
 21
111.3573315213302
 31
0.0
  0
LINE
  5
3F1C
330
18
100
AcDbEntity
  8
OBJEKT
100
AcDbLine
 10
1592.522827782265
 20
66.35733152133025
 30
0.0
 11
1592.522827782265
 21
111.3573315213302
 31
0.0
  0
LINE
  5
3F1D
330
18
100
AcDbEntity
  8
OBJEKT
100
AcDbLine
 10
1586.522827782265
 20
66.35733152133025
 30
0.0
 11
1592.522827782265
 21
66.35733152133025
 31
0.0
  0
LINE
  5
3F1E
330
18
100
AcDbEntity
  8
SCHRAFFUR
100
AcDbLine
 10
1609.965379675286
 20
116.5725821946099
 30
0.0
 11
1612.236855342566
 21
114.3011065273287
 31
0.0
  0
LINE
  5
3F1F
330
18
100
AcDbEntity
  8
SCHRAFFUR
100
AcDbLine
 10
1609.47642035848
 20
114.7313033757622
 30
0.0
 11
1611.345253132438
 21
112.862470601804
 31
0.0
  0
LINE
  5
3F20
330
18
100
AcDbEntity
  8
SCHRAFFUR
100
AcDbLine
 10
1609.859584705805
 20
115.513258096264
 30
0.0
 11
1611.847882675817
 21
113.5249601262512
 31
0.0
  0
LINE
  5
3F21
330
18
100
AcDbEntity
  8
SCHRAFFUR
100
AcDbLine
 10
1610.050183210424
 20
117.6528977272978
 30
0.0
 11
1612.487409597807
 21
115.2156713399146
 31
0.0
  0
ARC
  5
3F22
330
18
100
AcDbEntity
  8
OBJEKT
100
AcDbCircle
 10
1607.936017966293
 20
115.9709676463301
 30
0.0
 40
4.613636125
100
AcDbArc
 50
179.8231386107111
 51
358.7877214017904
  0
LINE
  5
3F23
330
18
100
AcDbEntity
  8
SCHRAFFUR
100
AcDbLine
 10
1608.833494711612
 20
114.2091099548037
 30
0.0
 11
1610.737406090025
 21
112.3051985763908
 31
0.0
  0
LINE
  5
3F24
330
18
100
AcDbEntity
  8
SCHRAFFUR
100
AcDbLine
 10
1607.883081839425
 20
113.9944037591633
 30
0.0
 11
1610.021768172179
 21
111.8557174264097
 31
0.0
  0
ARC
  5
3F25
330
18
100
AcDbEntity
  8
OBJEKT
100
AcDbCircle
 10
1607.936017966293
 20
115.9709676463301
 30
0.0
 40
1.977272625
100
AcDbArc
 50
180.0000000000032
 51
0.0
  0
LINE
  5
3F26
330
18
100
AcDbEntity
  8
SCHRAFFUR
100
AcDbLine
 10
1603.438133415001
 20
114.9439949801069
 30
0.0
 11
1606.909045300069
 21
111.4730830950393
 31
0.0
  0
LINE
  5
3F27
330
18
100
AcDbEntity
  8
SCHRAFFUR
100
AcDbLine
 10
1603.311656882565
 20
116.2355905803707
 30
0.0
 11
1608.183285056458
 21
111.3639624064773
 31
0.0
  0
LINE
  5
3F28
330
18
100
AcDbEntity
  8
SCHRAFFUR
100
AcDbLine
 10
1603.273068707328
 20
117.4392978234339
 30
0.0
 11
1609.183250809896
 21
111.5291157208663
 31
0.0
  0
LINE
  5
3F29
330
18
100
AcDbEntity
  8
SCHRAFFUR
100
AcDbLine
 10
1603.25622235571
 20
118.6212632428791
 30
0.0
 11
1605.959454079126
 21
115.9180315194629
 31
0.0
  0
LINE
  5
3F2A
330
18
100
AcDbEntity
  8
OBJEKT
100
AcDbLine
 10
1177.522827782265
 20
251.8573285213301
 30
0.0
 11
1571.522827782264
 21
251.8573285213301
 31
0.0
  0
LINE
  5
3F2B
330
18
100
AcDbEntity
  8
OBJEKT
100
AcDbLine
 10
1177.522827782265
 20
226.8573285213301
 30
0.0
 11
1571.522827782264
 21
226.8573285213301
 31
0.0
  0
LINE
  5
3F2C
330
18
100
AcDbEntity
  8
OBJEKT
100
AcDbLine
 10
1177.522827782265
 20
214.3573285213301
 30
0.0
 11
1586.522827782265
 21
214.3573285213301
 31
0.0
  0
LINE
  5
3F2D
330
18
100
AcDbEntity
  8
OBJEKT
100
AcDbLine
 10
1607.936017966293
 20
169.3573285213301
 30
0.0
 11
1153.755416263235
 21
169.3573285213302
 31
0.0
  0
LINE
  5
3F2E
330
18
100
AcDbEntity
  8
MITTELLINIE
 48
2.0
100
AcDbLine
 10
1615.832989592256
 20
140.3573300213302
 30
0.0
 11
1145.086689592544
 21
140.3573300213302
 31
0.0
  0
LINE
  5
3F2F
330
18
100
AcDbEntity
  8
SCHRAFFUR
100
AcDbLine
 10
1158.136955836644
 20
155.4009384299943
 30
0.0
 11
1156.000672131152
 21
157.5372221354865
 31
0.0
  0
LINE
  5
3F30
330
18
100
AcDbEntity
  8
SCHRAFFUR
100
AcDbLine
 10
1158.02835637601
 20
154.3444188228022
 30
0.0
 11
1156.00003375142
 21
156.3727414473927
 31
0.0
  0
LINE
  5
3F31
330
18
100
AcDbEntity
  8
SCHRAFFUR
100
AcDbLine
 10
1151.360122816051
 20
155.1870570436276
 30
0.0
 11
1149.113037890116
 21
157.4341419695623
 31
0.0
  0
LINE
  5
3F32
330
18
100
AcDbEntity
  8
SCHRAFFUR
100
AcDbLine
 10
1151.36880598256
 20
154.0132548092917
 30
0.0
 11
1149.172603966074
 21
156.2094568257785
 31
0.0
  0
ARC
  5
3F33
330
18
100
AcDbEntity
  8
OBJEKT
100
AcDbCircle
 10
1044.950107124807
 20
157.0158606252334
 30
0.0
 40
111.0517888467034
100
AcDbArc
 50
347.9965233242389
 51
3.990302906210332
  0
ARC
  5
3F34
330
18
100
AcDbEntity
  8
OBJEKT
100
AcDbCircle
 10
1256.454173831143
 20
155.37755387196
 30
0.0
 40
105.0942236652629
100
AcDbArc
 50
174.886939283267
 51
191.7810062091852
  0
ARC
  5
3F35
330
18
100
AcDbEntity
  8
OBJEKT
100
AcDbCircle
 10
1231.103661953129
 20
160.8082000711676
 30
0.0
 40
82.06001890272291
100
AcDbArc
 50
176.9917036817516
 51
199.1268897761095
  0
ARC
  5
3F36
330
18
100
AcDbEntity
  8
OBJEKT
100
AcDbCircle
 10
1091.382218036422
 20
161.7288046738151
 30
0.0
 40
67.05398504172752
100
AcDbArc
 50
348.3301833460132
 51
2.969794848390988
  0
ARC
  5
3F37
330
18
100
AcDbEntity
  8
OBJEKT
100
AcDbCircle
 10
979.3157711024864
 20
183.9927487934317
 30
0.0
 40
181.3093813773912
100
AcDbArc
 50
343.9681728105983
 51
348.9237594855976
  0
LINE
  5
3F38
330
18
100
AcDbEntity
  8
SCHRAFFUR
100
AcDbLine
 10
1154.423290276833
 20
136.9773417010984
 30
0.0
 11
1154.216723600685
 21
137.1839083772472
 31
0.0
  0
LINE
  5
3F39
330
18
100
AcDbEntity
  8
SCHRAFFUR
100
AcDbLine
 10
1153.921967767023
 20
135.1484260752555
 30
0.0
 11
1153.843384149193
 21
135.2270096930859
 31
0.0
  0
LINE
  5
3F3A
330
18
100
AcDbEntity
  8
SCHRAFFUR
100
AcDbLine
 10
1154.174646772363
 20
136.0608661377421
 30
0.0
 11
1154.033873171523
 21
136.2016397385823
 31
0.0
  0
LINE
  5
3F3B
330
18
100
AcDbEntity
  8
SCHRAFFUR
100
AcDbLine
 10
1153.183034820794
 20
135.8873590214843
 30
0.0
 11
1152.797402821694
 21
136.2729910205842
 31
0.0
  0
LINE
  5
3F3C
330
18
100
AcDbEntity
  8
SCHRAFFUR
100
AcDbLine
 10
1153.665288902576
 20
134.2399858718761
 30
0.0
 11
1153.645393232427
 21
134.2598815420243
 31
0.0
  0
LINE
  5
3F3D
330
18
100
AcDbEntity
  8
SCHRAFFUR
100
AcDbLine
 10
1153.467094670699
 20
134.4381801037531
 30
0.0
 11
1153.359723361195
 21
134.5455514132565
 31
0.0
  0
LINE
  5
3F3E
330
18
100
AcDbEntity
  8
SCHRAFFUR
100
AcDbLine
 10
1156.679274365168
 20
146.3725482910307
 30
0.0
 11
1155.590142557382
 21
147.4616800988162
 31
0.0
  0
LINE
  5
3F3F
330
18
100
AcDbEntity
  8
SCHRAFFUR
100
AcDbLine
 10
1151.835541059241
 20
145.390686257824
 30
0.0
 11
1150.211165075264
 21
147.0150622418008
 31
0.0
  0
LINE
  5
3F40
330
18
100
AcDbEntity
  8
SCHRAFFUR
100
AcDbLine
 10
1154.908323846549
 20
138.8225462670358
 30
0.0
 11
1154.558930999356
 21
139.1719391142285
 31
0.0
  0
LINE
  5
3F41
330
18
100
AcDbEntity
  8
SCHRAFFUR
100
AcDbLine
 10
1151.967481702835
 20
144.0936265464038
 30
0.0
 11
1150.46618330882
 21
145.5949249404184
 31
0.0
  0
LINE
  5
3F42
330
18
100
AcDbEntity
  8
SCHRAFFUR
100
AcDbLine
 10
1154.667861770068
 20
137.8978892756902
 30
0.0
 11
1154.391792633757
 21
138.1739584120013
 31
0.0
  0
LINE
  5
3F43
330
18
100
AcDbEntity
  8
SCHRAFFUR
100
AcDbLine
 10
1152.478151924527
 20
140.087599121231
 30
0.0
 11
1151.438759079652
 21
141.1269919661064
 31
0.0
  0
LINE
  5
3F44
330
18
100
AcDbEntity
  8
SCHRAFFUR
100
AcDbLine
 10
1152.287841154745
 20
141.4430289588398
 30
0.0
 11
1151.076996906969
 21
142.6538732066161
 31
0.0
  0
LINE
  5
3F45
330
18
100
AcDbEntity
  8
SCHRAFFUR
100
AcDbLine
 10
1152.924484894688
 20
137.3110280154174
 30
0.0
 11
1152.294013375884
 21
137.9414995342211
 31
0.0
  0
LINE
  5
3F46
330
18
100
AcDbEntity
  8
SCHRAFFUR
100
AcDbLine
 10
1152.689966752563
 20
138.7106652253689
 30
0.0
 11
1151.842935142551
 21
139.5576968353805
 31
0.0
  0
LINE
  5
3F47
330
18
100
AcDbEntity
  8
SCHRAFFUR
100
AcDbLine
 10
1152.117947416385
 20
142.7780417650264
 30
0.0
 11
1150.753874842838
 21
144.1421143385739
 31
0.0
  0
LINE
  5
3F48
330
18
100
AcDbEntity
  8
SCHRAFFUR
100
AcDbLine
 10
1156.473151332516
 20
145.413552255856
 30
0.0
 11
1155.492745886258
 21
146.3939577021136
 31
0.0
  0
LINE
  5
3F49
330
18
100
AcDbEntity
  8
SCHRAFFUR
100
AcDbLine
 10
1156.262583834536
 20
144.4590006860093
 30
0.0
 11
1155.385936621915
 21
145.3356478986307
 31
0.0
  0
LINE
  5
3F4A
330
18
100
AcDbEntity
  8
SCHRAFFUR
100
AcDbLine
 10
1156.047617539355
 20
143.5088479133634
 30
0.0
 11
1155.269933118638
 21
144.2865323340813
 31
0.0
  0
LINE
  5
3F4B
330
18
100
AcDbEntity
  8
SCHRAFFUR
100
AcDbLine
 10
1155.82829696249
 20
142.5630494224023
 30
0.0
 11
1155.144942999188
 21
143.2464033857041
 31
0.0
  0
LINE
  5
3F4C
330
18
100
AcDbEntity
  8
SCHRAFFUR
100
AcDbLine
 10
1155.144638177952
 20
139.7513510034602
 30
0.0
 11
1154.717982564118
 21
140.1780066172933
 31
0.0
  0
LINE
  5
3F4D
330
18
100
AcDbEntity
  8
SCHRAFFUR
100
AcDbLine
 10
1155.376765484323
 20
140.684342764915
 30
0.0
 11
1154.868783907022
 21
141.1923243422168
 31
0.0
  0
LINE
  5
3F4E
330
18
100
AcDbEntity
  8
SCHRAFFUR
100
AcDbLine
 10
1155.604665504043
 20
141.6215618130218
 30
0.0
 11
1155.011163858287
 21
142.2150634587779
 31
0.0
  0
LINE
  5
3F4F
330
18
100
AcDbEntity
  8
SCHRAFFUR
100
AcDbLine
 10
1151.390928653083
 20
152.826013070942
 30
0.0
 11
1149.251944284396
 21
154.9649974396297
 31
0.0
  0
LINE
  5
3F50
330
18
100
AcDbEntity
  8
SCHRAFFUR
100
AcDbLine
 10
1151.72129843668
 20
146.6700479482125
 30
0.0
 11
1149.986430462968
 21
148.404915921924
 31
0.0
  0
LINE
  5
3F51
330
18
100
AcDbEntity
  8
SCHRAFFUR
100
AcDbLine
 10
1151.623994040328
 20
147.9324714123903
 30
0.0
 11
1149.789892000401
 21
149.7665734523174
 31
0.0
  0
LINE
  5
3F52
330
18
100
AcDbEntity
  8
SCHRAFFUR
100
AcDbLine
 10
1151.542927910911
 20
149.1786566096346
 30
0.0
 11
1149.61971333864
 21
151.1018711819055
 31
0.0
  0
LINE
  5
3F53
330
18
100
AcDbEntity
  8
SCHRAFFUR
100
AcDbLine
 10
1151.477453530821
 20
150.4092500575511
 30
0.0
 11
1149.474268792603
 21
152.4124347957685
 31
0.0
  0
LINE
  5
3F54
330
18
100
AcDbEntity
  8
SCHRAFFUR
100
AcDbLine
 10
1151.426972286849
 20
151.62485036935
 30
0.0
 11
1149.352110922783
 21
153.6997117334158
 31
0.0
  0
LINE
  5
3F55
330
18
100
AcDbEntity
  8
SCHRAFFUR
100
AcDbLine
 10
1157.766560673826
 20
152.275976389333
 30
0.0
 11
1155.963067685694
 21
154.0794693774653
 31
0.0
  0
LINE
  5
3F56
330
18
100
AcDbEntity
  8
SCHRAFFUR
100
AcDbLine
 10
1157.904709204439
 20
153.3029469265462
 30
0.0
 11
1155.987378736258
 21
155.220277394727
 31
0.0
  0
LINE
  5
3F57
330
18
100
AcDbEntity
  8
SCHRAFFUR
100
AcDbLine
 10
1157.078489085447
 20
148.3035717064054
 30
0.0
 11
1157.077998363947
 21
148.3040624279049
 31
0.0
  0
LINE
  5
3F58
330
18
100
AcDbEntity
  8
SCHRAFFUR
100
AcDbLine
 10
1156.880906072885
 20
147.3360356511403
 30
0.0
 11
1155.677896780147
 21
148.5390449438782
 31
0.0
  0
LINE
  5
3F59
330
18
100
AcDbEntity
  8
SCHRAFFUR
100
AcDbLine
 10
1157.448738230331
 20
150.263560697174
 30
0.0
 11
1155.88081540743
 21
151.8314835200752
 31
0.0
  0
LINE
  5
3F5A
330
18
100
AcDbEntity
  8
SCHRAFFUR
100
AcDbLine
 10
1157.269962581931
 20
149.2772172777478
 30
0.0
 11
1155.823495816218
 21
150.7236840434606
 31
0.0
  0
LINE
  5
3F5B
330
18
100
AcDbEntity
  8
SCHRAFFUR
100
AcDbLine
 10
1157.074956429843
 20
148.28891416455
 30
0.0
 11
1155.754627868951
 21
149.6092427254423
 31
0.0
  0
LINE
  5
3F5C
330
18
100
AcDbEntity
  8
SCHRAFFUR
100
AcDbLine
 10
1157.614414938594
 20
151.2630030567377
 30
0.0
 11
1155.927439966975
 21
152.949978028357
 31
0.0
  0
ARC
  5
3F5D
330
18
100
AcDbEntity
  8
OBJEKT
100
AcDbCircle
 10
1153.755416263235
 20
164.7436923963302
 30
0.0
 40
1.977272625
100
AcDbArc
 50
0.0000000000032569
 51
180.0
  0
LINE
  5
3F5E
330
18
100
AcDbEntity
  8
SCHRAFFUR
100
AcDbLine
 10
1158.418365522199
 20
163.2753622192264
 30
0.0
 11
1152.508183419632
 21
169.1855443217941
 31
0.0
  0
LINE
  5
3F5F
330
18
100
AcDbEntity
  8
SCHRAFFUR
100
AcDbLine
 10
1158.379777346963
 20
164.4790694622897
 30
0.0
 11
1153.508149173069
 21
169.350697636183
 31
0.0
  0
LINE
  5
3F60
330
18
100
AcDbEntity
  8
SCHRAFFUR
100
AcDbLine
 10
1151.726054554242
 20
164.1420778480505
 30
0.0
 11
1149.454578886961
 21
166.4135535153318
 31
0.0
  0
LINE
  5
3F61
330
18
100
AcDbEntity
  8
SCHRAFFUR
100
AcDbLine
 10
1151.641251019103
 20
163.0617623153626
 30
0.0
 11
1149.20402463172
 21
165.4989887027457
 31
0.0
  0
ARC
  5
3F62
330
18
100
AcDbEntity
  8
OBJEKT
100
AcDbCircle
 10
1153.755416263235
 20
164.7436923963302
 30
0.0
 40
4.613636125
100
AcDbArc
 50
359.8231386107112
 51
178.7877214017904
  0
LINE
  5
3F63
330
18
100
AcDbEntity
  8
SCHRAFFUR
100
AcDbLine
 10
1151.566979924926
 20
161.9709143417122
 30
0.0
 11
1149.122944355004
 21
164.414949911635
 31
0.0
  0
LINE
  5
3F64
330
18
100
AcDbEntity
  8
SCHRAFFUR
100
AcDbLine
 10
1151.364429632274
 20
156.3478692952313
 30
0.0
 11
1149.072292097542
 21
158.640006829963
 31
0.0
  0
LINE
  5
3F65
330
18
100
AcDbEntity
  8
SCHRAFFUR
100
AcDbLine
 10
1151.410357915502
 20
158.632179147657
 30
0.0
 11
1149.043864107925
 21
160.9986729552334
 31
0.0
  0
LINE
  5
3F66
330
18
100
AcDbEntity
  8
SCHRAFFUR
100
AcDbLine
 10
1151.381305976577
 20
157.4961120187545
 30
0.0
 11
1149.04949842405
 21
159.8279195712818
 31
0.0
  0
LINE
  5
3F67
330
18
100
AcDbEntity
  8
SCHRAFFUR
100
AcDbLine
 10
1151.503532111494
 20
160.8692430873187
 30
0.0
 11
1149.081227894898
 21
163.2915473039142
 31
0.0
  0
LINE
  5
3F68
330
18
100
AcDbEntity
  8
SCHRAFFUR
100
AcDbLine
 10
1151.451215773061
 20
159.7564403579246
 30
0.0
 11
1149.054662971635
 21
162.1529931593506
 31
0.0
  0
LINE
  5
3F69
330
18
100
AcDbEntity
  8
SCHRAFFUR
100
AcDbLine
 10
1158.435211873818
 20
162.0933967997814
 30
0.0
 11
1155.731980150402
 21
164.7966285231974
 31
0.0
  0
LINE
  5
3F6A
330
18
100
AcDbEntity
  8
SCHRAFFUR
100
AcDbLine
 10
1158.229914109032
 20
156.4730992254339
 30
0.0
 11
1155.988910154552
 21
158.714103179914
 31
0.0
  0
LINE
  5
3F6B
330
18
100
AcDbEntity
  8
SCHRAFFUR
100
AcDbLine
 10
1158.306584882781
 20
157.5615475195112
 30
0.0
 11
1155.964338868159
 21
159.9037935341334
 31
0.0
  0
LINE
  5
3F6C
330
18
100
AcDbEntity
  8
SCHRAFFUR
100
AcDbLine
 10
1158.43146892887
 20
160.9320206769026
 30
0.0
 11
1155.809249268302
 21
163.5542403374707
 31
0.0
  0
LINE
  5
3F6D
330
18
100
AcDbEntity
  8
SCHRAFFUR
100
AcDbLine
 10
1158.408173533385
 20
159.7901970045607
 30
0.0
 11
1155.874991882047
 21
162.323378655898
 31
0.0
  0
LINE
  5
3F6E
330
18
100
AcDbEntity
  8
SCHRAFFUR
100
AcDbLine
 10
1158.366262370614
 20
158.6669890995045
 30
0.0
 11
1155.926521717436
 21
161.1067297526833
 31
0.0
  0
LINE
  5
3F6F
330
18
100
AcDbEntity
  8
SCHRAFFUR
100
AcDbLine
 10
1152.857939517916
 20
166.5055500878567
 30
0.0
 11
1150.954028139503
 21
168.4094614662695
 31
0.0
  0
LINE
  5
3F70
330
18
100
AcDbEntity
  8
SCHRAFFUR
100
AcDbLine
 10
1153.808352390102
 20
166.720256283497
 30
0.0
 11
1151.669666057348
 21
168.8589426162506
 31
0.0
  0
LINE
  5
3F71
330
18
100
AcDbEntity
  8
SCHRAFFUR
100
AcDbLine
 10
1151.831849523722
 20
165.2014019463965
 30
0.0
 11
1149.843551553709
 21
167.1896999164092
 31
0.0
  0
LINE
  5
3F72
330
18
100
AcDbEntity
  8
SCHRAFFUR
100
AcDbLine
 10
1152.215013871047
 20
165.9833566668982
 30
0.0
 11
1150.346181097089
 21
167.8521894408563
 31
0.0
  0
LINE
  5
3F73
330
18
100
AcDbEntity
  8
SCHRAFFUR
100
AcDbLine
 10
1158.253300814526
 20
165.7706650625534
 30
0.0
 11
1154.782388929458
 21
169.2415769476211
 31
0.0
  0
HATCH
  5
3F74
330
18
100
AcDbEntity
  8
SCHRAFFUR
100
AcDbHatch
 10
0.0
 20
0.0
 30
0.0
210
0.0
220
0.0
230
1.0
  2
AR-SAND
 70
     0
 71
     0
 91
        1
 92
        7
 72
     0
 73
     1
 93
        5
 10
1592.522827782265
 20
336.7865040155971
 10
1586.522827782265
 20
334.1067980684031
 10
1586.522827782265
 20
317.3573300213302
 10
1586.522827782265
 20
214.3573285213301
 10
1592.522827782264
 20
214.3573285213301
 97
        0
 75
     0
 76
     1
 52
90.0
 41
0.1
 77
     0
 78
     4
 53
127.5
 43
256.2993424287065
 44
1.364162521780656
 45
-4.894132373293423
 46
-0.1600031295984043
 79
     6
 49
0.0
 49
-3.8608
 49
0.0
 49
-4.318
 49
0.0
 49
-4.1275
 53
97.49999999999994
 43
256.2993424287065
 44
1.364162521780656
 45
-7.168251005683543
 46
4.495232831380026
 79
     6
 49
0.0
 49
-2.0828
 49
0.0
 49
-3.4798
 49
0.0
 49
-1.3335
 53
57.5
 43
256.2993424287065
 44
-1.760037478219345
 45
-0.0143718467854564
 46
7.909923702414579
 79
     6
 49
0.0
 49
-1.27
 49
0.0
 49
-4.572
 49
0.0
 49
-5.969
 53
47.5
 43
256.2993424287065
 44
-1.760037478219345
 45
-2.229293232572161
 46
7.635564524722972
 79
     6
 49
0.0
 49
-0.635
 49
0.0
 49
-2.997199999999999
 49
0.0
 49
-3.429
 47
0.3554969354499438
 98
        1
 10
1589.787484670268
 20
282.7882096091956
  0
HATCH
  5
3F75
330
18
100
AcDbEntity
  8
SCHRAFFUR
 62
     7
100
AcDbHatch
 10
0.0
 20
0.0
 30
0.0
210
0.0
220
0.0
230
1.0
  2
ANSI31
 70
     0
 71
     0
 91
        1
 92
        7
 72
     0
 73
     1
 93
        4
 10
1586.522827782265
 20
317.3573300213302
 10
1571.522827782264
 20
317.3573300213302
 10
1571.522827782264
 20
214.3573285213301
 10
1586.522827782265
 20
214.3573285213301
 97
        0
 75
     0
 76
     1
 52
90.0
 41
1.0
 77
     0
 78
     1
 53
135.0
 43
623.408888922509
 44
1.364162521780656
 45
-2.245064030267288
 46
-2.245064030267287
 79
     0
 47
0.4759070100358664
 98
        1
 10
1583.474042015067
 20
266.4248055378769
  0
LINE
  5
3F76
330
18
100
AcDbEntity
  8
OBJEKT
100
AcDbLine
 10
1586.522827782265
 20
317.3573300213302
 30
0.0
 11
1586.522827782265
 21
214.3573285213301
 31
0.0
  0
LINE
  5
3F77
330
18
100
AcDbEntity
  8
OBJEKT
100
AcDbLine
 10
1592.522827782265
 20
214.3573285213301
 30
0.0
 11
1592.522827782265
 21
336.7865040155971
 31
0.0
  0
LINE
  5
3F78
330
18
100
AcDbEntity
  8
OBJEKT
100
AcDbLine
 10
1571.522827782264
 20
333.3662150414448
 30
0.0
 11
1571.522827782264
 21
169.3573285213301
 31
0.0
  0
ARC
  5
3F79
330
18
100
AcDbEntity
  8
SCHRAFFUR
100
AcDbCircle
 10
1402.488597714402
 20
279.8573285213302
 30
0.0
 40
6.0
100
AcDbArc
 50
257.3196165081785
 51
102.6803834918214
  0
ARC
  5
3F7A
330
18
100
AcDbEntity
  8
SCHRAFFUR
100
AcDbCircle
 10
1334.488597714402
 20
285.8573285213303
 30
0.0
 40
6.0
100
AcDbArc
 50
77.31961650817855
 51
282.6803834918215
  0
LINE
  5
3F7B
330
18
100
AcDbEntity
  8
SCHRAFFUR
100
AcDbLine
 10
1335.805670885133
 20
280.0036699847447
 30
0.0
 11
1401.17152454367
 21
285.7109870579155
 31
0.0
  0
LINE
  5
3F7C
330
18
100
AcDbEntity
  8
OBJEKT
100
AcDbLine
 10
1328.488597714402
 20
251.8573285213302
 30
0.0
 11
1328.488597714402
 21
331.7072916193327
 31
0.0
  0
LINE
  5
3F7D
330
18
100
AcDbEntity
  8
OBJEKT
100
AcDbLine
 10
1408.488597714401
 20
251.8573285213302
 30
0.0
 11
1408.488597714401
 21
328.3026179267697
 31
0.0
  0
LINE
  5
3F7E
330
18
100
AcDbEntity
  8
OBJEKT
100
AcDbLine
 10
1592.522827782265
 20
214.3573285213301
 30
0.0
 11
1592.522827782265
 21
169.3573285213301
 31
0.0
  0
LINE
  5
3F7F
330
18
100
AcDbEntity
  8
OBJEKT
100
AcDbLine
 10
1586.522827782265
 20
214.3573285213301
 30
0.0
 11
1586.522827782265
 21
169.3573285213301
 31
0.0
  0
ARC
  5
3F80
330
18
100
AcDbEntity
  8
OBJEKT
100
AcDbCircle
 10
1881.419832212028
 20
86.02465358093093
 30
0.0
 40
279.9768187073799
100
AcDbArc
 50
163.9752945424147
 51
167.4640220200583
  0
LINE
  5
3F81
330
18
100
AcDbEntity
  8
SCHRAFFUR
100
AcDbLine
 10
1609.573486813142
 20
137.9366182776339
 30
0.0
 11
1610.937559386689
 21
136.5725457040865
 31
0.0
  0
ARC
  5
3F82
330
18
100
AcDbEntity
  8
OBJEKT
100
AcDbCircle
 10
1782.375663127042
 20
96.72191124922859
 30
0.0
 40
181.3093813773912
100
AcDbArc
 50
163.9681728105983
 51
168.9237594855976
  0
LINE
  5
3F83
330
18
100
AcDbEntity
  8
SCHRAFFUR
100
AcDbLine
 10
1610.264461942678
 20
129.0898096733103
 30
0.0
 11
1612.339323306744
 21
127.0149483092445
 31
0.0
  0
LINE
  5
3F84
330
18
100
AcDbEntity
  8
SCHRAFFUR
100
AcDbLine
 10
1603.924873555701
 20
128.4386836533274
 30
0.0
 11
1605.728366543834
 21
126.6351906651951
 31
0.0
  0
LINE
  5
3F85
330
18
100
AcDbEntity
  8
SCHRAFFUR
100
AcDbLine
 10
1604.077019290933
 20
129.4516569859226
 30
0.0
 11
1605.763994262552
 21
127.7646820143033
 31
0.0
  0
LINE
  5
3F86
330
18
100
AcDbEntity
  8
SCHRAFFUR
100
AcDbLine
 10
1610.300505576444
 20
127.8886469717184
 30
0.0
 11
1612.439489945131
 21
125.7496626030306
 31
0.0
  0
LINE
  5
3F87
330
18
100
AcDbEntity
  8
SCHRAFFUR
100
AcDbLine
 10
1610.331311413476
 20
125.5276029990328
 30
0.0
 11
1612.578396339411
 21
123.2805180730981
 31
0.0
  0
LINE
  5
3F88
330
18
100
AcDbEntity
  8
SCHRAFFUR
100
AcDbLine
 10
1610.281076314025
 20
122.0824808950033
 30
0.0
 11
1612.647570121602
 21
119.7159870874269
 31
0.0
  0
LINE
  5
3F89
330
18
100
AcDbEntity
  8
SCHRAFFUR
100
AcDbLine
 10
1610.327004597253
 20
124.3667907474291
 30
0.0
 11
1612.619142131985
 21
122.0746532126973
 31
0.0
  0
LINE
  5
3F8A
330
18
100
AcDbEntity
  8
SCHRAFFUR
100
AcDbLine
 10
1610.31012825295
 20
123.2185480239058
 30
0.0
 11
1612.641935805477
 21
120.8867404713785
 31
0.0
  0
LINE
  5
3F8B
330
18
100
AcDbEntity
  8
SCHRAFFUR
100
AcDbLine
 10
1610.322628246967
 20
126.7014052333687
 30
0.0
 11
1612.518830263454
 21
124.5052032168819
 31
0.0
  0
LINE
  5
3F8C
330
18
100
AcDbEntity
  8
SCHRAFFUR
100
AcDbLine
 10
1603.786725025088
 20
127.4117131161141
 30
0.0
 11
1605.704055493269
 21
125.4943826479334
 31
0.0
  0
LINE
  5
3F8D
330
18
100
AcDbEntity
  8
SCHRAFFUR
100
AcDbLine
 10
1603.663077853517
 20
126.3702412198582
 30
0.0
 11
1605.691400478107
 21
124.3419185952677
 31
0.0
  0
LINE
  5
3F8E
330
18
100
AcDbEntity
  8
SCHRAFFUR
100
AcDbLine
 10
1603.554478392883
 20
125.313721612666
 30
0.0
 11
1605.690762098374
 21
123.177437907174
 31
0.0
  0
LINE
  5
3F8F
330
18
100
AcDbEntity
  8
SCHRAFFUR
100
AcDbLine
 10
1603.461520120496
 20
124.2415608172265
 30
0.0
 11
1605.702524074976
 21
122.0005568627463
 31
0.0
  0
LINE
  5
3F90
330
18
100
AcDbEntity
  8
SCHRAFFUR
100
AcDbLine
 10
1603.384849346746
 20
123.1531125231491
 30
0.0
 11
1605.727095361369
 21
120.8108665085269
 31
0.0
  0
LINE
  5
3F91
330
18
100
AcDbEntity
  8
SCHRAFFUR
100
AcDbLine
 10
1603.325171858913
 20
122.0476709431558
 30
0.0
 11
1605.764912512091
 21
119.6079302899771
 31
0.0
  0
LINE
  5
3F92
330
18
100
AcDbEntity
  8
SCHRAFFUR
100
AcDbLine
 10
1609.723952526693
 20
136.6210334962564
 30
0.0
 11
1611.225250920707
 21
135.1197351022419
 31
0.0
  0
LINE
  5
3F93
330
18
100
AcDbEntity
  8
SCHRAFFUR
100
AcDbLine
 10
1610.213980698706
 20
130.3054099851093
 30
0.0
 11
1612.217165436924
 21
128.3022252468919
 31
0.0
  0
LINE
  5
3F94
330
18
100
AcDbEntity
  8
SCHRAFFUR
100
AcDbLine
 10
1610.148506318617
 20
131.5360034330257
 30
0.0
 11
1612.071720890888
 21
129.6127888607548
 31
0.0
  0
LINE
  5
3F95
330
18
100
AcDbEntity
  8
SCHRAFFUR
100
AcDbLine
 10
1610.067440189199
 20
132.7821886302701
 30
0.0
 11
1611.901542229126
 21
130.9480865903429
 31
0.0
  0
LINE
  5
3F96
330
18
100
AcDbEntity
  8
SCHRAFFUR
100
AcDbLine
 10
1609.970135792848
 20
134.0446120944479
 30
0.0
 11
1611.705003766559
 21
132.3097441207364
 31
0.0
  0
LINE
  5
3F97
330
18
100
AcDbEntity
  8
SCHRAFFUR
100
AcDbLine
 10
1609.855893170286
 20
135.3239737848363
 30
0.0
 11
1611.480269154263
 21
133.6995978008595
 31
0.0
  0
LINE
  5
3F98
330
18
100
AcDbEntity
  8
SCHRAFFUR
100
AcDbLine
 10
1605.428850394991
 20
136.255659356651
 30
0.0
 11
1606.305497607612
 21
135.3790121440298
 31
0.0
  0
LINE
  5
3F99
330
18
100
AcDbEntity
  8
SCHRAFFUR
100
AcDbLine
 10
1605.643816690172
 20
137.2058121292969
 30
0.0
 11
1606.42150111089
 21
136.428127708579
 31
0.0
  0
LINE
  5
3F9A
330
18
100
AcDbEntity
  8
SCHRAFFUR
100
AcDbLine
 10
1604.61294514408
 20
132.411088336255
 30
0.0
 11
1604.61343586558
 21
132.4105976147554
 31
0.0
  0
LINE
  5
3F9B
330
18
100
AcDbEntity
  8
SCHRAFFUR
100
AcDbLine
 10
1604.616477799684
 20
132.4257458781104
 30
0.0
 11
1605.936806360577
 21
131.105417317218
 31
0.0
  0
LINE
  5
3F9C
330
18
100
AcDbEntity
  8
SCHRAFFUR
100
AcDbLine
 10
1604.810528156642
 20
133.3786243915201
 30
0.0
 11
1606.01353744938
 21
132.1756150987822
 31
0.0
  0
LINE
  5
3F9D
330
18
100
AcDbEntity
  8
SCHRAFFUR
100
AcDbLine
 10
1605.012159864359
 20
134.3421117516297
 30
0.0
 11
1606.101291672145
 21
133.2529799438441
 31
0.0
  0
LINE
  5
3F9E
330
18
100
AcDbEntity
  8
SCHRAFFUR
100
AcDbLine
 10
1605.218282897012
 20
135.3011077868043
 30
0.0
 11
1606.198688343269
 21
134.3207023405468
 31
0.0
  0
LINE
  5
3F9F
330
18
100
AcDbEntity
  8
SCHRAFFUR
100
AcDbLine
 10
1604.421471647597
 20
131.4374427649126
 30
0.0
 11
1605.867938413309
 21
129.9909759991997
 31
0.0
  0
LINE
  5
3FA0
330
18
100
AcDbEntity
  8
SCHRAFFUR
100
AcDbLine
 10
1604.242695999196
 20
130.4510993454863
 30
0.0
 11
1605.810618822097
 21
128.8831765225851
 31
0.0
  0
LINE
  5
3FA1
330
18
100
AcDbEntity
  8
SCHRAFFUR
100
AcDbLine
 10
1608.026145326952
 20
146.4746741707843
 30
0.0
 11
1608.0460409971
 21
146.4547785006361
 31
0.0
  0
LINE
  5
3FA2
330
18
100
AcDbEntity
  8
SCHRAFFUR
100
AcDbLine
 10
1607.769466462504
 20
145.5662339674048
 30
0.0
 11
1607.848050080335
 21
145.4876503495745
 31
0.0
  0
LINE
  5
3FA3
330
18
100
AcDbEntity
  8
SCHRAFFUR
100
AcDbLine
 10
1607.516787457164
 20
144.6537939049182
 30
0.0
 11
1607.657561058005
 21
144.5130203040782
 31
0.0
  0
LINE
  5
3FA4
330
18
100
AcDbEntity
  8
SCHRAFFUR
100
AcDbLine
 10
1607.268143952694
 20
143.737318341562
 30
0.0
 11
1607.474710628842
 21
143.5307516654131
 31
0.0
  0
LINE
  5
3FA5
330
18
100
AcDbEntity
  8
SCHRAFFUR
100
AcDbLine
 10
1608.224339558829
 20
146.2764799389072
 30
0.0
 11
1608.331710868332
 21
146.1691086294038
 31
0.0
  0
LINE
  5
3FA6
330
18
100
AcDbEntity
  8
SCHRAFFUR
100
AcDbLine
 10
1608.508399408733
 20
144.827301021176
 30
0.0
 11
1608.894031407833
 21
144.4416690220761
 31
0.0
  0
LINE
  5
3FA7
330
18
100
AcDbEntity
  8
SCHRAFFUR
100
AcDbLine
 10
1609.403593074782
 20
139.2716310838205
 30
0.0
 11
1610.614437322558
 21
138.0607868360442
 31
0.0
  0
LINE
  5
3FA8
330
18
100
AcDbEntity
  8
SCHRAFFUR
100
AcDbLine
 10
1609.213282305
 20
140.6270609214294
 30
0.0
 11
1610.252675149875
 21
139.5876680765539
 31
0.0
  0
LINE
  5
3FA9
330
18
100
AcDbEntity
  8
SCHRAFFUR
100
AcDbLine
 10
1609.001467476964
 20
142.0039948172914
 30
0.0
 11
1609.848499086976
 21
141.1569632072797
 31
0.0
  0
LINE
  5
3FAA
330
18
100
AcDbEntity
  8
SCHRAFFUR
100
AcDbLine
 10
1607.023572459459
 20
142.8167707669702
 30
0.0
 11
1607.29964159577
 21
142.540701630659
 31
0.0
  0
LINE
  5
3FAB
330
18
100
AcDbEntity
  8
SCHRAFFUR
100
AcDbLine
 10
1606.314668745204
 20
140.0303172777454
 30
0.0
 11
1606.822650322505
 21
139.5223357004435
 31
0.0
  0
LINE
  5
3FAC
330
18
100
AcDbEntity
  8
SCHRAFFUR
100
AcDbLine
 10
1605.863137267038
 20
138.151610620258
 30
0.0
 11
1606.546491230339
 21
137.4682566569562
 31
0.0
  0
LINE
  5
3FAD
330
18
100
AcDbEntity
  8
SCHRAFFUR
100
AcDbLine
 10
1606.086768725484
 20
139.0930982296385
 30
0.0
 11
1606.68027037124
 21
138.4995965838824
 31
0.0
  0
LINE
  5
3FAE
330
18
100
AcDbEntity
  8
SCHRAFFUR
100
AcDbLine
 10
1606.546796051576
 20
140.9633090392002
 30
0.0
 11
1606.973451665409
 21
140.5366534253671
 31
0.0
  0
LINE
  5
3FAF
330
18
100
AcDbEntity
  8
SCHRAFFUR
100
AcDbLine
 10
1606.783110382978
 20
141.8921137756246
 30
0.0
 11
1607.132503230171
 21
141.5427209284318
 31
0.0
  0
LINE
  5
3FB0
330
18
100
AcDbEntity
  8
SCHRAFFUR
100
AcDbLine
 10
1608.76694933484
 20
143.4036320272429
 30
0.0
 11
1609.397420853643
 21
142.7731605084393
 31
0.0
  0
ARC
  5
3FB1
330
18
100
AcDbEntity
  8
OBJEKT
100
AcDbCircle
 10
1606.114874430712
 20
164.1720622418075
 30
0.0
 40
6.237892863282242
100
AcDbArc
 50
350.0054277243054
 51
44.15303137421605
  0
ARC
  5
3FB2
330
18
100
AcDbEntity
  8
OBJEKT
100
AcDbCircle
 10
1607.936017966293
 20
164.7436923963302
 30
0.0
 40
4.613636125
100
AcDbArc
 50
54.87621821071286
 51
90.0
  0
ARC
  5
3FB3
330
18
100
AcDbEntity
  8
SCHRAFFUR
100
AcDbCircle
 10
1402.488597714402
 20
267.8573285213303
 30
0.0
 40
6.0
100
AcDbArc
 50
257.3196165081785
 51
102.6803834918214
  0
ARC
  5
3FB4
330
18
100
AcDbEntity
  8
SCHRAFFUR
100
AcDbCircle
 10
1334.488597714402
 20
261.8573285213302
 30
0.0
 40
6.0
100
AcDbArc
 50
77.31961650817855
 51
282.6803834918215
  0
LINE
  5
3FB5
330
18
100
AcDbEntity
  8
SCHRAFFUR
100
AcDbLine
 10
1335.805670885133
 20
267.7109870579155
 30
0.0
 11
1401.17152454367
 21
262.0036699847448
 31
0.0
  0
LINE
  5
3FB6
330
18
100
AcDbEntity
  8
SCHRAFFUR
100
AcDbLine
 10
1335.805670885133
 20
255.7109870579156
 30
0.0
 11
1392.933042158846
 21
251.8573285213302
 31
0.0
  0
LINE
  5
3FB7
330
18
100
AcDbEntity
  8
SCHRAFFUR
100
AcDbLine
 10
1335.805670885133
 20
256.0036699847448
 30
0.0
 11
1401.17152454367
 21
261.7109870579156
 31
0.0
  0
ARC
  5
3FB8
330
18
100
AcDbEntity
  8
SCHRAFFUR
100
AcDbCircle
 10
1334.488597714402
 20
249.8573285213302
 30
0.0
 40
6.0
100
AcDbArc
 50
77.31961650817855
 51
160.5287793655044
  0
ARC
  5
3FB9
330
18
100
AcDbEntity
  8
SCHRAFFUR
100
AcDbCircle
 10
1402.488597714402
 20
255.8573285213302
 30
0.0
 40
6.0
100
AcDbArc
 50
318.189685104225
 51
102.6803834918214
  0
LINE
  5
3FBA
330
18
100
AcDbEntity
  8
SCHRAFFUR
100
AcDbLine
 10
1335.805670885133
 20
268.0036699847448
 30
0.0
 11
1401.17152454367
 21
273.7109870579155
 31
0.0
  0
LINE
  5
3FBB
330
18
100
AcDbEntity
  8
SCHRAFFUR
100
AcDbLine
 10
1335.805670885133
 20
279.7109870579155
 30
0.0
 11
1401.17152454367
 21
274.0036699847447
 31
0.0
  0
ARC
  5
3FBC
330
18
100
AcDbEntity
  8
SCHRAFFUR
100
AcDbCircle
 10
1334.488597714402
 20
273.8573285213302
 30
0.0
 40
6.0
100
AcDbArc
 50
77.31961650817855
 51
282.6803834918215
  0
LINE
  5
3FBD
330
18
100
AcDbEntity
  8
OBJEKT
100
AcDbLine
 10
1586.522827782265
 20
214.3573285213301
 30
0.0
 11
1592.522827782265
 21
214.3573285213301
 31
0.0
  0
DIMENSION
  5
3FBE
330
18
100
AcDbEntity
  8
5
100
AcDbDimension
  2
*D11
 10
1586.522827782265
 20
360.9379926627733
 30
0.0
 11
1578.964956624238
 21
379.0699279998749
 31
0.0
 70
   160
 71
     5
 42
15.0
  3
ISOCP-2000-1-1
100
AcDbAlignedDimension
 13
1571.522827782264
 23
338.3662150414448
 33
0.0
 14
1586.522827782265
 24
339.1067980684031
 34
0.0
100
AcDbRotatedDimension
1001
ACAD
1000
DSTYLE
1002
{
1070
    40
1040
4.0
1070
   340
1005
1128
1002
}
  0
LINE
  5
3FBF
330
18
100
AcDbEntity
  8
SCHRAFFUR
100
AcDbLine
 10
1335.805670885133
 20
316.0036699847448
 30
0.0
 11
1401.17152454367
 21
321.7109870579155
 31
0.0
  0
ARC
  5
3FC0
330
18
100
AcDbEntity
  8
SCHRAFFUR
100
AcDbCircle
 10
1402.488597714402
 20
315.8573285213303
 30
0.0
 40
6.0
100
AcDbArc
 50
257.3196165081785
 51
102.6803834918214
  0
ARC
  5
3FC1
330
18
100
AcDbEntity
  8
SCHRAFFUR
100
AcDbCircle
 10
1334.488597714402
 20
321.8573285213303
 30
0.0
 40
6.0
100
AcDbArc
 50
88.4691684169187
 51
282.6803834918215
  0
ARC
  5
3FC2
330
18
100
AcDbEntity
  8
SCHRAFFUR
100
AcDbCircle
 10
1402.488597714402
 20
303.8573285213303
 30
0.0
 40
6.0
100
AcDbArc
 50
257.3196165081785
 51
102.6803834918214
  0
ARC
  5
3FC3
330
18
100
AcDbEntity
  8
SCHRAFFUR
100
AcDbCircle
 10
1334.488597714402
 20
297.8573285213303
 30
0.0
 40
6.0
100
AcDbArc
 50
77.31961650817855
 51
282.6803834918215
  0
LINE
  5
3FC4
330
18
100
AcDbEntity
  8
SCHRAFFUR
100
AcDbLine
 10
1335.805670885133
 20
303.7109870579155
 30
0.0
 11
1401.17152454367
 21
298.0036699847448
 31
0.0
  0
LINE
  5
3FC5
330
18
100
AcDbEntity
  8
SCHRAFFUR
100
AcDbLine
 10
1335.805670885133
 20
291.7109870579155
 30
0.0
 11
1401.17152454367
 21
286.0036699847448
 31
0.0
  0
LINE
  5
3FC6
330
18
100
AcDbEntity
  8
SCHRAFFUR
100
AcDbLine
 10
1335.805670885133
 20
292.0036699847448
 30
0.0
 11
1401.17152454367
 21
297.7109870579155
 31
0.0
  0
ARC
  5
3FC7
330
18
100
AcDbEntity
  8
SCHRAFFUR
100
AcDbCircle
 10
1402.488597714402
 20
291.8573285213303
 30
0.0
 40
6.0
100
AcDbArc
 50
257.3196165081785
 51
102.6803834918214
  0
LINE
  5
3FC8
330
18
100
AcDbEntity
  8
SCHRAFFUR
100
AcDbLine
 10
1335.805670885133
 20
304.0036699847448
 30
0.0
 11
1401.17152454367
 21
309.7109870579155
 31
0.0
  0
LINE
  5
3FC9
330
18
100
AcDbEntity
  8
SCHRAFFUR
100
AcDbLine
 10
1335.805670885133
 20
315.7109870579156
 30
0.0
 11
1401.17152454367
 21
310.0036699847448
 31
0.0
  0
ARC
  5
3FCA
330
18
100
AcDbEntity
  8
SCHRAFFUR
100
AcDbCircle
 10
1334.488597714402
 20
309.8573285213303
 30
0.0
 40
6.0
100
AcDbArc
 50
77.31961650817855
 51
282.6803834918215
  0
HATCH
  5
3FCB
330
18
100
AcDbEntity
  8
SCHRAFFUR
100
AcDbHatch
 10
0.0
 20
0.0
 30
0.0
210
0.0
220
0.0
230
1.0
  2
AR-CONC
 70
     0
 71
     0
 91
        1
 92
        7
 72
     0
 73
     1
 93
        5
 10
1586.522827782265
 20
334.1067980684031
 10
1579.861700259419
 20
331.1318208954052
 10
1571.522827782264
 20
333.3662150414448
 10
1571.522827782264
 20
317.3573300213302
 10
1586.522827782265
 20
317.3573300213302
 97
        0
 75
     0
 76
     1
 52
90.0
 41
0.05
 77
     0
 78
    13
 53
140.0
 43
256.2993424287065
 44
1.364162521780656
 45
0.7969542769451549
 46
9.1092334498002
 79
     2
 49
0.9525000000000002
 49
-10.4775
 53
85.00000000000001
 43
256.2993424287065
 44
1.364162521780656
 45
-9.552832144108998
 46
-1.762141298783348
 79
     2
 49
0.762
 49
-8.381999999999999
 53
190.451
 43
256.3657549287066
 44
2.123262521780645
 45
-8.755834391014593
 46
7.347125083297963
 79
     2
 49
0.8095
 49
-8.9045
 53
136.1842
 43
253.7593424287065
 44
1.364162521780656
 45
2.102116396636358
 46
13.5539520446065
 79
     2
 49
1.428749999999999
 49
-15.71625
 53
186.6356
 43
253.9345174287064
 44
2.493657521780647
 45
-12.37127779450246
 46
11.87021172331186
 79
     2
 49
1.21425
 49
-13.35675
 53
81.18400000000004
 43
253.7593424287065
 44
1.364162521780656
 45
-12.37125589302988
 46
11.87023029069669
 79
     2
 49
1.143
 49
-12.573
 53
111.0
 43
254.3943424287065
 44
2.634162521780666
 45
5.113275925838125
 46
7.580743991769164
 79
     2
 49
0.9525000000000002
 49
-10.4775
 53
56.00000000000004
 43
254.3943424287065
 44
2.634162521780666
 45
-9.209398306115962
 46
3.090101417382354
 79
     2
 49
0.762
 49
-8.381999999999999
 53
161.4514
 43
254.8204474287065
 44
3.265887521780655
 45
-4.096142885802871
 46
10.67082453850622
 79
     2
 49
0.8094999999999995
 49
-8.904499999999989
 53
127.5
 43
256.2993424287065
 44
1.364162521780656
 45
-4.227751943657655
 46
0.1544301625295911
 79
     6
 49
0.0
 49
-8.2804
 49
0.0
 49
-8.509
 49
0.0
 49
-8.41375
 53
97.49999999999994
 43
256.2993424287065
 44
1.364162521780656
 45
-5.009028740905975
 46
3.340983125515287
 79
     6
 49
0.0
 49
-4.851399999999999
 49
0.0
 49
-8.0899
 49
0.0
 49
-3.20675
 53
57.5
 43
256.2993424287065
 44
-1.46793747821934
 45
0.2864371996336733
 46
6.77952975834357
 79
     6
 49
0.0
 49
-3.175
 49
0.0
 49
-9.906
 49
0.0
 49
-13.1445
 53
47.5
 43
256.2993424287065
 44
-2.73793747821935
 45
-1.27132455166665
 46
7.406459069300902
 79
     6
 49
0.0
 49
-4.1275
 49
0.0
 49
-6.5786
 49
0.0
 49
-9.3345
 47
0.2823234372099757
 98
        1
 10
1582.866781341541
 20
321.8933796866452
  0
LINE
  5
3FCC
330
18
100
AcDbEntity
  8
OBJEKT
100
AcDbLine
 10
1586.522827782265
 20
317.3573300213302
 30
0.0
 11
1586.522827782265
 21
334.1067980684031
 31
0.0
  0
LINE
  5
3FCD
330
18
100
AcDbEntity
  8
OBJEKT
100
AcDbLine
 10
1571.522827782264
 20
317.3573300213302
 30
0.0
 11
1586.522827782265
 21
317.3573300213302
 31
0.0
  0
LINE
  5
4055
330
18
100
AcDbEntity
  8
OBJEKT
100
AcDbLine
 10
1177.522827782265
 20
-46.18098112767504
 30
0.0
 11
1177.522827782265
 21
111.3573315213302
 31
0.0
  0
HATCH
  5
4056
330
18
100
AcDbEntity
  8
OBJEKT
100
AcDbHatch
 10
0.0
 20
0.0
 30
0.0
210
0.0
220
0.0
230
1.0
  2
ANSI31
 70
     0
 71
     0
 91
        1
 92
        7
 72
     0
 73
     1
 93
        4
 10
1571.522827782264
 20
226.8573285213302
 10
1177.522827782265
 20
226.8573285213302
 10
1177.522827782265
 20
214.3573285213301
 10
1571.522827782264
 20
214.3573285213301
 97
        0
 75
     0
 76
     1
 52
0.0
 41
1.0
 77
     0
 78
     1
 53
45.0
 43
420.853922894923
 44
1.364162521780656
 45
-2.245064030267287
 46
2.245064030267288
 79
     0
 47
1.00890224622588
 98
        1
 10
1494.187873661436
 20
218.0648579446597
  0
HATCH
  5
4057
330
18
100
AcDbEntity
  8
OBJEKT
100
AcDbHatch
 10
0.0
 20
0.0
 30
0.0
210
0.0
220
0.0
230
1.0
  2
ANSI31
 70
     0
 71
     0
 91
        1
 92
        7
 72
     0
 73
     1
 93
        4
 10
1571.522827782264
 20
66.35733152133025
 10
1177.522827782265
 20
66.35733152133025
 10
1177.522827782264
 20
53.85733152133025
 10
1571.522827782264
 20
53.85733152133025
 97
        0
 75
     0
 76
     1
 52
0.0
 41
1.0
 77
     0
 78
     1
 53
45.0
 43
420.853922894923
 44
1.364162521780656
 45
-2.245064030267287
 46
2.245064030267288
 79
     0
 47
1.00890224622588
 98
        1
 10
1407.378508789101
 20
60.67610511048048
  0
HATCH
  5
4058
330
18
100
AcDbEntity
  8
SCHRAFFUR
100
AcDbHatch
 10
0.0
 20
0.0
 30
0.0
210
0.0
220
0.0
230
1.0
  2
AR-CONC
 70
     0
 71
     0
 91
        1
 92
        7
 72
     0
 73
     1
 93
        4
 10
1571.522827782264
 20
251.8573285213302
 10
1177.522827782265
 20
251.8573285213301
 10
1177.522827782265
 20
226.8573285213301
 10
1571.522827782264
 20
226.8573285213301
 97
        0
 75
     0
 76
     1
 52
0.0
 41
0.1
 77
     0
 78
    13
 53
50.0
 43
420.853922894923
 44
1.364162521780656
 45
18.2184668996004
 46
-1.593908553890308
 79
     2
 49
1.905
 49
-20.955
 53
355.0
 43
420.853922894923
 44
1.364162521780656
 45
-3.524282597566699
 46
19.105664288218
 79
     2
 49
1.524
 49
-16.764
 53
100.451
 43
422.3721228949229
 44
1.231337521780659
 45
14.69425016659592
 46
17.51166878202919
 79
     2
 49
1.619
 49
-17.809
 53
46.1842
 43
420.853922894923
 44
6.444162521780654
 45
27.107904089213
 46
-4.204232793272715
 79
     2
 49
2.857499999999999
 49
-31.4325
 53
96.63559999999998
 43
423.112912894923
 44
6.093812521780662
 45
23.74042344662372
 46
24.74255558900492
 79
     2
 49
2.428499999999999
 49
-26.71349999999999
 53
351.184
 43
420.853922894923
 44
6.444162521780654
 45
23.74046058139339
 46
24.74251178605977
 79
     2
 49
2.286
 49
-25.146
 53
21.0
 43
423.3939228949229
 44
5.174162521780658
 45
15.16148798353833
 46
-10.22655185167625
 79
     2
 49
1.905
 49
-20.955
 53
326.0
 43
423.3939228949229
 44
5.174162521780658
 45
6.180202834764707
 46
18.41879661223192
 79
     2
 49
1.524
 49
-16.764
 53
71.45140000000001
 43
424.657372894923
 44
4.321952521780659
 45
21.34164907701245
 46
8.192285771605744
 79
     2
 49
1.619
 49
-17.809
 53
37.5
 43
420.853922894923
 44
1.364162521780656
 45
0.3088603250591817
 46
8.455503887315311
 79
     6
 49
0.0
 49
-16.5608
 49
0.0
 49
-17.018
 49
0.0
 49
-16.8275
 53
7.499999999999999
 43
420.853922894923
 44
1.364162521780656
 45
6.681966251030575
 46
10.01805748181195
 79
     6
 49
0.0
 49
-9.702799999999999
 49
0.0
 49
-16.1798
 49
0.0
 49
-6.4135
 53
327.5
 43
415.1897228949229
 44
1.364162521780656
 45
13.55905951668714
 46
-0.5728743992673459
 79
     6
 49
0.0
 49
-6.35
 49
0.0
 49
-19.812
 49
0.0
 49
-26.289
 53
317.5
 43
412.6497228949229
 44
1.364162521780656
 45
14.8129181386018
 46
2.542649103333301
 79
     6
 49
0.0
 49
-8.255
 49
0.0
 49
-13.1572
 49
0.0
 49
-18.669
 47
1.00890224622588
 98
        1
 10
1389.20911095688
 20
242.2785096227199
  0
HATCH
  5
4059
330
18
100
AcDbEntity
  8
SCHRAFFUR
100
AcDbHatch
 10
0.0
 20
0.0
 30
0.0
210
0.0
220
0.0
230
1.0
  2
AR-CONC
 70
     0
 71
     0
 91
        1
 92
        7
 72
     0
 73
     1
 93
        4
 10
1571.522827782264
 20
53.85733152133025
 10
1177.522827782265
 20
53.85733152133025
 10
1177.522827782265
 20
28.8573315213302
 10
1571.522827782264
 20
28.8573315213302
 97
        0
 75
     0
 76
     1
 52
0.0
 41
0.1
 77
     0
 78
    13
 53
50.0
 43
420.853922894923
 44
1.364162521780656
 45
18.2184668996004
 46
-1.593908553890308
 79
     2
 49
1.905
 49
-20.955
 53
355.0
 43
420.853922894923
 44
1.364162521780656
 45
-3.524282597566699
 46
19.105664288218
 79
     2
 49
1.524
 49
-16.764
 53
100.451
 43
422.3721228949229
 44
1.231337521780659
 45
14.69425016659592
 46
17.51166878202919
 79
     2
 49
1.619
 49
-17.809
 53
46.1842
 43
420.853922894923
 44
6.444162521780654
 45
27.107904089213
 46
-4.204232793272715
 79
     2
 49
2.857499999999999
 49
-31.4325
 53
96.63559999999998
 43
423.112912894923
 44
6.093812521780662
 45
23.74042344662372
 46
24.74255558900492
 79
     2
 49
2.428499999999999
 49
-26.71349999999999
 53
351.184
 43
420.853922894923
 44
6.444162521780654
 45
23.74046058139339
 46
24.74251178605977
 79
     2
 49
2.286
 49
-25.146
 53
21.0
 43
423.3939228949229
 44
5.174162521780658
 45
15.16148798353833
 46
-10.22655185167625
 79
     2
 49
1.905
 49
-20.955
 53
326.0
 43
423.3939228949229
 44
5.174162521780658
 45
6.180202834764707
 46
18.41879661223192
 79
     2
 49
1.524
 49
-16.764
 53
71.45140000000001
 43
424.657372894923
 44
4.321952521780659
 45
21.34164907701245
 46
8.192285771605744
 79
     2
 49
1.619
 49
-17.809
 53
37.5
 43
420.853922894923
 44
1.364162521780656
 45
0.3088603250591817
 46
8.455503887315311
 79
     6
 49
0.0
 49
-16.5608
 49
0.0
 49
-17.018
 49
0.0
 49
-16.8275
 53
7.499999999999999
 43
420.853922894923
 44
1.364162521780656
 45
6.681966251030575
 46
10.01805748181195
 79
     6
 49
0.0
 49
-9.702799999999999
 49
0.0
 49
-16.1798
 49
0.0
 49
-6.4135
 53
327.5
 43
415.1897228949229
 44
1.364162521780656
 45
13.55905951668714
 46
-0.5728743992673459
 79
     6
 49
0.0
 49
-6.35
 49
0.0
 49
-19.812
 49
0.0
 49
-26.289
 53
317.5
 43
412.6497228949229
 44
1.364162521780656
 45
14.8129181386018
 46
2.542649103333301
 79
     6
 49
0.0
 49
-8.255
 49
0.0
 49
-13.1572
 49
0.0
 49
-18.669
 47
1.00890224622588
 98
        1
 10
1405.359689834504
 20
35.45354916331968
  0
LINE
  5
405A
330
18
100
AcDbEntity
  8
OBJEKT
100
AcDbLine
 10
1250.522827782265
 20
-50.21349298440282
 30
0.0
 11
1263.812579839196
 21
-46.65251465313827
 31
0.0
  0
LINE
  5
405B
330
18
100
AcDbEntity
  8
OBJEKT
100
AcDbLine
 10
1368.511173101584
 20
-54.46601760828798
 30
0.0
 11
1378.619226982948
 21
-48.63012997889905
 31
0.0
  0
LINE
  5
405C
330
18
100
AcDbEntity
  8
OBJEKT
100
AcDbLine
 10
1300.276457881869
 20
-50.92828496687957
 30
0.0
 11
1315.522827782265
 21
-50.99263157667223
 31
0.0
  0
LINE
  5
405D
330
18
100
AcDbEntity
  8
OBJEKT
100
AcDbLine
 10
1279.101920079343
 20
-50.74928102329045
 30
0.0
 11
1285.602215667092
 21
-46.99633361589133
 31
0.0
  0
LINE
  5
405E
330
18
100
AcDbEntity
  8
OBJEKT
100
AcDbLine
 10
1263.812579839196
 20
-46.65251465313827
 30
0.0
 11
1279.101920079343
 21
-50.74928102329045
 31
0.0
  0
LINE
  5
405F
330
18
100
AcDbEntity
  8
OBJEKT
100
AcDbLine
 10
1285.602215667092
 20
-46.99633361589133
 30
0.0
 11
1300.276457881869
 21
-50.92828496687957
 31
0.0
  0
LINE
  5
4060
330
18
100
AcDbEntity
  8
OBJEKT
100
AcDbLine
 10
1335.522827782265
 20
-45.62681712033736
 30
0.0
 11
1347.477746041606
 21
-48.83012781350817
 31
0.0
  0
LINE
  5
4061
330
18
100
AcDbEntity
  8
OBJEKT
100
AcDbLine
 10
1332.424873361478
 20
-50.99263157667223
 30
0.0
 11
1335.522827782265
 21
-45.62681712033736
 31
0.0
  0
LINE
  5
4062
330
18
100
AcDbEntity
  8
OBJEKT
100
AcDbLine
 10
1315.522827782265
 20
-50.99263157667223
 30
0.0
 11
1332.424873361478
 21
-50.99263157667223
 31
0.0
  0
LINE
  5
4063
330
18
100
AcDbEntity
  8
OBJEKT
100
AcDbLine
 10
1347.477746041606
 20
-48.83012781350817
 30
0.0
 11
1355.572228557746
 21
-50.99903786685536
 31
0.0
  0
LINE
  5
4064
330
18
100
AcDbEntity
  8
OBJEKT
100
AcDbLine
 10
1355.572228557746
 20
-50.99903786685536
 30
0.0
 11
1368.511173101584
 21
-54.46601760828798
 31
0.0
  0
LINE
  5
4065
330
18
100
AcDbEntity
  8
OBJEKT
100
AcDbLine
 10
1391.609192744681
 20
-52.11078081446363
 30
0.0
 11
1408.861700259419
 21
-47.48798535847777
 31
0.0
  0
LINE
  5
4066
330
18
100
AcDbEntity
  8
OBJEKT
100
AcDbLine
 10
1378.619226982948
 20
-48.63012997889905
 30
0.0
 11
1391.609192744681
 21
-52.11078081446363
 31
0.0
  0
LINE
  5
4067
330
18
100
AcDbEntity
  8
OBJEKT
100
AcDbLine
 10
1408.861700259419
 20
-47.48798535847777
 30
0.0
 11
1421.522827782265
 21
-53.14266847866974
 31
0.0
  0
LINE
  5
4068
330
18
100
AcDbEntity
  8
OBJEKT
100
AcDbLine
 10
1197.511173101584
 20
-51.53684211402105
 30
0.0
 11
1207.619226982948
 21
-45.70095448463212
 31
0.0
  0
LINE
  5
4069
330
18
100
AcDbEntity
  8
OBJEKT
100
AcDbLine
 10
1184.572228557746
 20
-48.06986237258843
 30
0.0
 11
1197.511173101584
 21
-51.53684211402105
 31
0.0
  0
LINE
  5
406A
330
18
100
AcDbEntity
  8
OBJEKT
100
AcDbLine
 10
1220.609192744682
 20
-49.18160532019669
 30
0.0
 11
1237.861700259419
 21
-44.55880986421084
 31
0.0
  0
LINE
  5
406B
330
18
100
AcDbEntity
  8
OBJEKT
100
AcDbLine
 10
1207.619226982948
 20
-45.70095448463212
 30
0.0
 11
1220.609192744682
 21
-49.18160532019669
 31
0.0
  0
LINE
  5
406C
330
18
100
AcDbEntity
  8
OBJEKT
100
AcDbLine
 10
1237.861700259419
 20
-44.55880986421084
 30
0.0
 11
1250.522827782265
 21
-50.21349298440282
 31
0.0
  0
LINE
  5
406D
330
18
100
AcDbEntity
  8
OBJEKT
100
AcDbLine
 10
1177.522827782265
 20
-46.18098112767507
 30
0.0
 11
1184.572228557746
 21
-48.06986237258843
 31
0.0
  0
LINE
  5
406E
330
18
100
AcDbEntity
  8
OBJEKT
100
AcDbLine
 10
1177.522827782265
 20
169.3573285213302
 30
0.0
 11
1177.522827782265
 21
326.8956411703355
 31
0.0
  0
LINE
  5
406F
330
18
100
AcDbEntity
  8
OBJEKT
100
AcDbLine
 10
1421.522827782265
 20
333.8573285213302
 30
0.0
 11
1434.812579839196
 21
330.2963501900657
 31
0.0
  0
LINE
  5
4070
330
18
100
AcDbEntity
  8
OBJEKT
100
AcDbLine
 10
1539.511173101584
 20
338.1098531452153
 30
0.0
 11
1549.619226982948
 21
332.2739655158264
 31
0.0
  0
LINE
  5
4071
330
18
100
AcDbEntity
  8
OBJEKT
100
AcDbLine
 10
1471.276457881869
 20
334.572120503807
 30
0.0
 11
1486.522827782265
 21
334.6364671135996
 31
0.0
  0
LINE
  5
4072
330
18
100
AcDbEntity
  8
OBJEKT
100
AcDbLine
 10
1450.101920079343
 20
334.3931165602179
 30
0.0
 11
1456.602215667092
 21
330.6401691528187
 31
0.0
  0
LINE
  5
4073
330
18
100
AcDbEntity
  8
OBJEKT
100
AcDbLine
 10
1434.812579839196
 20
330.2963501900657
 30
0.0
 11
1450.101920079343
 21
334.3931165602179
 31
0.0
  0
LINE
  5
4074
330
18
100
AcDbEntity
  8
OBJEKT
100
AcDbLine
 10
1456.602215667092
 20
330.6401691528187
 30
0.0
 11
1471.276457881869
 21
334.572120503807
 31
0.0
  0
LINE
  5
4075
330
18
100
AcDbEntity
  8
OBJEKT
100
AcDbLine
 10
1486.522827782265
 20
334.6364671135996
 30
0.0
 11
1518.477746041607
 21
332.4739633504356
 31
0.0
  0
LINE
  5
4076
330
18
100
AcDbEntity
  8
OBJEKT
100
AcDbLine
 10
1518.477746041607
 20
332.4739633504356
 30
0.0
 11
1526.572228557746
 21
334.6428734037827
 31
0.0
  0
LINE
  5
4077
330
18
100
AcDbEntity
  8
OBJEKT
100
AcDbLine
 10
1526.572228557746
 20
334.6428734037827
 30
0.0
 11
1539.511173101584
 21
338.1098531452153
 31
0.0
  0
LINE
  5
4078
330
18
100
AcDbEntity
  8
OBJEKT
100
AcDbLine
 10
1562.609192744681
 20
335.754616351391
 30
0.0
 11
1579.861700259419
 21
331.1318208954052
 31
0.0
  0
LINE
  5
4079
330
18
100
AcDbEntity
  8
OBJEKT
100
AcDbLine
 10
1549.619226982948
 20
332.2739655158264
 30
0.0
 11
1562.609192744681
 21
335.754616351391
 31
0.0
  0
LINE
  5
407A
330
18
100
AcDbEntity
  8
OBJEKT
100
AcDbLine
 10
1579.861700259419
 20
331.1318208954052
 30
0.0
 11
1592.522827782265
 21
336.7865040155971
 31
0.0
  0
LINE
  5
407B
330
18
100
AcDbEntity
  8
OBJEKT
100
AcDbLine
 10
1250.522827782265
 20
330.9281530270633
 30
0.0
 11
1263.812579839196
 21
327.3671746957987
 31
0.0
  0
LINE
  5
407C
330
18
100
AcDbEntity
  8
OBJEKT
100
AcDbLine
 10
1368.511173101584
 20
335.1806776509484
 30
0.0
 11
1378.619226982948
 21
329.3447900215595
 31
0.0
  0
LINE
  5
407D
330
18
100
AcDbEntity
  8
OBJEKT
100
AcDbLine
 10
1300.276457881869
 20
331.64294500954
 30
0.0
 11
1315.522827782265
 21
331.7072916193327
 31
0.0
  0
LINE
  5
407E
330
18
100
AcDbEntity
  8
OBJEKT
100
AcDbLine
 10
1279.101920079343
 20
331.4639410659509
 30
0.0
 11
1285.602215667092
 21
327.7109936585517
 31
0.0
  0
LINE
  5
407F
330
18
100
AcDbEntity
  8
OBJEKT
100
AcDbLine
 10
1263.812579839196
 20
327.3671746957987
 30
0.0
 11
1279.101920079343
 21
331.4639410659509
 31
0.0
  0
LINE
  5
4080
330
18
100
AcDbEntity
  8
OBJEKT
100
AcDbLine
 10
1285.602215667092
 20
327.7109936585517
 30
0.0
 11
1300.276457881869
 21
331.64294500954
 31
0.0
  0
LINE
  5
4081
330
18
100
AcDbEntity
  8
OBJEKT
100
AcDbLine
 10
1335.522827782265
 20
326.3414771629978
 30
0.0
 11
1347.477746041606
 21
329.5447878561686
 31
0.0
  0
LINE
  5
4082
330
18
100
AcDbEntity
  8
OBJEKT
100
AcDbLine
 10
1332.424873361478
 20
331.7072916193327
 30
0.0
 11
1335.522827782265
 21
326.3414771629978
 31
0.0
  0
LINE
  5
4083
330
18
100
AcDbEntity
  8
OBJEKT
100
AcDbLine
 10
1315.522827782265
 20
331.7072916193327
 30
0.0
 11
1332.424873361478
 21
331.7072916193327
 31
0.0
  0
LINE
  5
4084
330
18
100
AcDbEntity
  8
OBJEKT
100
AcDbLine
 10
1347.477746041606
 20
329.5447878561686
 30
0.0
 11
1355.572228557746
 21
331.7136979095158
 31
0.0
  0
LINE
  5
4085
330
18
100
AcDbEntity
  8
OBJEKT
100
AcDbLine
 10
1355.572228557746
 20
331.7136979095158
 30
0.0
 11
1368.511173101584
 21
335.1806776509484
 31
0.0
  0
LINE
  5
4086
330
18
100
AcDbEntity
  8
OBJEKT
100
AcDbLine
 10
1391.609192744681
 20
332.8254408571241
 30
0.0
 11
1408.861700259419
 21
328.2026454011382
 31
0.0
  0
LINE
  5
4087
330
18
100
AcDbEntity
  8
OBJEKT
100
AcDbLine
 10
1378.619226982948
 20
329.3447900215595
 30
0.0
 11
1391.609192744681
 21
332.8254408571241
 31
0.0
  0
LINE
  5
4088
330
18
100
AcDbEntity
  8
OBJEKT
100
AcDbLine
 10
1408.861700259419
 20
328.2026454011382
 30
0.0
 11
1421.522827782265
 21
333.8573285213302
 31
0.0
  0
LINE
  5
4089
330
18
100
AcDbEntity
  8
OBJEKT
100
AcDbLine
 10
1197.511173101584
 20
332.2515021566815
 30
0.0
 11
1207.619226982948
 21
326.4156145272926
 31
0.0
  0
LINE
  5
408A
330
18
100
AcDbEntity
  8
OBJEKT
100
AcDbLine
 10
1184.572228557746
 20
328.7845224152489
 30
0.0
 11
1197.511173101584
 21
332.2515021566815
 31
0.0
  0
LINE
  5
408B
330
18
100
AcDbEntity
  8
OBJEKT
100
AcDbLine
 10
1220.609192744682
 20
329.8962653628572
 30
0.0
 11
1237.861700259419
 21
325.2734699068713
 31
0.0
  0
LINE
  5
408C
330
18
100
AcDbEntity
  8
OBJEKT
100
AcDbLine
 10
1207.619226982948
 20
326.4156145272926
 30
0.0
 11
1220.609192744682
 21
329.8962653628572
 31
0.0
  0
LINE
  5
408D
330
18
100
AcDbEntity
  8
OBJEKT
100
AcDbLine
 10
1237.861700259419
 20
325.2734699068713
 30
0.0
 11
1250.522827782265
 21
330.9281530270633
 31
0.0
  0
LINE
  5
408E
330
18
100
AcDbEntity
  8
OBJEKT
100
AcDbLine
 10
1177.522827782265
 20
326.8956411703355
 30
0.0
 11
1184.572228557746
 21
328.7845224152489
 31
0.0
  0
LINE
  5
408F
330
18
100
AcDbEntity
  8
SCHRAFFUR
100
AcDbLine
 10
1339.447265080265
 20
327.3930269677435
 30
0.0
 11
1401.171524543669
 21
322.003669984745
 31
0.0
  0
ARC
  5
4090
330
18
100
AcDbEntity
  8
SCHRAFFUR
100
AcDbCircle
 10
1402.488597714402
 20
327.8573285213302
 30
0.0
 40
6.0
100
AcDbArc
 50
257.3196165081785
 51
4.299437963228877
  0
ARC
  5
4091
330
18
100
AcDbEntity
  8
SCHRAFFUR
100
AcDbCircle
 10
1402.488597714402
 20
0.8573315213301384
 30
0.0
 40
6.0
100
AcDbArc
 50
257.3196165081785
 51
102.6803834918214
  0
ARC
  5
4092
330
18
100
AcDbEntity
  8
SCHRAFFUR
100
AcDbCircle
 10
1334.488597714402
 20
-5.142668478669861
 30
0.0
 40
6.0
100
AcDbArc
 50
77.31961650817855
 51
282.6803834918215
  0
LINE
  5
4093
330
18
100
AcDbEntity
  8
SCHRAFFUR
100
AcDbLine
 10
1335.805670885133
 20
0.7109900579156374
 30
0.0
 11
1401.17152454367
 21
-4.996327015255133
 31
0.0
  0
LINE
  5
4094
330
18
100
AcDbEntity
  8
OBJEKT
100
AcDbLine
 10
1328.488597714402
 20
28.8573315213302
 30
0.0
 11
1328.488597714402
 21
-50.9926315766723
 31
0.0
  0
LINE
  5
4095
330
18
100
AcDbEntity
  8
OBJEKT
100
AcDbLine
 10
1408.488597714401
 20
28.8573315213302
 30
0.0
 11
1408.488597714401
 21
-47.5879578841093
 31
0.0
  0
ARC
  5
4096
330
18
100
AcDbEntity
  8
SCHRAFFUR
100
AcDbCircle
 10
1402.488597714402
 20
12.85733152133014
 30
0.0
 40
6.0
100
AcDbArc
 50
257.3196165081785
 51
102.6803834918214
  0
ARC
  5
4097
330
18
100
AcDbEntity
  8
SCHRAFFUR
100
AcDbCircle
 10
1334.488597714402
 20
18.85733152133019
 30
0.0
 40
6.0
100
AcDbArc
 50
77.31961650817855
 51
282.6803834918215
  0
LINE
  5
4098
330
18
100
AcDbEntity
  8
SCHRAFFUR
100
AcDbLine
 10
1335.805670885133
 20
13.00367298474486
 30
0.0
 11
1401.17152454367
 21
18.71099005791558
 31
0.0
  0
LINE
  5
4099
330
18
100
AcDbEntity
  8
SCHRAFFUR
100
AcDbLine
 10
1335.805670885133
 20
25.00367298474481
 30
0.0
 11
1392.933042158846
 21
28.8573315213302
 31
0.0
  0
LINE
  5
409A
330
18
100
AcDbEntity
  8
SCHRAFFUR
100
AcDbLine
 10
1335.805670885133
 20
24.71099005791558
 30
0.0
 11
1401.17152454367
 21
19.00367298474481
 31
0.0
  0
ARC
  5
409B
330
18
100
AcDbEntity
  8
SCHRAFFUR
100
AcDbCircle
 10
1334.488597714402
 20
30.8573315213302
 30
0.0
 40
6.0
100
AcDbArc
 50
199.4712206344956
 51
282.6803834918215
  0
ARC
  5
409C
330
18
100
AcDbEntity
  8
SCHRAFFUR
100
AcDbCircle
 10
1402.488597714402
 20
24.8573315213302
 30
0.0
 40
6.0
100
AcDbArc
 50
257.3196165081785
 51
41.81031489577503
  0
LINE
  5
409D
330
18
100
AcDbEntity
  8
SCHRAFFUR
100
AcDbLine
 10
1335.805670885133
 20
12.71099005791564
 30
0.0
 11
1401.17152454367
 21
7.003672984744866
 31
0.0
  0
LINE
  5
409E
330
18
100
AcDbEntity
  8
SCHRAFFUR
100
AcDbLine
 10
1335.805670885133
 20
1.003672984744866
 30
0.0
 11
1401.17152454367
 21
6.710990057915637
 31
0.0
  0
ARC
  5
409F
330
18
100
AcDbEntity
  8
SCHRAFFUR
100
AcDbCircle
 10
1334.488597714402
 20
6.857331521330138
 30
0.0
 40
6.0
100
AcDbArc
 50
77.31961650817855
 51
282.6803834918215
  0
LINE
  5
40A0
330
18
100
AcDbEntity
  8
SCHRAFFUR
100
AcDbLine
 10
1335.805670885133
 20
-35.28900994208437
 30
0.0
 11
1401.17152454367
 21
-40.99632701525519
 31
0.0
  0
ARC
  5
40A1
330
18
100
AcDbEntity
  8
SCHRAFFUR
100
AcDbCircle
 10
1402.488597714402
 20
-35.14266847866986
 30
0.0
 40
6.0
100
AcDbArc
 50
257.3196165081785
 51
102.6803834918214
  0
ARC
  5
40A2
330
18
100
AcDbEntity
  8
SCHRAFFUR
100
AcDbCircle
 10
1334.488597714402
 20
-41.14266847866992
 30
0.0
 40
6.0
100
AcDbArc
 50
77.31961650817855
 51
271.5308315830813
  0
ARC
  5
40A3
330
18
100
AcDbEntity
  8
SCHRAFFUR
100
AcDbCircle
 10
1402.488597714402
 20
-23.14266847866986
 30
0.0
 40
6.0
100
AcDbArc
 50
257.3196165081785
 51
102.6803834918214
  0
ARC
  5
40A4
330
18
100
AcDbEntity
  8
SCHRAFFUR
100
AcDbCircle
 10
1334.488597714402
 20
-17.14266847866986
 30
0.0
 40
6.0
100
AcDbArc
 50
77.31961650817855
 51
282.6803834918215
  0
LINE
  5
40A5
330
18
100
AcDbEntity
  8
SCHRAFFUR
100
AcDbLine
 10
1335.805670885133
 20
-22.99632701525514
 30
0.0
 11
1401.17152454367
 21
-17.28900994208436
 31
0.0
  0
LINE
  5
40A6
330
18
100
AcDbEntity
  8
SCHRAFFUR
100
AcDbLine
 10
1335.805670885133
 20
-10.99632701525513
 30
0.0
 11
1401.17152454367
 21
-5.289009942084362
 31
0.0
  0
LINE
  5
40A7
330
18
100
AcDbEntity
  8
SCHRAFFUR
100
AcDbLine
 10
1335.805670885133
 20
-11.28900994208436
 30
0.0
 11
1401.17152454367
 21
-16.99632701525513
 31
0.0
  0
ARC
  5
40A8
330
18
100
AcDbEntity
  8
SCHRAFFUR
100
AcDbCircle
 10
1402.488597714402
 20
-11.14266847866986
 30
0.0
 40
6.0
100
AcDbArc
 50
257.3196165081785
 51
102.6803834918214
  0
LINE
  5
40A9
330
18
100
AcDbEntity
  8
SCHRAFFUR
100
AcDbLine
 10
1335.805670885133
 20
-23.28900994208436
 30
0.0
 11
1401.17152454367
 21
-28.99632701525514
 31
0.0
  0
LINE
  5
40AA
330
18
100
AcDbEntity
  8
SCHRAFFUR
100
AcDbLine
 10
1335.805670885133
 20
-34.99632701525513
 30
0.0
 11
1401.17152454367
 21
-29.28900994208436
 31
0.0
  0
ARC
  5
40AB
330
18
100
AcDbEntity
  8
SCHRAFFUR
100
AcDbCircle
 10
1334.488597714402
 20
-29.14266847866986
 30
0.0
 40
6.0
100
AcDbArc
 50
77.31961650817855
 51
282.6803834918215
  0
LINE
  5
40AC
330
18
100
AcDbEntity
  8
SCHRAFFUR
100
AcDbLine
 10
1339.447265080265
 20
-46.67836692508325
 30
0.0
 11
1401.171524543669
 21
-41.28900994208464
 31
0.0
  0
ARC
  5
40AD
330
18
100
AcDbEntity
  8
SCHRAFFUR
100
AcDbCircle
 10
1402.488597714402
 20
-47.14266847866992
 30
0.0
 40
6.0
100
AcDbArc
 50
355.7005620367712
 51
102.6803834918214
  0
HATCH
  5
40AE
330
18
100
AcDbEntity
  8
SCHRAFFUR
100
AcDbHatch
 10
0.0
 20
0.0
 30
0.0
210
0.0
220
0.0
230
1.0
  2
AR-B816
 70
     0
 71
     0
 91
        1
 92
        7
 72
     0
 73
     1
 93
       16
 10
1571.522827782264
 20
333.3662150414447
 10
1562.609192744681
 20
335.754616351391
 10
1549.619226982948
 20
332.2739655158265
 10
1539.511173101584
 20
338.1098531452153
 10
1526.572228557746
 20
334.6428734037828
 10
1518.477746041607
 20
332.4739633504354
 10
1486.522827782265
 20
334.6364671135996
 10
1471.276457881869
 20
334.572120503807
 10
1456.602215667092
 20
330.6401691528186
 10
1450.101920079343
 20
334.3931165602178
 10
1434.812579839196
 20
330.2963501900657
 10
1421.522827782265
 20
333.8573285213302
 10
1408.861700259419
 20
328.2026454011382
 10
1408.488597714401
 20
328.3026179267698
 10
1408.488597714401
 20
251.8573285213301
 10
1571.522827782264
 20
251.8573285213301
 97
        0
 75
     0
 76
     1
 52
0.0
 41
0.3
 77
     0
 78
     2
 53
0.0
 43
420.853922894923
 44
1.364162521780656
 45
0.0
 46
60.96
 79
     0
 53
90.0
 43
420.853922894923
 44
1.364162521780656
 45
-60.96
 46
60.96
 79
     2
 49
60.96
 49
-60.96
 47
0.6621784070743986
 98
        1
 10
1493.901299981739
 20
284.0098295667822
  0
HATCH
  5
40AF
330
18
100
AcDbEntity
  8
SCHRAFFUR
100
AcDbHatch
 10
0.0
 20
0.0
 30
0.0
210
0.0
220
0.0
230
1.0
  2
AR-B816
 70
     0
 71
     0
 91
        1
 92
        7
 72
     0
 73
     1
 93
       15
 10
1328.488597714402
 20
331.7072916193326
 10
1315.522827782281
 20
331.7072916193327
 10
1300.276457881869
 20
331.6429450095399
 10
1285.602215667092
 20
327.7109936585517
 10
1279.101920079343
 20
331.4639410659509
 10
1263.812579839196
 20
327.3671746957987
 10
1250.522827782265
 20
330.9281530270633
 10
1237.861700259419
 20
325.2734699068712
 10
1220.609192744681
 20
329.896265362857
 10
1207.619226982948
 20
326.4156145272925
 10
1197.511173101584
 20
332.2515021566813
 10
1184.572228557746
 20
328.7845224152488
 10
1177.522827782265
 20
326.8956411703355
 10
1177.522827782265
 20
251.8573285213301
 10
1328.488597714402
 20
251.8573285213301
 97
        0
 75
     0
 76
     1
 52
0.0
 41
0.3
 77
     0
 78
     2
 53
0.0
 43
420.853922894923
 44
1.364162521780656
 45
0.0
 46
60.96
 79
     0
 53
90.0
 43
420.853922894923
 44
1.364162521780656
 45
-60.96
 46
60.96
 79
     2
 49
60.96
 49
-60.96
 47
0.6621784070743986
 98
        1
 10
1214.983570979746
 20
280.036756971862
  0
HATCH
  5
40B0
330
18
100
AcDbEntity
  8
SCHRAFFUR
100
AcDbHatch
 10
0.0
 20
0.0
 30
0.0
210
0.0
220
0.0
230
1.0
  2
AR-B816
 70
     0
 71
     0
 91
        1
 92
        7
 72
     0
 73
     1
 93
       15
 10
1328.488597714402
 20
28.8573315213302
 10
1177.522827782265
 20
28.8573315213302
 10
1177.522827782265
 20
-46.18098112767506
 10
1184.572228557746
 20
-48.06986237258843
 10
1197.511173101584
 20
-51.53684211402101
 10
1207.619226982948
 20
-45.70095448463212
 10
1220.609192744682
 20
-49.18160532019669
 10
1237.861700259419
 20
-44.55880986421084
 10
1250.522827782265
 20
-50.21349298440285
 10
1263.812579839196
 20
-46.65251465313827
 10
1279.101920079343
 20
-50.74928102329043
 10
1285.602215667092
 20
-46.99633361589135
 10
1300.276457881869
 20
-50.92828496687958
 10
1315.522827782264
 20
-50.99263157667223
 10
1328.488597714402
 20
-50.99263157667223
 97
        0
 75
     0
 76
     1
 52
0.0
 41
0.3
 77
     0
 78
     2
 53
0.0
 43
420.853922894923
 44
1.364162521780656
 45
0.0
 46
60.96
 79
     0
 53
90.0
 43
420.853922894923
 44
1.364162521780656
 45
-60.96
 46
60.96
 79
     2
 49
60.96
 49
-60.96
 47
0.6621784070743986
 98
        1
 10
1273.284663832201
 20
-15.29481460056007
  0
HATCH
  5
40B1
330
18
100
AcDbEntity
  8
SCHRAFFUR
100
AcDbHatch
 10
0.0
 20
0.0
 30
0.0
210
0.0
220
0.0
230
1.0
  2
AR-B816
 70
     0
 71
     0
 91
        1
 92
        7
 72
     0
 73
     1
 93
       16
 10
1571.522827782264
 20
28.8573315213302
 10
1408.488597714401
 20
28.8573315213302
 10
1408.488597714401
 20
-47.58795788410927
 10
1408.861700259419
 20
-47.48798535847775
 10
1421.522827782265
 20
-53.14266847866976
 10
1434.812579839196
 20
-49.58169014740519
 10
1450.101920079343
 20
-53.67845651755739
 10
1456.602215667092
 20
-49.92550911015829
 10
1471.276457881869
 20
-53.85746046114661
 10
1486.522827782265
 20
-53.92180707093922
 10
1518.477746041606
 20
-51.75930330777511
 10
1526.572228557746
 20
-53.9282133611224
 10
1539.511173101583
 20
-57.3951931025549
 10
1549.619226982948
 20
-51.55930547316611
 10
1562.609192744681
 20
-55.03995630873054
 10
1571.522827782264
 20
-52.65155499878438
 97
        0
 75
     0
 76
     1
 52
0.0
 41
0.3
 77
     0
 78
     2
 53
0.0
 43
420.853922894923
 44
1.364162521780656
 45
0.0
 46
60.96
 79
     0
 53
90.0
 43
420.853922894923
 44
1.364162521780656
 45
-60.96
 46
60.96
 79
     2
 49
60.96
 49
-60.96
 47
0.6621784070743986
 98
        1
 10
1473.363412910127
 20
-9.997385884565062
  0
VIEWPORT
  5
2593
330
2588
100
AcDbEntity
 67
     1
  8
0
100
AcDbViewport
 10
175.5842976387667
 20
140.9916366262502
 30
0.0
 40
507.8622552467035
 41
273.1404253606623
 68
     1
 69
     1
 12
175.5842976387667
 22
140.9916366262502
 13
0.0
 23
0.0
 14
10.0
 24
10.0
 15
10.0
 25
10.0
 16
0.0
 26
0.0
 36
1.0
 17
0.0
 27
0.0
 37
0.0
 42
50.0
 43
0.0
 44
0.0
 45
273.1404253606623
 50
0.0
 51
0.0
 72
   100
331
2499
 90
    32800
  1

281
     0
 71
     1
 74
     0
110
0.0
120
0.0
130
0.0
111
1.0
121
0.0
131
0.0
112
0.0
122
1.0
132
0.0
 79
     0
146
0.0
170
     0
  0
INSERT
  5
25FF
330
2588
100
AcDbEntity
 67
     1
  8
OBJEKT
100
AcDbBlockReference
 66
     1
  2
Datenblatt 13.02.02
 10
194.7175057884606
 20
78.25021625155796
 30
0.0
  0
ATTRIB
  5
2600
330
25FF
100
AcDbEntity
 67
     1
  8
5
 62
     6
100
AcDbText
 10
39.58657445751223
 20
101.6715726747419
 30
0.0
 40
2.5
  1
.
 51
10.0
  7
ISOCP
100
AcDbAttribute
  2
.
 70
     0
  0
ATTRIB
  5
2601
330
25FF
100
AcDbEntity
 67
     1
  8
5
 62
     6
100
AcDbText
 10
39.58657445751223
 20
94.67157267474192
 30
0.0
 40
2.5
  1
.
 51
10.0
  7
ISOCP
100
AcDbAttribute
  2
.
 70
     0
  0
ATTRIB
  5
2602
330
25FF
100
AcDbEntity
 67
     1
  8
5
 62
     6
100
AcDbText
 10
39.58657445751223
 20
87.67157267474193
 30
0.0
 40
2.5
  1
.
 51
10.0
  7
ISOCP
100
AcDbAttribute
  2
.
 70
     0
  0
ATTRIB
  5
2603
330
25FF
100
AcDbEntity
 67
     1
  8
5
 62
     6
100
AcDbText
 10
39.58657445751223
 20
80.67591499385736
 30
0.0
 40
2.5
  1
.
 51
10.0
  7
ISOCP
100
AcDbAttribute
  2
.
 70
     0
  0
ATTRIB
  5
2604
330
25FF
100
AcDbEntity
 67
     1
  8
5
 62
     6
100
AcDbText
 10
57.11975972362484
 20
96.66395297077315
 30
0.0
 40
2.0
  1
.
 51
10.0
  7
ISOCP
100
AcDbAttribute
  2
.
 70
     0
  0
ATTRIB
  5
2605
330
25FF
100
AcDbEntity
 67
     1
  8
5
 62
     6
100
AcDbText
 10
68.64564975096346
 20
96.66395297077315
 30
0.0
 40
2.0
  1
.
 51
10.0
  7
ISOCP
100
AcDbAttribute
  2
.
 70
     0
  0
ATTRIB
  5
2606
330
25FF
100
AcDbEntity
 67
     1
  8
5
 62
     6
100
AcDbText
 10
82.53367323408429
 20
96.66395297077315
 30
0.0
 40
2.0
  1
.
 51
10.0
  7
ISOCP
100
AcDbAttribute
  2
.
 70
     0
  0
ATTRIB
  5
2607
330
25FF
100
AcDbEntity
 67
     1
  8
5
 62
     6
100
AcDbText
 10
97.33114153037996
 20
96.66395297077315
 30
0.0
 40
2.0
  1
.
 51
10.0
  7
ISOCP
100
AcDbAttribute
  2
.
 70
     0
  0
ATTRIB
  5
2608
330
25FF
100
AcDbEntity
 67
     1
  8
5
 62
     6
100
AcDbText
 10
57.11975972362484
 20
91.06395297077312
 30
0.0
 40
2.0
  1
.
 51
10.0
  7
ISOCP
100
AcDbAttribute
  2
.
 70
     0
  0
ATTRIB
  5
2609
330
25FF
100
AcDbEntity
 67
     1
  8
5
 62
     6
100
AcDbText
 10
68.64564975096346
 20
91.06395297077312
 30
0.0
 40
2.0
  1
.
 51
10.0
  7
ISOCP
100
AcDbAttribute
  2
.
 70
     0
  0
ATTRIB
  5
260A
330
25FF
100
AcDbEntity
 67
     1
  8
5
 62
     6
100
AcDbText
 10
82.53367323408429
 20
91.06395297077312
 30
0.0
 40
2.0
  1
.
 51
10.0
  7
ISOCP
100
AcDbAttribute
  2
.
 70
     0
  0
ATTRIB
  5
260B
330
25FF
100
AcDbEntity
 67
     1
  8
5
 62
     6
100
AcDbText
 10
97.33114153037996
 20
91.06395297077312
 30
0.0
 40
2.0
  1
.
 51
10.0
  7
ISOCP
100
AcDbAttribute
  2
.
 70
     0
  0
ATTRIB
  5
260C
330
25FF
100
AcDbEntity
 67
     1
  8
5
 62
     6
100
AcDbText
 10
57.11975972362484
 20
85.46395297077316
 30
0.0
 40
2.0
  1
.
 51
10.0
  7
ISOCP
100
AcDbAttribute
  2
.
 70
     0
  0
ATTRIB
  5
260D
330
25FF
100
AcDbEntity
 67
     1
  8
5
 62
     6
100
AcDbText
 10
68.64564975096346
 20
85.46395297077316
 30
0.0
 40
2.0
  1
.
 51
10.0
  7
ISOCP
100
AcDbAttribute
  2
.
 70
     0
  0
ATTRIB
  5
260E
330
25FF
100
AcDbEntity
 67
     1
  8
5
 62
     6
100
AcDbText
 10
82.53367323408429
 20
85.46395297077316
 30
0.0
 40
2.0
  1
.
 51
10.0
  7
ISOCP
100
AcDbAttribute
  2
.
 70
     0
  0
ATTRIB
  5
260F
330
25FF
100
AcDbEntity
 67
     1
  8
5
 62
     6
100
AcDbText
 10
97.33114153037996
 20
85.46395297077316
 30
0.0
 40
2.0
  1
.
 51
10.0
  7
ISOCP
100
AcDbAttribute
  2
.
 70
     0
  0
ATTRIB
  5
2610
330
25FF
100
AcDbEntity
 67
     1
  8
5
 62
     6
100
AcDbText
 10
57.11975972362484
 20
79.86829528988858
 30
0.0
 40
2.0
  1
.
 51
10.0
  7
ISOCP
100
AcDbAttribute
  2
.
 70
     0
  0
ATTRIB
  5
2611
330
25FF
100
AcDbEntity
 67
     1
  8
5
 62
     6
100
AcDbText
 10
68.64564975096346
 20
79.86829528988858
 30
0.0
 40
2.0
  1
.
 51
10.0
  7
ISOCP
100
AcDbAttribute
  2
.
 70
     0
  0
ATTRIB
  5
2612
330
25FF
100
AcDbEntity
 67
     1
  8
5
 62
     6
100
AcDbText
 10
82.53367323408429
 20
79.86829528988858
 30
0.0
 40
2.0
  1
.
 51
10.0
  7
ISOCP
100
AcDbAttribute
  2
.
 70
     0
  0
ATTRIB
  5
2613
330
25FF
100
AcDbEntity
 67
     1
  8
5
 62
     6
100
AcDbText
 10
97.33114153037996
 20
79.86829528988858
 30
0.0
 40
2.0
  1
.
 51
10.0
  7
ISOCP
100
AcDbAttribute
  2
.
 70
     0
  0
ATTRIB
  5
2614
330
25FF
100
AcDbEntity
 67
     1
  8
5
 62
     6
100
AcDbText
 10
134.151234292897
 20
102.4803954758591
 30
0.0
 40
2.5
  1
.
 51
10.0
  7
ISOCP
100
AcDbAttribute
  2
.
 70
     0
  0
ATTRIB
  5
2615
330
25FF
100
AcDbEntity
 67
     1
  8
5
 62
     6
100
AcDbText
 10
134.151234292897
 20
98.8123634010342
 30
0.0
 40
2.5
  1
.
 51
10.0
  7
ISOCP
100
AcDbAttribute
  2
.
 70
     0
  0
ATTRIB
  5
2616
330
25FF
100
AcDbEntity
 67
     1
  8
5
 62
     6
100
AcDbText
 10
134.151234292897
 20
95.55929145199479
 30
0.0
 40
2.5
  1
.
 51
10.0
  7
ISOCP
100
AcDbAttribute
  2
.
 70
     0
  0
ATTRIB
  5
2617
330
25FF
100
AcDbEntity
 67
     1
  8
5
 62
     6
100
AcDbText
 10
125.8630372077832
 20
92.31805433147133
 30
0.0
 40
2.5
  1
.
 51
10.0
  7
ISOCP
100
AcDbAttribute
  2
.
 70
     0
  0
ATTRIB
  5
2618
330
25FF
100
AcDbEntity
 67
     1
  8
5
 62
     6
100
AcDbText
 10
145.87294750983
 20
92.31805433147133
 30
0.0
 40
2.5
  1
.
 51
10.0
  7
ISOCP
100
AcDbAttribute
  2
.
 70
     0
  0
ATTRIB
  5
2619
330
25FF
100
AcDbEntity
 67
     1
  8
5
 62
     6
100
AcDbText
 10
127.5098850943911
 20
82.99458115582751
 30
0.0
 40
2.5
  1
.
 51
10.0
  7
ISOCP
100
AcDbAttribute
  2
.
 70
     0
  0
ATTRIB
  5
261A
330
25FF
100
AcDbEntity
 67
     1
  8
5
 62
     6
100
AcDbText
 10
134.9358939079375
 20
79.4578741532382
 30
0.0
 40
2.5
  1
.
 51
10.0
  7
ISOCP
100
AcDbAttribute
  2
.
 70
     0
  0
SEQEND
  5
261B
330
25FF
100
AcDbEntity
 67
     1
  8
OBJEKT
  0
INSERT
  5
261C
330
2588
100
AcDbEntity
 67
     1
  8
OBJEKT
100
AcDbBlockReference
  2
Toleranz1000
 10
97.3175057884606
 20
44.25021625155795
 30
0.0
  0
INSERT
  5
261D
330
2588
100
AcDbEntity
 67
     1
  8
OBJEKT
100
AcDbBlockReference
 66
     1
  2
schriftfeld-31.01.02
 10
194.7175057884606
 20
6.000216251557958
 30
0.0
  0
ATTRIB
  5
261E
330
261D
100
AcDbEntity
 67
     1
  8
TEXTE
 62
     6
370
    35
100
AcDbText
 10
152.138479988802
 20
33.41868783398286
 30
0.0
 40
3.5
  1

  7
ISOCP
 72
     1
 11
152.138479988802
 21
33.41868783398286
 31
0.0
100
AcDbAttribute
  2
BENENNUNG
 70
     0
  0
ATTRIB
  5
261F
330
261D
100
AcDbEntity
 67
     1
  8
TEXTE
100
AcDbText
 10
112.8295725145258
 20
22.52558733619935
 30
0.0
 40
3.5
  1
4
  7
ISOCP
100
AcDbAttribute
  2
A?
 70
     0
  0
ATTRIB
  5
2620
330
261D
100
AcDbEntity
 67
     1
  8
TEXTE
 62
     6
370
    35
100
AcDbText
 10
149.4985878259398
 20
22.61333637146947
 30
0.0
 40
3.5
  1
 
  7
ISOCP
 72
     1
 11
150.5485878259398
 21
22.61333637146947
 31
0.0
100
AcDbAttribute
  2
ZNR
 70
     0
  0
ATTRIB
  5
2621
330
261D
100
AcDbEntity
 67
     1
  8
TEXTE
100
AcDbText
 10
109.0052621480974
 20
15.13702454785834
 30
0.0
 40
3.5
  1
 
 41
40.81535411445861
  7
ISOCP
 72
     5
 11
194.7175057884606
 21
15.13702454785834
 31
0.0
100
AcDbAttribute
  2
KL.NR.
 70
     0
  0
ATTRIB
  5
2622
330
261D
100
AcDbEntity
 67
     1
  8
TEXTE
100
AcDbText
 10
64.67498943747307
 20
24.06889258289368
 30
0.0
 40
2.5
  1
 
  7
ISOCP
100
AcDbAttribute
  2
CADDAT
 70
     0
  0
ATTRIB
  5
2623
330
261D
100
AcDbEntity
 67
     1
  8
TEXTE
100
AcDbText
 10
80.2255070518886
 20
24.06889258289368
 30
0.0
 40
2.5
  1
 
  7
ISOCP
100
AcDbAttribute
  2
BEARBNAME
 70
     0
  0
ATTRIB
  5
2624
330
261D
100
AcDbEntity
 67
     1
  8
TEXTE
100
AcDbText
 10
64.67498943747313
 20
36.81889258289368
 30
0.0
 40
2.5
  1
 
  7
ISOCP
100
AcDbAttribute
  2
BEARBDAT
 70
     0
  0
ATTRIB
  5
2625
330
261D
100
AcDbEntity
 67
     1
  8
TEXTE
100
AcDbText
 10
80.2255070518886
 20
36.81889258289368
 30
0.0
 40
2.5
  1
 
  7
ISOCP
100
AcDbAttribute
  2
BEARBNAME
 70
     0
  0
ATTRIB
  5
2626
330
261D
100
AcDbEntity
 67
     1
  8
TEXTE
100
AcDbText
 10
64.67498943747313
 20
32.56889258289368
 30
0.0
 40
2.5
  1
 
  7
ISOCP
100
AcDbAttribute
  2
GEPR-DAT
 70
     0
  0
ATTRIB
  5
2627
330
261D
100
AcDbEntity
 67
     1
  8
TEXTE
100
AcDbText
 10
80.2255070518886
 20
32.56889258289368
 30
0.0
 40
2.5
  1

  7
ISOCP
100
AcDbAttribute
  2
GEPÜNAME
 70
     0
  0
ATTRIB
  5
2628
330
261D
100
AcDbEntity
 67
     1
  8
TEXTE
100
AcDbText
 10
64.67498943747307
 20
28.31889258289368
 30
0.0
 40
2.5
  1

  7
ISOCP
100
AcDbAttribute
  2
NORMBDAT
 70
     0
  0
ATTRIB
  5
2629
330
261D
100
AcDbEntity
 67
     1
  8
TEXTE
100
AcDbText
 10
80.2255070518886
 20
28.31889258289368
 30
0.0
 40
2.5
  1
 
  7
ISOCP
100
AcDbAttribute
  2
BEARBNAME
 70
     0
  0
ATTRIB
  5
262A
330
261D
100
AcDbEntity
 67
     1
  8
TEXTE
100
AcDbText
 10
87.88205838204664
 20
70.81889258289362
 30
0.0
 40
2.5
  1
.
  7
ISOCP
 72
     1
 11
88.25705838204664
 21
70.81889258289362
 31
0.0
100
AcDbAttribute
  2
MAßSTAB1
 70
     0
  0
ATTRIB
  5
262B
330
261D
100
AcDbEntity
 67
     1
  8
TEXTE
100
AcDbText
 10
87.84749403442248
 20
66.56889258289362
 30
0.0
 40
2.5
  1
 
  7
ISOCP
 72
     1
 11
88.59749403442249
 21
66.56889258289362
 31
0.0
100
AcDbAttribute
  2
MAßSTAB2
 70
     0
  0
ATTRIB
  5
262C
330
261D
100
AcDbEntity
 67
     1
  8
TEXTE
100
AcDbText
 10
87.84749403442248
 20
62.31889258289363
 30
0.0
 40
2.5
  1
 
  7
ISOCP
 72
     1
 11
88.59749403442249
 21
62.31889258289363
 31
0.0
100
AcDbAttribute
  2
MAßSTAB3
 70
     0
  0
ATTRIB
  5
262D
330
261D
100
AcDbEntity
 67
     1
  8
TEXTE
100
AcDbText
 10
64.67498943747319
 20
7.068892582893681
 30
0.0
 40
2.5
  1
.
  7
ISOCP
100
AcDbAttribute
  2
URSPRUNG
 70
     0
  0
ATTRIB
  5
262E
330
261D
100
AcDbEntity
 67
     1
  8
TEXTE
100
AcDbText
 10
108.8749894374732
 20
7.068892582893681
 30
0.0
 40
2.5
  1
.
  7
ISOCP
100
AcDbAttribute
  2
ERSETZTFÜR
 70
     0
  0
ATTRIB
  5
262F
330
261D
100
AcDbEntity
 67
     1
  8
TEXTE
100
AcDbText
 10
157.5749894374731
 20
7.068892582893624
 30
0.0
 40
2.5
  1
.
  7
ISOCP
100
AcDbAttribute
  2
ERSTELLTFÜR
 70
     0
  0
ATTRIB
  5
2630
330
261D
100
AcDbEntity
 67
     1
  8
TEXTE
100
AcDbText
 10
8.674989437473129
 20
11.31889258289368
 30
0.0
 40
2.5
  1
 
  7
ISOCP
100
AcDbAttribute
  2
ZUST.
 70
     0
  0
ATTRIB
  5
2631
330
261D
100
AcDbEntity
 67
     1
  8
TEXTE
100
AcDbText
 10
16.81928398878085
 20
11.31889258289368
 30
0.0
 40
2.5
  1
 
  7
ISOCP
100
AcDbAttribute
  2
ÄND.
 70
     0
  0
ATTRIB
  5
2632
330
261D
100
AcDbEntity
 67
     1
  8
TEXTE
100
AcDbText
 10
29.97470998072612
 20
11.2278962600335
 30
0.0
 40
2.5
  1
 
 41
3.916666666666666
  7
ISOCP
 72
     5
 11
35.84970998072612
 21
11.2278962600335
 31
0.0
100
AcDbAttribute
  2
DAT
 70
     0
  0
ATTRIB
  5
2633
330
261D
100
AcDbEntity
 67
     1
  8
TEXTE
100
AcDbText
 10
42.55640405010382
 20
11.2278962600335
 30
0.0
 40
2.5
  1
 
  7
ISOCP
100
AcDbAttribute
  2
NAME
 70
     0
  0
ATTRIB
  5
2634
330
261D
100
AcDbEntity
 67
     1
  8
TEXTE
100
AcDbText
 10
8.674989437473129
 20
15.56889258289368
 30
0.0
 40
2.5
  1
 
  7
ISOCP
100
AcDbAttribute
  2
ZUST.
 70
     0
  0
ATTRIB
  5
2635
330
261D
100
AcDbEntity
 67
     1
  8
TEXTE
100
AcDbText
 10
16.81928398878085
 20
15.56889258289368
 30
0.0
 40
2.5
  1
 
  7
ISOCP
100
AcDbAttribute
  2
ÄND.
 70
     0
  0
ATTRIB
  5
2636
330
261D
100
AcDbEntity
 67
     1
  8
TEXTE
100
AcDbText
 10
29.97470998072612
 20
15.4778962600335
 30
0.0
 40
2.5
  1
 
 41
3.916666666666666
  7
ISOCP
 72
     5
 11
35.84970998072612
 21
15.4778962600335
 31
0.0
100
AcDbAttribute
  2
DAT
 70
     0
  0
ATTRIB
  5
2637
330
261D
100
AcDbEntity
 67
     1
  8
TEXTE
100
AcDbText
 10
42.55640405010382
 20
15.4778962600335
 30
0.0
 40
2.5
  1
 
  7
ISOCP
100
AcDbAttribute
  2
NAME
 70
     0
  0
ATTRIB
  5
2638
330
261D
100
AcDbEntity
 67
     1
  8
TEXTE
100
AcDbText
 10
8.674989437473129
 20
19.81889258289368
 30
0.0
 40
2.5
  1
 
  7
ISOCP
100
AcDbAttribute
  2
ZUST.
 70
     0
  0
ATTRIB
  5
2639
330
261D
100
AcDbEntity
 67
     1
  8
TEXTE
100
AcDbText
 10
16.81928398878085
 20
19.81889258289368
 30
0.0
 40
2.5
  1
 
  7
ISOCP
100
AcDbAttribute
  2
ÄND.
 70
     0
  0
ATTRIB
  5
263A
330
261D
100
AcDbEntity
 67
     1
  8
TEXTE
100
AcDbText
 10
29.97470998072612
 20
19.7278962600335
 30
0.0
 40
2.5
  1
 
 41
3.916666666666666
  7
ISOCP
 72
     5
 11
35.84970998072612
 21
19.7278962600335
 31
0.0
100
AcDbAttribute
  2
DAT
 70
     0
  0
ATTRIB
  5
263B
330
261D
100
AcDbEntity
 67
     1
  8
TEXTE
100
AcDbText
 10
42.55640405010382
 20
19.7278962600335
 30
0.0
 40
2.5
  1
 
  7
ISOCP
100
AcDbAttribute
  2
NAME
 70
     0
  0
ATTRIB
  5
263C
330
261D
100
AcDbEntity
 67
     1
  8
TEXTE
100
AcDbText
 10
8.674989437473129
 20
24.06889258289368
 30
0.0
 40
2.5
  1
 
  7
ISOCP
100
AcDbAttribute
  2
ZUST.
 70
     0
  0
ATTRIB
  5
263D
330
261D
100
AcDbEntity
 67
     1
  8
TEXTE
100
AcDbText
 10
16.81928398878085
 20
24.06889258289368
 30
0.0
 40
2.5
  1
 
  7
ISOCP
100
AcDbAttribute
  2
ÄND.
 70
     0
  0
ATTRIB
  5
263E
330
261D
100
AcDbEntity
 67
     1
  8
TEXTE
100
AcDbText
 10
29.97470998072612
 20
23.9778962600335
 30
0.0
 40
2.5
  1
 
 41
3.916666666666666
  7
ISOCP
 72
     5
 11
35.84970998072612
 21
23.9778962600335
 31
0.0
100
AcDbAttribute
  2
DAT
 70
     0
  0
ATTRIB
  5
263F
330
261D
100
AcDbEntity
 67
     1
  8
TEXTE
100
AcDbText
 10
42.55640405010382
 20
23.9778962600335
 30
0.0
 40
2.5
  1

  7
ISOCP
100
AcDbAttribute
  2
NAME
 70
     0
  0
ATTRIB
  5
2640
330
261D
100
AcDbEntity
 67
     1
  8
TEXTE
100
AcDbText
 10
8.674989437473129
 20
28.31889258289368
 30
0.0
 40
2.5
  1

  7
ISOCP
100
AcDbAttribute
  2
ZUST.
 70
     0
  0
ATTRIB
  5
2641
330
261D
100
AcDbEntity
 67
     1
  8
TEXTE
100
AcDbText
 10
16.81928398878085
 20
28.31889258289368
 30
0.0
 40
2.5
  1

  7
ISOCP
100
AcDbAttribute
  2
ÄND.
 70
     0
  0
ATTRIB
  5
2642
330
261D
100
AcDbEntity
 67
     1
  8
TEXTE
100
AcDbText
 10
29.97470998072612
 20
28.22789626003351
 30
0.0
 40
2.5
  1

  7
ISOCP
 72
     5
 11
35.84970998072612
 21
28.22789626003351
 31
0.0
100
AcDbAttribute
  2
DAT
 70
     0
  0
ATTRIB
  5
2643
330
261D
100
AcDbEntity
 67
     1
  8
TEXTE
100
AcDbText
 10
42.55640405010382
 20
28.22789626003351
 30
0.0
 40
2.5
  1

  7
ISOCP
100
AcDbAttribute
  2
NAME
 70
     0
  0
ATTRIB
  5
2644
330
261D
100
AcDbEntity
 67
     1
  8
TEXTE
100
AcDbText
 10
8.674989437473129
 20
32.56889258289368
 30
0.0
 40
2.5
  1

  7
ISOCP
100
AcDbAttribute
  2
ZUST.
 70
     0
  0
ATTRIB
  5
2645
330
261D
100
AcDbEntity
 67
     1
  8
TEXTE
100
AcDbText
 10
16.81928398878085
 20
32.56889258289368
 30
0.0
 40
2.5
  1

  7
ISOCP
100
AcDbAttribute
  2
ÄND.
 70
     0
  0
ATTRIB
  5
2646
330
261D
100
AcDbEntity
 67
     1
  8
TEXTE
100
AcDbText
 10
29.97470998072612
 20
32.4778962600335
 30
0.0
 40
2.5
  1

  7
ISOCP
 72
     5
 11
35.84970998072612
 21
32.4778962600335
 31
0.0
100
AcDbAttribute
  2
DAT
 70
     0
  0
ATTRIB
  5
2647
330
261D
100
AcDbEntity
 67
     1
  8
TEXTE
100
AcDbText
 10
42.55640405010382
 20
32.4778962600335
 30
0.0
 40
2.5
  1

  7
ISOCP
100
AcDbAttribute
  2
NAME
 70
     0
  0
ATTRIB
  5
2648
330
261D
100
AcDbEntity
 67
     1
  8
TEXTE
100
AcDbText
 10
8.674989437473129
 20
36.81889258289368
 30
0.0
 40
2.5
  1

  7
ISOCP
100
AcDbAttribute
  2
ZUST.
 70
     0
  0
ATTRIB
  5
2649
330
261D
100
AcDbEntity
 67
     1
  8
TEXTE
100
AcDbText
 10
16.81928398878085
 20
36.81889258289368
 30
0.0
 40
2.5
  1

  7
ISOCP
100
AcDbAttribute
  2
ÄND.
 70
     0
  0
ATTRIB
  5
264A
330
261D
100
AcDbEntity
 67
     1
  8
TEXTE
100
AcDbText
 10
29.97470998072612
 20
36.7278962600335
 30
0.0
 40
2.5
  1

  7
ISOCP
 72
     5
 11
35.84970998072612
 21
36.7278962600335
 31
0.0
100
AcDbAttribute
  2
DAT
 70
     0
  0
ATTRIB
  5
264B
330
261D
100
AcDbEntity
 67
     1
  8
TEXTE
100
AcDbText
 10
42.55640405010382
 20
36.7278962600335
 30
0.0
 40
2.5
  1

  7
ISOCP
100
AcDbAttribute
  2
NAME
 70
     0
  0
ATTRIB
  5
264C
330
261D
100
AcDbEntity
 67
     1
  8
TEXTE
100
AcDbText
 10
8.674989437473129
 20
41.06889258289368
 30
0.0
 40
2.5
  1

  7
ISOCP
100
AcDbAttribute
  2
ZUST.
 70
     0
  0
ATTRIB
  5
264D
330
261D
100
AcDbEntity
 67
     1
  8
TEXTE
100
AcDbText
 10
16.81928398878085
 20
41.06889258289368
 30
0.0
 40
2.5
  1

  7
ISOCP
100
AcDbAttribute
  2
ÄND.
 70
     0
  0
ATTRIB
  5
264E
330
261D
100
AcDbEntity
 67
     1
  8
TEXTE
100
AcDbText
 10
29.97470998072618
 20
40.9778962600335
 30
0.0
 40
2.5
  1

  7
ISOCP
 72
     5
 11
35.84970998072618
 21
40.9778962600335
 31
0.0
100
AcDbAttribute
  2
DAT
 70
     0
  0
ATTRIB
  5
264F
330
261D
100
AcDbEntity
 67
     1
  8
TEXTE
100
AcDbText
 10
42.55640405010382
 20
40.9778962600335
 30
0.0
 40
2.5
  1

  7
ISOCP
100
AcDbAttribute
  2
NAME
 70
     0
  0
ATTRIB
  5
2650
330
261D
100
AcDbEntity
 67
     1
  8
TEXTE
100
AcDbText
 10
8.674989437473129
 20
45.31889258289368
 30
0.0
 40
2.5
  1

  7
ISOCP
100
AcDbAttribute
  2
ZUST.
 70
     0
  0
ATTRIB
  5
2651
330
261D
100
AcDbEntity
 67
     1
  8
TEXTE
100
AcDbText
 10
16.81928398878085
 20
45.31889258289368
 30
0.0
 40
2.5
  1

  7
ISOCP
100
AcDbAttribute
  2
ÄND.
 70
     0
  0
ATTRIB
  5
2652
330
261D
100
AcDbEntity
 67
     1
  8
TEXTE
100
AcDbText
 10
29.97470998072618
 20
45.2278962600335
 30
0.0
 40
2.5
  1

  7
ISOCP
 72
     5
 11
35.84970998072618
 21
45.2278962600335
 31
0.0
100
AcDbAttribute
  2
DAT
 70
     0
  0
ATTRIB
  5
2653
330
261D
100
AcDbEntity
 67
     1
  8
TEXTE
100
AcDbText
 10
42.55640405010382
 20
45.2278962600335
 30
0.0
 40
2.5
  1

  7
ISOCP
100
AcDbAttribute
  2
NAME
 70
     0
  0
ATTRIB
  5
2654
330
261D
100
AcDbEntity
 67
     1
  8
TEXTE
100
AcDbText
 10
8.674989437473129
 20
49.56889258289368
 30
0.0
 40
2.5
  1

  7
ISOCP
100
AcDbAttribute
  2
ZUST.
 70
     0
  0
ATTRIB
  5
2655
330
261D
100
AcDbEntity
 67
     1
  8
TEXTE
100
AcDbText
 10
16.81928398878085
 20
49.56889258289368
 30
0.0
 40
2.5
  1

  7
ISOCP
100
AcDbAttribute
  2
ÄND.
 70
     0
  0
ATTRIB
  5
2656
330
261D
100
AcDbEntity
 67
     1
  8
TEXTE
100
AcDbText
 10
29.97470998072618
 20
49.4778962600335
 30
0.0
 40
2.5
  1

  7
ISOCP
 72
     5
 11
35.84970998072618
 21
49.4778962600335
 31
0.0
100
AcDbAttribute
  2
DAT
 70
     0
  0
ATTRIB
  5
2657
330
261D
100
AcDbEntity
 67
     1
  8
TEXTE
100
AcDbText
 10
42.55640405010382
 20
49.4778962600335
 30
0.0
 40
2.5
  1

  7
ISOCP
100
AcDbAttribute
  2
NAME
 70
     0
  0
ATTRIB
  5
2658
330
261D
100
AcDbEntity
 67
     1
  8
TEXTE
100
AcDbText
 10
8.674989437473129
 20
53.81889258289368
 30
0.0
 40
2.5
  1

  7
ISOCP
100
AcDbAttribute
  2
ZUST.
 70
     0
  0
ATTRIB
  5
2659
330
261D
100
AcDbEntity
 67
     1
  8
TEXTE
100
AcDbText
 10
16.81928398878085
 20
53.81889258289368
 30
0.0
 40
2.5
  1

  7
ISOCP
100
AcDbAttribute
  2
ÄND.
 70
     0
  0
ATTRIB
  5
265A
330
261D
100
AcDbEntity
 67
     1
  8
TEXTE
100
AcDbText
 10
29.97470998072612
 20
53.7278962600335
 30
0.0
 40
2.5
  1

  7
ISOCP
 72
     5
 11
35.84970998072612
 21
53.7278962600335
 31
0.0
100
AcDbAttribute
  2
DAT
 70
     0
  0
ATTRIB
  5
265B
330
261D
100
AcDbEntity
 67
     1
  8
TEXTE
100
AcDbText
 10
42.55640405010382
 20
53.7278962600335
 30
0.0
 40
2.5
  1

  7
ISOCP
100
AcDbAttribute
  2
NAME
 70
     0
  0
ATTRIB
  5
265C
330
261D
100
AcDbEntity
 67
     1
  8
TEXTE
100
AcDbText
 10
8.674989437473129
 20
58.06889258289363
 30
0.0
 40
2.5
  1

  7
ISOCP
100
AcDbAttribute
  2
ZUST.
 70
     0
  0
ATTRIB
  5
265D
330
261D
100
AcDbEntity
 67
     1
  8
TEXTE
100
AcDbText
 10
16.81928398878085
 20
58.06889258289363
 30
0.0
 40
2.5
  1

  7
ISOCP
100
AcDbAttribute
  2
ÄND.
 70
     0
  0
ATTRIB
  5
265E
330
261D
100
AcDbEntity
 67
     1
  8
TEXTE
100
AcDbText
 10
29.97470998072612
 20
57.9778962600335
 30
0.0
 40
2.5
  1

  7
ISOCP
 72
     5
 11
35.84970998072612
 21
57.9778962600335
 31
0.0
100
AcDbAttribute
  2
DAT
 70
     0
  0
ATTRIB
  5
265F
330
261D
100
AcDbEntity
 67
     1
  8
TEXTE
100
AcDbText
 10
42.55640405010382
 20
57.9778962600335
 30
0.0
 40
2.5
  1

  7
ISOCP
100
AcDbAttribute
  2
NAME
 70
     0
  0
SEQEND
  5
2660
330
261D
100
AcDbEntity
 67
     1
  8
OBJEKT
  0
LINE
  5
2661
330
2588
100
AcDbEntity
 67
     1
  8
OBJEKT
100
AcDbLine
 10
194.7175057884606
 20
276.000216251558
 30
0.0
 11
7.517505788460596
 21
276.000216251558
 31
0.0
  0
LINE
  5
2662
330
2588
100
AcDbEntity
 67
     1
  8
OBJEKT
100
AcDbLine
 10
194.7175057884606
 20
6.000216251557958
 30
0.0
 11
7.517505788460596
 21
6.000216251557958
 31
0.0
  0
VIEWPORT
  5
2663
330
2588
100
AcDbEntity
 67
     1
  8
OBJEKT
100
AcDbViewport
 10
101.1175057884606
 20
141.0002162515579
 30
0.0
 40
187.2
 41
270.0
 68
     0
 69
     2
 12
6.842520586879573
 22
-59.68048176154715
 13
0.0
 23
0.0
 14
10.0
 24
10.0
 15
10.0
 25
10.0
 16
0.0
 26
0.0
 36
1.0
 17
0.0
 27
0.0
 37
0.0
 42
50.0
 43
0.0
 44
0.0
 45
269.9999999723559
 50
0.0
 51
0.0
 72
   100
 90
   163872
  1

281
     0
 71
     1
 74
     0
110
0.0
120
0.0
130
0.0
111
1.0
121
0.0
131
0.0
112
0.0
122
1.0
132
0.0
 79
     0
146
0.0
170
     0
  0
LINE
  5
2664
330
2588
100
AcDbEntity
 67
     1
  8
OBJEKT
100
AcDbLine
 10
7.517505788460596
 20
6.000216251557958
 30
0.0
 11
7.517505788460596
 21
274.000216251558
 31
0.0
  0
LINE
  5
2665
330
2588
100
AcDbEntity
 67
     1
  8
OBJEKT
100
AcDbLine
 10
194.7175057884606
 20
6.000216251557958
 30
0.0
 11
194.7175057884605
 21
274.0002162515581
 31
0.0
  0
VIEWPORT
  5
2755
330
2588
100
AcDbEntity
 67
     1
  8
Ansichtsfenster
100
AcDbViewport
 10
101.1175057884606
 20
191.1230450920002
 30
0.0
 40
187.2
 41
169.7543423191154
 68
     3
 69
     3
 12
9.743693412895993
 22
-3.745714603259887
 13
0.0
 23
0.0
 14
10.0
 24
10.0
 15
10.0
 25
10.0
 16
0.0
 26
0.0
 36
1.0
 17
0.0
 27
0.0
 37
0.0
 42
50.0
 43
0.0
 44
0.0
 45
169.7543428937516
 50
0.0
 51
0.0
 72
   100
 90
    32800
  1

281
     0
 71
     1
 74
     0
110
0.0
120
0.0
130
0.0
111
1.0
121
0.0
131
0.0
112
0.0
122
1.0
132
0.0
 79
     0
146
0.0
170
     0
  0
LINE
  5
2933
330
2588
100
AcDbEntity
 67
     1
  8
OBJEKT
100
AcDbLine
 10
150.3091687168215
 20
106.2458739324425
 30
0.0
 11
194.7175057884606
 21
106.2458739324425
 31
0.0
  0
ENDSEC
  0
SECTION
  2
OBJECTS
  0
DICTIONARY
  5
C
330
0
100
AcDbDictionary
281
     1
  3
ACAD_COLOR
350
333B
  3
ACAD_GROUP
350
D
  3
ACAD_LAYOUT
350
144A
  3
ACAD_MATERIAL
350
333A
  3
ACAD_MLINESTYLE
350
1B
  3
ACAD_PLOTSETTINGS
350
144B
  3
ACAD_PLOTSTYLENAME
350
1448
  3
ACDBVARIABLEDICTIONARY
350
20
  0
DICTIONARY
  5
333B
102
{ACAD_REACTORS
330
C
102
}
330
C
100
AcDbDictionary
281
     1
  0
DICTIONARY
  5
D
102
{ACAD_REACTORS
330
C
102
}
330
C
100
AcDbDictionary
281
     1
  0
DICTIONARY
  5
144A
102
{ACAD_REACTORS
330
C
102
}
330
C
100
AcDbDictionary
281
     1
  3
Auftrag A3
350
258D
  3
Auftrag A4
350
2589
  3
Model
350
144C
  3
Projekt A4
350
23BB
  3
Projekte A3
350
23BF
  0
DICTIONARY
  5
333A
102
{ACAD_REACTORS
330
C
102
}
330
C
100
AcDbDictionary
281
     1
  0
DICTIONARY
  5
1B
102
{ACAD_REACTORS
330
C
102
}
330
C
100
AcDbDictionary
281
     1
  3
STANDARD
350
1C
  0
DICTIONARY
  5
144B
102
{ACAD_REACTORS
330
C
102
}
330
C
100
AcDbDictionary
281
     1
  0
ACDBDICTIONARYWDFLT
  5
1448
102
{ACAD_REACTORS
330
C
102
}
330
C
100
AcDbDictionary
281
     1
  3
Normal
350
1449
100
AcDbDictionaryWithDefault
340
1449
  0
DICTIONARY
  5
20
102
{ACAD_REACTORS
330
C
102
}
330
C
100
AcDbDictionary
281
     1
  3
DIMADEC
350
21
  3
SORTENTS
350
1184
  0
LAYOUT
  5
258D
102
{ACAD_REACTORS
330
144A
102
}
330
144A
100
AcDbPlotSettings
  1

  2
\\DOYMAIAS\TE-HPLJ500T
  4
A3
  6

 40
6.085416793823242
 41
6.12772798538208
 42
5.662078857421875
 43
5.53509521484375
 44
296.9683227539062
 45
419.9889831542968
 46
0.0
 47
0.0
 48
0.0
 49
0.0
140
0.0
141
0.0
142
1.0
143
1.0
 70
   688
 72
     1
 73
     1
 74
     5
  7
monochrome.ctb
 75
    16
147
1.0
 76
     0
 77
     2
 78
   300
148
0.0
149
0.0
100
AcDbLayout
  1
Auftrag A3
 70
     1
 71
     2
 10
-5.53509521484375
 20
-6.085416793823242
 11
414.4538879394531
 21
290.882905960083
 12
0.0
 22
0.0
 32
0.0
 14
14.61421102910242
 24
4.670531641252523
 34
0.0
 15
402.614211115104
 25
281.6705316412525
 35
0.0
146
0.0
 13
0.0
 23
0.0
 33
0.0
 16
1.0
 26
0.0
 36
0.0
 17
0.0
 27
1.0
 37
0.0
 76
     0
330
258C
331
266A
  0
LAYOUT
  5
2589
102
{ACAD_REACTORS
330
144A
102
}
330
144A
100
AcDbPlotSettings
  1

  2
\\DOYMAIAS\TE-HPLJ500T
  4
A4
  6

 40
5.873749732971191
 41
5.408092021942138
 42
5.577407836914062
 43
5.069427490234375
 44
209.9733276367187
 45
296.9683227539062
 46
0.0
 47
0.0
 48
0.0
 49
0.0
140
0.0
141
0.0
142
1.0
143
1.0
 70
   688
 72
     1
 73
     0
 74
     5
  7
monochrome.ctb
 75
    16
147
1.0
 76
     0
 77
     2
 78
   300
148
0.0
149
0.0
100
AcDbLayout
  1
Auftrag A4
 70
     1
 71
     1
 10
-5.873749732971191
 20
-5.408092021942138
 11
204.0995779037475
 21
291.5602307319641
 12
0.0
 22
0.0
 32
0.0
 14
7.517505788460596
 24
6.000216251557958
 34
0.0
 15
194.7175057884606
 25
276.000216251558
 35
0.0
146
0.0
 13
0.0
 23
0.0
 33
0.0
 16
1.0
 26
0.0
 36
0.0
 17
0.0
 27
1.0
 37
0.0
 76
     0
330
2588
331
2593
  0
LAYOUT
  5
144C
102
{ACAD_REACTORS
330
144A
102
}
330
144A
100
AcDbPlotSettings
  1

  2
\\dv-comdisp\PDFCreator
  4
A4
  6

 40
3.174999952316284
 41
3.174999952316284
 42
3.17498779296875
 43
3.175003051757812
 44
297.0318298339844
 45
209.9098358154297
 46
15.38
 47
3.81
 48
1140.568255731697
 49
-93.68560200756474
140
1790.364171804021
141
396.1490879324419
142
1.0
143
2.5
 70
 11940
 72
     1
 73
     0
 74
     4
  7
monochrome.ctb
 75
     0
147
0.4
 76
     0
 77
     4
 78
  1200
148
-1140.568255731697
149
93.68560200756474
100
AcDbLayout
  1
Model
 70
     1
 71
     0
 10
0.0
 20
0.0
 11
12.0
 21
9.0
 12
0.0
 22
0.0
 32
0.0
 14
0.0
 24
0.0
 34
0.0
 15
0.0
 25
0.0
 35
0.0
146
0.0
 13
0.0
 23
0.0
 33
0.0
 16
1.0
 26
0.0
 36
0.0
 17
0.0
 27
1.0
 37
0.0
 76
     0
330
18
  0
LAYOUT
  5
23BB
102
{ACAD_REACTORS
330
144A
102
}
330
144A
100
AcDbPlotSettings
  1

  2
\\DOYMAIAS\TE-HPLJ500T
  4
A4
  6

 40
5.873749732971191
 41
5.408092021942138
 42
5.577407836914062
 43
5.069427490234375
 44
209.9733276367187
 45
296.9683227539062
 46
5.0
 47
2.0
 48
1.723579020584338
 49
2.336566218124062
140
194.6156956570862
141
278.9816687777482
142
1.0
143
1.0
 70
   688
 72
     1
 73
     0
 74
     4
  7
monochrome.ctb
 75
    16
147
1.0
 76
     0
 77
     2
 78
   300
148
-1.723579020584338
149
-2.336566218124062
100
AcDbLayout
  1
Projekt A4
 70
     1
 71
     3
 10
-9.150170712386852
 20
-5.071525803818076
 11
200.8231569243319
 21
291.8967969500882
 12
0.0
 22
0.0
 32
0.0
 14
3.463887621238484
 24
4.828902423817311
 34
0.0
 15
192.625094329755
 25
277.8289024238173
 35
0.0
146
0.0
 13
0.0
 23
0.0
 33
0.0
 16
1.0
 26
0.0
 36
0.0
 17
0.0
 27
1.0
 37
0.0
 76
     0
330
23BA
331
23C5
  0
LAYOUT
  5
23BF
102
{ACAD_REACTORS
330
144A
102
}
330
144A
100
AcDbPlotSettings
  1

  2
\\DOYMAIAS\TE-HPLJ500T
  4
A3
  6

 40
6.085416793823242
 41
6.12772798538208
 42
5.662078857421875
 43
5.53509521484375
 44
296.9683227539062
 45
419.9889831542968
 46
0.0
 47
10.0
 48
7.176977667887967
 49
4.541390972050407
140
400.6112441386464
141
284.0396907129682
142
1.0
143
1.0
 70
   688
 72
     1
 73
     1
 74
     4
  7
monochrome.ctb
 75
    16
147
1.0
 76
     0
 77
     2
 78
   300
148
-7.176977667887967
149
-4.541390972050407
100
AcDbLayout
  1
Projekte A3
 70
     1
 71
     4
 10
-8.358117546955782
 20
-1.544025821772834
 11
411.630865607341
 21
295.4242969321334
 12
0.0
 22
0.0
 32
0.0
 14
3.354302467962611
 24
4.455883883873752
 34
0.0
 15
400.6112441386464
 25
283.5413909720504
 35
0.0
146
0.0
 13
0.0
 23
0.0
 33
0.0
 16
1.0
 26
0.0
 36
0.0
 17
0.0
 27
1.0
 37
0.0
 76
     0
330
23BE
331
24D9
  0
MLINESTYLE
  5
1C
102
{ACAD_REACTORS
330
1B
102
}
330
1B
100
AcDbMlineStyle
  2
STANDARD
 70
     0
  3

 62
   256
 51
90.0
 52
90.0
 71
     2
 49
0.5
 62
   256
  6
BYLAYER
 49
-0.5
 62
   256
  6
BYLAYER
  0
ACDBPLACEHOLDER
  5
1449
102
{ACAD_REACTORS
330
1448
102
}
330
1448
  0
DICTIONARYVAR
  5
21
102
{ACAD_REACTORS
330
20
102
}
330
20
100
DictionaryVariables
280
     0
  1
0
  0
DICTIONARYVAR
  5
1184
102
{ACAD_REACTORS
330
20
102
}
330
20
100
DictionaryVariables
280
     0
  1
96
  0
ENDSEC
  0
EOF
